  0
SECTION
  2
HEADER
  9
$ACADVER
  1
AC1015
  9
$ACADMAINTVER
 70
    20
  9
$DWGCODEPAGE
  3
ANSI_1252
  9
$INSBASE
 10
0.0
 20
0.0
 30
0.0
  9
$EXTMIN
 10
-13.26763737349256
 20
47.75573855936045
 30
-0.0000000349181948
  9
$EXTMAX
 10
234.4258435580714
 20
247.0874033298896
 30
0.0000000814935747
  9
$LIMMIN
 10
-170.0
 20
-170.0
  9
$LIMMAX
 10
519.0
 20
260.0
  9
$ORTHOMODE
 70
     1
  9
$REGENMODE
 70
     1
  9
$FILLMODE
 70
     1
  9
$QTEXTMODE
 70
     0
  9
$MIRRTEXT
 70
     1
  9
$LTSCALE
 40
10.0
  9
$ATTMODE
 70
     1
  9
$TEXTSIZE
 40
3.5
  9
$TRACEWID
 40
0.05
  9
$TEXTSTYLE
  7
SIMPLEX
  9
$CLAYER
  8
SK6
  9
$CELTYPE
  6
BYLAYER
  9
$CECOLOR
 62
   256
  9
$CELTSCALE
 40
1.0
  9
$DISPSILH
 70
     0
  9
$DIMSCALE
 40
1.0
  9
$DIMASZ
 40
5.0
  9
$DIMEXO
 40
1.0
  9
$DIMDLI
 40
0.5
  9
$DIMRND
 40
0.0
  9
$DIMDLE
 40
0.0
  9
$DIMEXE
 40
1.0
  9
$DIMTP
 40
0.0
  9
$DIMTM
 40
0.0
  9
$DIMTXT
 40
5.0
  9
$DIMCEN
 40
0.0
  9
$DIMTSZ
 40
0.0
  9
$DIMTOL
 70
     0
  9
$DIMLIM
 70
     0
  9
$DIMTIH
 70
     0
  9
$DIMTOH
 70
     0
  9
$DIMSE1
 70
     0
  9
$DIMSE2
 70
     0
  9
$DIMTAD
 70
     1
  9
$DIMZIN
 70
     0
  9
$DIMBLK
  1

  9
$DIMASO
 70
     1
  9
$DIMSHO
 70
     1
  9
$DIMPOST
  1

  9
$DIMAPOST
  1

  9
$DIMALT
 70
     0
  9
$DIMALTD
 70
     2
  9
$DIMALTF
 40
25.4
  9
$DIMLFAC
 40
1.0
  9
$DIMTOFL
 70
     0
  9
$DIMTVP
 40
0.0
  9
$DIMTIX
 70
     0
  9
$DIMSOXD
 70
     0
  9
$DIMSAH
 70
     0
  9
$DIMBLK1
  1

  9
$DIMBLK2
  1

  9
$DIMSTYLE
  2
V-TYG_160-300
  9
$DIMCLRD
 70
     0
  9
$DIMCLRE
 70
     0
  9
$DIMCLRT
 70
     0
  9
$DIMTFAC
 40
1.0
  9
$DIMGAP
 40
1.0
  9
$DIMJUST
 70
     0
  9
$DIMSD1
 70
     0
  9
$DIMSD2
 70
     0
  9
$DIMTOLJ
 70
     1
  9
$DIMTZIN
 70
     0
  9
$DIMALTZ
 70
     0
  9
$DIMALTTZ
 70
     0
  9
$DIMUPT
 70
     0
  9
$DIMDEC
 70
     0
  9
$DIMTDEC
 70
     0
  9
$DIMALTU
 70
     2
  9
$DIMALTTD
 70
     2
  9
$DIMTXSTY
  7
STANDARD
  9
$DIMAUNIT
 70
     0
  9
$DIMADEC
 70
     0
  9
$DIMALTRND
 40
0.0
  9
$DIMAZIN
 70
     0
  9
$DIMDSEP
 70
    46
  9
$DIMATFIT
 70
     3
  9
$DIMFRAC
 70
     0
  9
$DIMLDRBLK
  1

  9
$DIMLUNIT
 70
     2
  9
$DIMLWD
 70
    -2
  9
$DIMLWE
 70
    -2
  9
$DIMTMOVE
 70
     0
  9
$LUNITS
 70
     2
  9
$LUPREC
 70
     2
  9
$SKETCHINC
 40
0.1
  9
$FILLETRAD
 40
0.0
  9
$AUNITS
 70
     0
  9
$AUPREC
 70
     0
  9
$MENU
  1
TDMWIN
  9
$ELEVATION
 40
0.0
  9
$PELEVATION
 40
0.0
  9
$THICKNESS
 40
0.0
  9
$LIMCHECK
 70
     0
  9
$CHAMFERA
 40
0.0
  9
$CHAMFERB
 40
0.0
  9
$CHAMFERC
 40
0.0
  9
$CHAMFERD
 40
0.0
  9
$SKPOLY
 70
     0
  9
$TDCREATE
 40
2455601.550714444
  9
$TDUCREATE
 40
2455601.321547778
  9
$TDUPDATE
 40
2455601.668936563
  9
$TDUUPDATE
 40
2455601.439769896
  9
$TDINDWG
 40
0.0077373727
  9
$TDUSRTIMER
 40
0.0077366435
  9
$USRTIMER
 70
     1
  9
$ANGBASE
 50
0.0
  9
$ANGDIR
 70
     0
  9
$PDMODE
 70
     2
  9
$PDSIZE
 40
0.0
  9
$PLINEWID
 40
0.0
  9
$SPLFRAME
 70
     0
  9
$SPLINETYPE
 70
     6
  9
$SPLINESEGS
 70
     8
  9
$HANDSEED
  5
1A9E
  9
$SURFTAB1
 70
     6
  9
$SURFTAB2
 70
     6
  9
$SURFTYPE
 70
     6
  9
$SURFU
 70
     6
  9
$SURFV
 70
     6
  9
$UCSBASE
  2

  9
$UCSNAME
  2

  9
$UCSORG
 10
94.18201766031677
 20
130.1475456112843
 30
0.0
  9
$UCSXDIR
 10
1.0
 20
0.0
 30
0.0
  9
$UCSYDIR
 10
0.0
 20
1.0
 30
0.0
  9
$UCSORTHOREF
  2

  9
$UCSORTHOVIEW
 70
     0
  9
$UCSORGTOP
 10
0.0
 20
0.0
 30
0.0
  9
$UCSORGBOTTOM
 10
0.0
 20
0.0
 30
0.0
  9
$UCSORGLEFT
 10
0.0
 20
0.0
 30
0.0
  9
$UCSORGRIGHT
 10
0.0
 20
0.0
 30
0.0
  9
$UCSORGFRONT
 10
0.0
 20
0.0
 30
0.0
  9
$UCSORGBACK
 10
0.0
 20
0.0
 30
0.0
  9
$PUCSBASE
  2

  9
$PUCSNAME
  2

  9
$PUCSORG
 10
0.0
 20
0.0
 30
0.0
  9
$PUCSXDIR
 10
1.0
 20
0.0
 30
0.0
  9
$PUCSYDIR
 10
0.0
 20
1.0
 30
0.0
  9
$PUCSORTHOREF
  2

  9
$PUCSORTHOVIEW
 70
     0
  9
$PUCSORGTOP
 10
0.0
 20
0.0
 30
0.0
  9
$PUCSORGBOTTOM
 10
0.0
 20
0.0
 30
0.0
  9
$PUCSORGLEFT
 10
0.0
 20
0.0
 30
0.0
  9
$PUCSORGRIGHT
 10
0.0
 20
0.0
 30
0.0
  9
$PUCSORGFRONT
 10
0.0
 20
0.0
 30
0.0
  9
$PUCSORGBACK
 10
0.0
 20
0.0
 30
0.0
  9
$USERI1
 70
     0
  9
$USERI2
 70
     0
  9
$USERI3
 70
     0
  9
$USERI4
 70
     0
  9
$USERI5
 70
     0
  9
$USERR1
 40
0.0
  9
$USERR2
 40
0.0
  9
$USERR3
 40
0.0
  9
$USERR4
 40
0.0
  9
$USERR5
 40
0.0
  9
$WORLDVIEW
 70
     1
  9
$SHADEDGE
 70
     3
  9
$SHADEDIF
 70
    70
  9
$TILEMODE
 70
     1
  9
$MAXACTVP
 70
    16
  9
$PINSBASE
 10
0.0
 20
0.0
 30
0.0
  9
$PLIMCHECK
 70
     0
  9
$PEXTMIN
 10
1.000000000000000E+20
 20
1.000000000000000E+20
 30
1.000000000000000E+20
  9
$PEXTMAX
 10
-1.000000000000000E+20
 20
-1.000000000000000E+20
 30
-1.000000000000000E+20
  9
$PLIMMIN
 10
0.0
 20
0.0
  9
$PLIMMAX
 10
12.0
 20
9.0
  9
$UNITMODE
 70
     0
  9
$VISRETAIN
 70
     0
  9
$PLINEGEN
 70
     0
  9
$PSLTSCALE
 70
     0
  9
$TREEDEPTH
 70
  3020
  9
$CMLSTYLE
  2
STANDARD
  9
$CMLJUST
 70
     0
  9
$CMLSCALE
 40
1.0
  9
$PROXYGRAPHICS
 70
     1
  9
$MEASUREMENT
 70
     1
  9
$CELWEIGHT
370
    -1
  9
$ENDCAPS
280
     0
  9
$JOINSTYLE
280
     0
  9
$LWDISPLAY
290
     0
  9
$INSUNITS
 70
     0
  9
$HYPERLINKBASE
  1

  9
$STYLESHEET
  1

  9
$XEDIT
290
     1
  9
$CEPSNTYPE
380
     0
  9
$PSTYLEMODE
290
     1
  9
$FINGERPRINTGUID
  2
{F9DE43F0-8658-4C02-9DF1-034C0729F21E}
  9
$VERSIONGUID
  2
{4318B0B5-A739-4C50-9580-812D5F18AE57}
  9
$EXTNAMES
290
     1
  9
$PSVPSCALE
 40
0.0
  9
$OLESTARTUP
290
     0
  0
ENDSEC
  0
SECTION
  2
CLASSES
  0
CLASS
  1
ACDBDICTIONARYWDFLT
  2
AcDbDictionaryWithDefault
  3
ObjectDBX Classes
 90
        0
280
     0
281
     0
  0
CLASS
  1
ACDBPLACEHOLDER
  2
AcDbPlaceHolder
  3
ObjectDBX Classes
 90
        0
280
     0
281
     0
  0
CLASS
  1
LAYOUT
  2
AcDbLayout
  3
ObjectDBX Classes
 90
        0
280
     0
281
     0
  0
CLASS
  1
MATERIAL
  2
AcDbMaterial
  3
ObjectDBX Classes
 90
     1153
280
     0
281
     0
  0
CLASS
  1
VISUALSTYLE
  2
AcDbVisualStyle
  3
ObjectDBX Classes
 90
     4095
280
     0
281
     0
  0
CLASS
  1
TABLESTYLE
  2
AcDbTableStyle
  3
ObjectDBX Classes
 90
     4095
280
     0
281
     0
  0
CLASS
  1
SCALE
  2
AcDbScale
  3
ObjectDBX Classes
 90
     1153
280
     0
281
     0
  0
CLASS
  1
MLEADERSTYLE
  2
AcDbMLeaderStyle
  3
ACDB_MLEADERSTYLE_CLASS
 90
     4095
280
     0
281
     0
  0
CLASS
  1
DICTIONARYVAR
  2
AcDbDictionaryVar
  3
ObjectDBX Classes
 90
        0
280
     0
281
     0
  0
CLASS
  1
CELLSTYLEMAP
  2
AcDbCellStyleMap
  3
ObjectDBX Classes
 90
     1152
280
     0
281
     0
  0
ENDSEC
  0
SECTION
  2
TABLES
  0
TABLE
  2
VPORT
  5
8
330
0
100
AcDbSymbolTable
 70
     1
  0
VPORT
  5
1288
330
8
100
AcDbSymbolTableRecord
100
AcDbViewportTableRecord
  2
*Active
 70
     0
 10
0.0
 20
0.0
 11
1.0
 21
1.0
 12
110.5791030922894
 22
147.421570944625
 13
0.0
 23
0.0
 14
5.0
 24
5.0
 15
5.0
 25
5.0
 16
0.0
 26
0.0
 36
1.0
 17
0.0
 27
0.0
 37
0.0
 40
201.5797662529036
 41
1.382297551789077
 42
50.0
 43
0.0
 44
0.0
 50
0.0
 51
0.0
 71
     0
 72
   100
 73
     1
 74
     3
 75
     0
 76
     0
 77
     0
 78
     0
281
     0
 65
     1
110
0.0
120
0.0
130
0.0
111
1.0
121
0.0
131
0.0
112
0.0
122
1.0
132
0.0
 79
     0
146
0.0
  0
ENDTAB
  0
TABLE
  2
LTYPE
  5
5
330
0
100
AcDbSymbolTable
 70
     3
  0
LTYPE
  5
13
330
5
100
AcDbSymbolTableRecord
100
AcDbLinetypeTableRecord
  2
BYBLOCK
 70
     0
  3

 72
    65
 73
     0
 40
0.0
  0
LTYPE
  5
14
330
5
100
AcDbSymbolTableRecord
100
AcDbLinetypeTableRecord
  2
BYLAYER
 70
     0
  3

 72
    65
 73
     0
 40
0.0
  0
LTYPE
  5
15
330
5
100
AcDbSymbolTableRecord
100
AcDbLinetypeTableRecord
  2
CONTINUOUS
 70
     0
  3
Solid line
 72
    65
 73
     0
 40
0.0
  0
LTYPE
  5
20
330
5
100
AcDbSymbolTableRecord
100
AcDbLinetypeTableRecord
  2
CENTER
 70
     0
  3
____ . ____ . ____
 72
    65
 73
     4
 40
1.5
 49
1.0
 74
     0
 49
-0.25
 74
     0
 49
0.0
 74
     0
 49
-0.25
 74
     0
  0
LTYPE
  5
21
330
5
100
AcDbSymbolTableRecord
100
AcDbLinetypeTableRecord
  2
HIDDEN
 70
     0
  3
_ _ _ _ _ _ _ _ _ _ _ _ _ _ _ _ _ _ _ _ _ _ _
 72
    65
 73
     2
 40
0.375
 49
0.25
 74
     0
 49
-0.125
 74
     0
  0
ENDTAB
  0
TABLE
  2
LAYER
  5
2
330
0
100
AcDbSymbolTable
 70
    16
  0
LAYER
  5
F
102
{ACAD_XDICTIONARY
360
1A32
102
}
330
2
100
AcDbSymbolTableRecord
100
AcDbLayerTableRecord
  2
0
 70
     0
 62
     7
  6
CONTINUOUS
370
    -3
390
E94
  0
LAYER
  5
1E
102
{ACAD_XDICTIONARY
360
1A34
102
}
330
2
100
AcDbSymbolTableRecord
100
AcDbLayerTableRecord
  2
1
 70
     0
 62
     4
  6
CONTINUOUS
370
    -3
390
E94
  0
LAYER
  5
22
102
{ACAD_XDICTIONARY
360
1A36
102
}
330
2
100
AcDbSymbolTableRecord
100
AcDbLayerTableRecord
  2
SK1
 70
     0
 62
     4
  6
CONTINUOUS
370
    -3
390
E94
  0
LAYER
  5
23
102
{ACAD_XDICTIONARY
360
1A38
102
}
330
2
100
AcDbSymbolTableRecord
100
AcDbLayerTableRecord
  2
2
 70
     0
 62
     7
  6
CONTINUOUS
370
    -3
390
E94
  0
LAYER
  5
24
102
{ACAD_XDICTIONARY
360
1A3A
102
}
330
2
100
AcDbSymbolTableRecord
100
AcDbLayerTableRecord
  2
2L
 70
     0
 62
     7
  6
CONTINUOUS
370
    -3
390
E94
  0
LAYER
  5
25
102
{ACAD_XDICTIONARY
360
1A3C
102
}
330
2
100
AcDbSymbolTableRecord
100
AcDbLayerTableRecord
  2
SK2
 70
     0
 62
     7
  6
CONTINUOUS
370
    -3
390
E94
  0
LAYER
  5
26
102
{ACAD_XDICTIONARY
360
1A3E
102
}
330
2
100
AcDbSymbolTableRecord
100
AcDbLayerTableRecord
  2
3
 70
     0
 62
     1
  6
HIDDEN
370
    -3
390
E94
  0
LAYER
  5
27
102
{ACAD_XDICTIONARY
360
1A40
102
}
330
2
100
AcDbSymbolTableRecord
100
AcDbLayerTableRecord
  2
SK3
 70
     0
 62
     1
  6
HIDDEN
370
    -3
390
E94
  0
LAYER
  5
28
102
{ACAD_XDICTIONARY
360
1A42
102
}
330
2
100
AcDbSymbolTableRecord
100
AcDbLayerTableRecord
  2
4
 70
     0
 62
     2
  6
CENTER
370
    -3
390
E94
  0
LAYER
  5
29
102
{ACAD_XDICTIONARY
360
1A44
102
}
330
2
100
AcDbSymbolTableRecord
100
AcDbLayerTableRecord
  2
SK4
 70
     0
 62
     2
  6
CENTER
370
    -3
390
E94
  0
LAYER
  5
2A
102
{ACAD_XDICTIONARY
360
1A46
102
}
330
2
100
AcDbSymbolTableRecord
100
AcDbLayerTableRecord
  2
5
 70
     0
 62
     7
  6
CONTINUOUS
370
    -3
390
E94
  0
LAYER
  5
2B
102
{ACAD_XDICTIONARY
360
1A48
102
}
330
2
100
AcDbSymbolTableRecord
100
AcDbLayerTableRecord
  2
6
 70
     0
 62
     5
  6
CONTINUOUS
370
    -3
390
E94
  0
LAYER
  5
2C
102
{ACAD_XDICTIONARY
360
1A4A
102
}
330
2
100
AcDbSymbolTableRecord
100
AcDbLayerTableRecord
  2
SK6
 70
     0
 62
     5
  6
CONTINUOUS
370
    -3
390
E94
  0
LAYER
  5
2D
102
{ACAD_XDICTIONARY
360
1A4C
102
}
330
2
100
AcDbSymbolTableRecord
100
AcDbLayerTableRecord
  2
243
 70
     0
 62
     7
  6
CONTINUOUS
370
    -3
390
E94
  0
LAYER
  5
2E
330
2
100
AcDbSymbolTableRecord
100
AcDbLayerTableRecord
  2
DEFPOINTS
 70
     0
 62
     7
  6
CONTINUOUS
290
     0
370
    -3
390
E94
  0
LAYER
  5
C07
102
{ACAD_XDICTIONARY
360
1A4E
102
}
330
2
100
AcDbSymbolTableRecord
100
AcDbLayerTableRecord
  2
FRONT
 70
     0
 62
     7
  6
CONTINUOUS
370
    -3
390
E94
  0
ENDTAB
  0
TABLE
  2
STYLE
  5
3
330
0
100
AcDbSymbolTable
 70
     4
  0
STYLE
  5
10
330
3
100
AcDbSymbolTableRecord
100
AcDbTextStyleTableRecord
  2
STANDARD
 70
     0
 40
0.0
 41
1.0
 50
0.0
 71
     0
 42
5.0
  3
txt
  4

  0
STYLE
  5
1F
330
3
100
AcDbSymbolTableRecord
100
AcDbTextStyleTableRecord
  2
SIMPLEX
 70
     0
 40
0.0
 41
1.0
 50
0.0
 71
     0
 42
3.5
  3
simplex
  4

  0
STYLE
  5
2F
330
3
100
AcDbSymbolTableRecord
100
AcDbTextStyleTableRecord
  2
TXT
 70
     0
 40
8.0
 41
1.0
 50
0.0
 71
     0
 42
8.0
  3
txt
  4

  0
STYLE
  5
C08
330
3
100
AcDbSymbolTableRecord
100
AcDbTextStyleTableRecord
  2
UGMTXT
 70
     0
 40
0.0
 41
1.0
 50
0.0
 71
     0
 42
0.2
  3
ugmtxt
  4
bigfont
  0
ENDTAB
  0
TABLE
  2
VIEW
  5
6
330
0
100
AcDbSymbolTable
 70
     0
  0
ENDTAB
  0
TABLE
  2
UCS
  5
7
330
0
100
AcDbSymbolTable
 70
     0
  0
ENDTAB
  0
TABLE
  2
APPID
  5
9
330
0
100
AcDbSymbolTable
 70
     4
  0
APPID
  5
11
330
9
100
AcDbSymbolTableRecord
100
AcDbRegAppTableRecord
  2
ACAD
 70
     0
  0
APPID
  5
E8F
330
9
100
AcDbSymbolTableRecord
100
AcDbRegAppTableRecord
  2
CONTENTBLOCKICON
 70
     0
  0
APPID
  5
12DB
330
9
100
AcDbSymbolTableRecord
100
AcDbRegAppTableRecord
  2
ACAD_MLEADERVER
 70
     0
  0
APPID
  5
18F3
330
9
100
AcDbSymbolTableRecord
100
AcDbRegAppTableRecord
  2
ACAD_EXEMPT_FROM_CAD_STANDARDS
 70
     0
  0
ENDTAB
  0
TABLE
  2
DIMSTYLE
  5
A
330
0
100
AcDbSymbolTable
 70
     5
100
AcDbDimStyleTable
 71
     5
340
D92
340
1273
340
D91
340
D93
340
980
  0
DIMSTYLE
105
980
330
A
100
AcDbSymbolTableRecord
100
AcDbDimStyleTableRecord
  2
STANDARD
 70
     0
340
10
  0
DIMSTYLE
105
D91
330
A
100
AcDbSymbolTableRecord
100
AcDbDimStyleTableRecord
  2
V-TYGEN_-160
 70
     0
 41
3.5
 42
1.0
 43
0.5
 44
1.0
 73
     0
 74
     0
 77
     1
140
3.5
141
0.0
147
1.0
271
     0
272
     0
340
10
371
    -1
  0
DIMSTYLE
105
D92
102
{ACAD_REACTORS
330
189B
330
189A
330
1899
330
1898
330
1971
102
}
330
A
100
AcDbSymbolTableRecord
100
AcDbDimStyleTableRecord
  2
V-TYG_160-300
 70
     0
 41
5.0
 42
1.0
 43
0.5
 44
1.0
 73
     0
 74
     0
 77
     1
140
5.0
141
0.0
147
1.0
271
     0
272
     0
340
10
  0
DIMSTYLE
105
D93
330
A
100
AcDbSymbolTableRecord
100
AcDbDimStyleTableRecord
  2
V-TYG_300-
 70
     0
 41
8.0
 42
1.0
 43
0.5
 44
1.0
 73
     0
 74
     0
 77
     1
140
8.0
141
0.0
147
1.0
271
     0
272
     0
340
10
  0
DIMSTYLE
105
1273
330
A
100
AcDbSymbolTableRecord
100
AcDbDimStyleTableRecord
  2
Inserts
 70
     0
 41
0.5
 42
1.0
 43
0.5
 44
1.0
 73
     0
 74
     0
 77
     1
140
0.8
141
0.0
147
1.0
271
     0
272
     0
340
10
371
    -1
  0
ENDTAB
  0
TABLE
  2
BLOCK_RECORD
  5
1
330
0
100
AcDbSymbolTable
 70
    11
  0
BLOCK_RECORD
  5
19
102
{ACAD_XDICTIONARY
360
E8D
102
}
330
1
100
AcDbSymbolTableRecord
100
AcDbBlockTableRecord
  2
*MODEL_SPACE
340
E95
  0
BLOCK_RECORD
  5
16
102
{ACAD_XDICTIONARY
360
E8B
102
}
330
1
100
AcDbSymbolTableRecord
100
AcDbBlockTableRecord
  2
*PAPER_SPACE
340
E96
  0
BLOCK_RECORD
  5
A8B
330
1
100
AcDbSymbolTableRecord
100
AcDbBlockTableRecord
  2
2D00035417
340
0
310
2800000020000000200000000100080000000000000400000000000000000000000000000000000000000000000080000080000000808000800000008000800080800000C0C0C000C0DCC000F0CAA6000020400000206000002080000020A0000020C0000020E00000400000004020000040400000406000004080000040A0
310
000040C0000040E00000600000006020000060400000606000006080000060A0000060C0000060E00000800000008020000080400000806000008080000080A0000080C0000080E00000A0000000A0200000A0400000A0600000A0800000A0A00000A0C00000A0E00000C0000000C0200000C0400000C0600000C0800000C0
310
A00000C0C00000C0E00000E0000000E0200000E0400000E0600000E0800000E0A00000E0C00000E0E00040000000400020004000400040006000400080004000A0004000C0004000E00040200000402020004020400040206000402080004020A0004020C0004020E000404000004040200040404000404060004040800040
310
40A0004040C0004040E00040600000406020004060400040606000406080004060A0004060C0004060E00040800000408020004080400040806000408080004080A0004080C0004080E00040A0000040A0200040A0400040A0600040A0800040A0A00040A0C00040A0E00040C0000040C0200040C0400040C0600040C08000
310
40C0A00040C0C00040C0E00040E0000040E0200040E0400040E0600040E0800040E0A00040E0C00040E0E00080000000800020008000400080006000800080008000A0008000C0008000E00080200000802020008020400080206000802080008020A0008020C0008020E00080400000804020008040400080406000804080
310
008040A0008040C0008040E00080600000806020008060400080606000806080008060A0008060C0008060E00080800000808020008080400080806000808080008080A0008080C0008080E00080A0000080A0200080A0400080A0600080A0800080A0A00080A0C00080A0E00080C0000080C0200080C0400080C0600080C0
310
800080C0A00080C0C00080C0E00080E0000080E0200080E0400080E0600080E0800080E0A00080E0C00080E0E000C0000000C0002000C0004000C0006000C0008000C000A000C000C000C000E000C0200000C0202000C0204000C0206000C0208000C020A000C020C000C020E000C0400000C0402000C0404000C0406000C0
310
408000C040A000C040C000C040E000C0600000C0602000C0604000C0606000C0608000C060A000C060C000C060E000C0800000C0802000C0804000C0806000C0808000C080A000C080C000C080E000C0A00000C0A02000C0A04000C0A06000C0A08000C0A0A000C0A0C000C0A0E000C0C00000C0C02000C0C04000C0C06000
310
C0C08000C0C0A000F0FBFF00A4A0A000808080000000FF0000FF000000FFFF00FF000000FF00FF00FFFF0000FFFFFF0000000000000000000000000000000000000000000000000000000000000000000000000000000000000000000000000000000000000000000000000000000000000000000000000000000000000000
310
00000000000000000000000000000000000000000000000000000000000000000000000000000000000000000000000000000000000000000000000000000000000000000000000000000000000000000000000000000000000000000000000000000000000000000000000000000000000000000000000000000000000000
310
00000000000000000000000000000000000000000000000000000000000000000000000000000000000000000000000000000000000000000000000000000000000000000000000000000000000000000000000000000000000000000000000000000000000000000000000000000000000000000000000000000000000000
310
00000000000000000000000000000000000000000000000000000000000000000000000000000000000000000000000000000000000000000000000000000000000000000000000000000000000000000000000000FEFEFEFEFEFEFEFEFEFEFEFEFEFEFEFEFEFEFEFEFEFE000000FEFEFEFE0000FEFE000000000000000000
310
0000000000000000000000FEFEFEFEFEFEFEFE0000FEFE0000000000000000000000000000000000000000FEFE0000FEFEFE000000FEFE0000000000000000000000000000000000000000FEFE0000FEFEFE000000FEFE0000000000000000000000000000000000000000FEFEFEFEFEFEFEFE000000FEFEFEFEFEFEFEFEFE
310
FEFEFEFEFEFEFEFEFEFEFEFEFE000000FEFEFEFE0000000000000000000000000000000000000000000000000000000000000000000000000000000000000000000000000000000000000000000000000000000000000000000000000000000000000000000000000000000000000000000000000000000000000000000000
310
00000000000000000000000000000000000000000000000000000000000000000000000000000000000000000000000000000000000000000000000000000000000000000000000000000000000000000000000000000000000000000000000000000000000000000000000000000000000000000000000000000000000000
310
00000000000000000000000000000000000000000000000000000000000000000000000000000000000000000000000000000000000000000000000000000000000000000000000000000000000000000000000000000000000000000000000000000000000000000000000000000000000000000000000000000000000000
310
0000000000000000000000000000000000000000000000000000000000000000000000000000000000000000000000000000000000000000
102
{BLKREFS
331
C04
102
}
  0
BLOCK_RECORD
  5
C03
330
1
100
AcDbSymbolTableRecord
100
AcDbBlockTableRecord
  2
ROFFE
340
0
310
2800000020000000200000000100080000000000000400000000000000000000000000000000000000000000000080000080000000808000800000008000800080800000C0C0C000C0DCC000F0CAA6000020400000206000002080000020A0000020C0000020E00000400000004020000040400000406000004080000040A0
310
000040C0000040E00000600000006020000060400000606000006080000060A0000060C0000060E00000800000008020000080400000806000008080000080A0000080C0000080E00000A0000000A0200000A0400000A0600000A0800000A0A00000A0C00000A0E00000C0000000C0200000C0400000C0600000C0800000C0
310
A00000C0C00000C0E00000E0000000E0200000E0400000E0600000E0800000E0A00000E0C00000E0E00040000000400020004000400040006000400080004000A0004000C0004000E00040200000402020004020400040206000402080004020A0004020C0004020E000404000004040200040404000404060004040800040
310
40A0004040C0004040E00040600000406020004060400040606000406080004060A0004060C0004060E00040800000408020004080400040806000408080004080A0004080C0004080E00040A0000040A0200040A0400040A0600040A0800040A0A00040A0C00040A0E00040C0000040C0200040C0400040C0600040C08000
310
40C0A00040C0C00040C0E00040E0000040E0200040E0400040E0600040E0800040E0A00040E0C00040E0E00080000000800020008000400080006000800080008000A0008000C0008000E00080200000802020008020400080206000802080008020A0008020C0008020E00080400000804020008040400080406000804080
310
008040A0008040C0008040E00080600000806020008060400080606000806080008060A0008060C0008060E00080800000808020008080400080806000808080008080A0008080C0008080E00080A0000080A0200080A0400080A0600080A0800080A0A00080A0C00080A0E00080C0000080C0200080C0400080C0600080C0
310
800080C0A00080C0C00080C0E00080E0000080E0200080E0400080E0600080E0800080E0A00080E0C00080E0E000C0000000C0002000C0004000C0006000C0008000C000A000C000C000C000E000C0200000C0202000C0204000C0206000C0208000C020A000C020C000C020E000C0400000C0402000C0404000C0406000C0
310
408000C040A000C040C000C040E000C0600000C0602000C0604000C0606000C0608000C060A000C060C000C060E000C0800000C0802000C0804000C0806000C0808000C080A000C080C000C080E000C0A00000C0A02000C0A04000C0A06000C0A08000C0A0A000C0A0C000C0A0E000C0C00000C0C02000C0C04000C0C06000
310
C0C08000C0C0A000F0FBFF00A4A0A000808080000000FF0000FF000000FFFF00FF000000FF00FF00FFFF0000FFFFFF0000000000000000000000000000000000000000000000000000000000000000000000000000000000000000000000000000000000000000000000000000000000000000000000000000000000000000
310
00000000000000000000000000000000000000000000000000000000000000000000000000000000000000000000000000000000000000000000000000000000000000000000000000000000000000000000000000000000000000000000000000000000000000000000000000000000000000000000000000000000000000
310
00000000000000000000000000000000000000000000000000000000000000000000000000000000000000000000000000000000000000000000000000000000000000000000000000000000000000000000000000000000000000000000000000000000000000000000000000000000000000000000000000000000000000
310
00000000000000000000000000000000000000000000000000000000000000000000000000000000000000000000000000000000000000000000000000000000000000000000000000000000000000000000000000FEFEFEFEFEFEFEFEFEFEFEFEFEFEFEFEFEFEFEFEFEFE000000FEFEFEFE0000FEFE000000000000000000
310
0000000000000000000000FEFEFEFEFEFEFEFE0000FEFE0000000000000000000000000000000000000000FEFE0000FEFEFE000000FEFE0000000000000000000000000000000000000000FEFE0000FEFEFE000000FEFE0000000000000000000000000000000000000000FEFEFEFEFEFEFEFE000000FEFEFEFEFEFEFEFEFE
310
FEFEFEFEFEFEFEFEFEFEFEFEFE000000FEFEFEFE0000000000000000000000000000000000000000000000000000000000000000000000000000000000000000000000000000000000000000000000000000000000000000000000000000000000000000000000000000000000000000000000000000000000000000000000
310
00000000000000000000000000000000000000000000000000000000000000000000000000000000000000000000000000000000000000000000000000000000000000000000000000000000000000000000000000000000000000000000000000000000000000000000000000000000000000000000000000000000000000
310
00000000000000000000000000000000000000000000000000000000000000000000000000000000000000000000000000000000000000000000000000000000000000000000000000000000000000000000000000000000000000000000000000000000000000000000000000000000000000000000000000000000000000
310
0000000000000000000000000000000000000000000000000000000000000000000000000000000000000000000000000000000000000000
  0
BLOCK_RECORD
  5
12DF
330
1
100
AcDbSymbolTableRecord
100
AcDbBlockTableRecord
  2
*D2
340
0
  0
BLOCK_RECORD
  5
12EB
330
1
100
AcDbSymbolTableRecord
100
AcDbBlockTableRecord
  2
*D3
340
0
  0
BLOCK_RECORD
  5
12F7
330
1
100
AcDbSymbolTableRecord
100
AcDbBlockTableRecord
  2
*D4
340
0
  0
BLOCK_RECORD
  5
1303
330
1
100
AcDbSymbolTableRecord
100
AcDbBlockTableRecord
  2
*D5
340
0
  0
BLOCK_RECORD
  5
189E
330
1
100
AcDbSymbolTableRecord
100
AcDbBlockTableRecord
  2
*D6
340
0
  0
BLOCK_RECORD
  5
18AA
330
1
100
AcDbSymbolTableRecord
100
AcDbBlockTableRecord
  2
*D7
340
0
  0
BLOCK_RECORD
  5
18B6
330
1
100
AcDbSymbolTableRecord
100
AcDbBlockTableRecord
  2
*D8
340
0
  0
BLOCK_RECORD
  5
18C2
330
1
100
AcDbSymbolTableRecord
100
AcDbBlockTableRecord
  2
*D9
340
0
  0
BLOCK_RECORD
  5
1972
330
1
100
AcDbSymbolTableRecord
100
AcDbBlockTableRecord
  2
*D10
340
0
  0
ENDTAB
  0
ENDSEC
  0
SECTION
  2
BLOCKS
  0
BLOCK
  5
1A
330
19
100
AcDbEntity
  8
0
100
AcDbBlockBegin
  2
*MODEL_SPACE
 70
     0
 10
0.0
 20
0.0
 30
0.0
  3
*MODEL_SPACE
  1

  0
ENDBLK
  5
1B
330
19
100
AcDbEntity
  8
0
100
AcDbBlockEnd
  0
BLOCK
  5
17
330
16
100
AcDbEntity
 67
     1
  8
0
100
AcDbBlockBegin
  2
*PAPER_SPACE
 70
     0
 10
0.0
 20
0.0
 30
0.0
  3
*PAPER_SPACE
  1

  0
ENDBLK
  5
18
330
16
100
AcDbEntity
 67
     1
  8
0
100
AcDbBlockEnd
  0
BLOCK
  5
C01
330
A8B
100
AcDbEntity
  8
0
100
AcDbBlockBegin
  2
2D00035417
 70
     0
 10
0.0
 20
0.0
 30
0.0
  3
2D00035417
  1

  0
LINE
  5
A8C
330
A8B
100
AcDbEntity
  8
FRONT
  6
Continuous
 62
     4
100
AcDbLine
 10
0.8660254037844552
 20
5.5
 30
0.0
 11
0.0
 21
6.000000000000002
 31
0.0
  0
LINE
  5
A8D
330
A8B
100
AcDbEntity
  8
FRONT
  6
Continuous
 62
     4
100
AcDbLine
 10
0.0
 20
-6.000000000000002
 30
0.0
 11
0.8660254037844552
 21
-5.5
 31
0.0
  0
LINE
  5
A8E
330
A8B
100
AcDbEntity
  8
FRONT
  6
Continuous
 62
     4
100
AcDbLine
 10
-62.0
 20
5.5
 30
0.0
 11
-62.0
 21
-5.499999999999992
 31
0.0
  0
LINE
  5
A8F
330
A8B
100
AcDbEntity
  8
FRONT
  6
Continuous
 62
     4
100
AcDbLine
 10
-61.5
 20
6.0
 30
0.0
 11
-61.5
 21
-5.999999999999992
 31
0.0
  0
LINE
  5
A90
330
A8B
100
AcDbEntity
  8
FRONT
  6
Continuous
 62
     4
100
AcDbLine
 10
0.0
 20
6.000000000000007
 30
0.0
 11
0.0
 21
-6.000000000000007
 31
0.0
  0
LINE
  5
A91
330
A8B
100
AcDbEntity
  8
FRONT
  6
Continuous
 62
     4
100
AcDbLine
 10
-61.5
 20
-6.0
 30
0.0
 11
0.0
 21
-6.0
 31
0.0
  0
LINE
  5
A92
330
A8B
100
AcDbEntity
  8
FRONT
  6
Continuous
 62
     4
100
AcDbLine
 10
-62.0
 20
-5.499999999999992
 30
0.0
 11
-61.5
 21
-5.999999999999992
 31
0.0
  0
LINE
  5
A93
330
A8B
100
AcDbEntity
  8
FRONT
  6
Continuous
 62
     4
100
AcDbLine
 10
0.0
 20
6.0
 30
0.0
 11
-61.5
 21
6.000000000000007
 31
0.0
  0
LINE
  5
A94
330
A8B
100
AcDbEntity
  8
FRONT
  6
Continuous
 62
     4
100
AcDbLine
 10
-61.5
 20
6.0
 30
0.0
 11
-62.0
 21
5.5
 31
0.0
  0
LINE
  5
A95
330
A8B
100
AcDbEntity
  8
FRONT
  6
Continuous
 62
     4
100
AcDbLine
 10
17.29745226804206
 20
3.509679345658438
 30
0.0
 11
17.29745226804206
 21
-5.017742724400552
 31
0.0
  0
LINE
  5
A96
330
A8B
100
AcDbEntity
  8
FRONT
  6
Continuous
 62
     4
100
AcDbLine
 10
11.19220462092714
 20
3.417991427849383
 30
0.0
 11
11.19220462092714
 21
-5.268704490765056
 31
0.0
  0
LINE
  5
A97
330
A8B
100
AcDbEntity
  8
FRONT
  6
Continuous
 62
     4
100
AcDbLine
 10
12.3980252578104
 20
3.543839759641738
 30
0.0
 11
12.3980252578104
 21
-4.715335514294036
 31
0.0
  0
LINE
  5
A98
330
A8B
100
AcDbEntity
  8
FRONT
  6
Continuous
 62
     4
100
AcDbLine
 10
0.8660254037844552
 20
5.5
 30
0.0
 11
0.8660254037844552
 21
-5.5
 31
0.0
  0
LINE
  5
A99
330
A8B
100
AcDbEntity
  8
FRONT
  6
Continuous
 62
     4
100
AcDbLine
 10
13.74838568128198
 20
3.593205653172365
 30
0.0
 11
13.74838568128198
 21
-5.032064792663311
 31
0.0
  0
LINE
  5
A9A
330
A8B
100
AcDbEntity
  8
FRONT
  6
Continuous
 62
     4
100
AcDbLine
 10
17.48879939540238
 20
-4.816380228107217
 30
0.0
 11
17.48879939540238
 21
3.479278271624338
 31
0.0
  0
LINE
  5
A9B
330
A8B
100
AcDbEntity
  8
FRONT
  6
Continuous
 62
     4
100
AcDbLine
 10
12.52411245174376
 20
-5.148811565010388
 30
0.0
 11
12.2699596882263
 21
-5.474819161767424
 31
0.0
  0
ELLIPSE
  5
A9C
330
A8B
100
AcDbEntity
  8
FRONT
  6
Continuous
 62
     4
100
AcDbEllipse
 10
12.59483653351634
 20
-4.836421402054659
 30
0.0
 11
-0.1764278460445979
 21
0.0941977448772153
 31
0.0
210
0.0
220
0.0
230
1.0
 40
0.9833059182774052
 41
0.6405173247906966
 42
2.071687311428429
  0
ELLIPSE
  5
A9D
330
A8B
100
AcDbEntity
  8
FRONT
  6
Continuous
 62
     4
100
AcDbEllipse
 10
12.58626641887234
 20
-4.852472814633401
 30
0.0
 11
-0.264641769065345
 21
0.1412966173186371
 31
0.0
210
0.0
220
0.0
230
1.0
 40
0.9833059182774
 41
0.6405173248015057
 42
2.071687311439271
  0
ELLIPSE
  5
A9E
330
A8B
100
AcDbEntity
  8
FRONT
  6
Continuous
 62
     4
100
AcDbEllipse
 10
12.53491299669396
 20
-4.91373583192963
 30
0.0
 11
-0.1776346087653321
 21
-0.1633261946229406
 31
0.0
210
0.0
220
0.0
230
0.9999999999999998
 40
0.9518042298991375
 41
5.720439864303834
 42
7.08930315248491
  0
SPLINE
  5
A9F
330
A8B
100
AcDbEntity
  8
FRONT
  6
Continuous
 62
     4
100
AcDbSpline
210
0.0
220
0.0
230
1.0
 70
     8
 71
     2
 72
     6
 73
     3
 74
     0
 42
0.0000000001
 43
0.0000000001
 40
0.0
 40
0.0
 40
0.0
 40
1.0
 40
1.0
 40
1.0
 10
14.62245185943817
 20
-5.87714135957826
 30
0.0
 10
13.33868913679801
 20
-5.833317719863607
 30
0.0
 10
12.05492333661389
 20
-5.761440262542944
 30
0.0
  0
SPLINE
  5
AA0
330
A8B
100
AcDbEntity
  8
FRONT
  6
Continuous
 62
     4
100
AcDbSpline
210
0.0
220
0.0
230
1.0
 70
     8
 71
     2
 72
     6
 73
     3
 74
     0
 42
0.0000000001
 43
0.0000000001
 40
0.0
 40
0.0
 40
0.0
 40
1.0
 40
1.0
 40
1.0
 10
12.03715634521592
 20
-5.830492901738484
 30
0.0
 10
12.99283696601092
 20
-5.878254479706018
 30
0.0
 10
13.94849592177253
 20
-5.91037423780608
 30
0.0
  0
SPLINE
  5
AA1
330
A8B
100
AcDbEntity
  8
FRONT
  6
Continuous
 62
     4
100
AcDbSpline
210
0.0
220
0.0
230
1.0
 70
     8
 71
     3
 72
    10
 73
     6
 74
     0
 42
0.0000000001
 43
0.0000000001
 40
0.0
 40
0.0
 40
0.0
 40
0.0
 40
0.413998097170399
 40
0.8317102975705793
 40
1.0
 40
1.0
 40
1.0
 40
1.0
 10
13.65251602410751
 20
-5.651687726725348
 30
0.0
 10
13.45228491644905
 20
-5.637638509379486
 30
0.0
 10
13.05861779128649
 20
-5.600401635138268
 30
0.0
 10
12.59642516693621
 20
-5.539019558091951
 30
0.0
 10
12.34205829435077
 20
-5.489820631199273
 30
0.0
 10
12.2699596882263
 20
-5.474819161767424
 30
0.0
  0
SPLINE
  5
AA2
330
A8B
100
AcDbEntity
  8
FRONT
  6
Continuous
 62
     4
100
AcDbSpline
210
0.0
220
0.0
230
1.0
 70
     8
 71
     2
 72
     6
 73
     3
 74
     0
 42
0.0000000001
 43
0.0000000001
 40
0.0
 40
0.0
 40
0.0
 40
1.0
 40
1.0
 40
1.0
 10
13.61429623476742
 20
-5.667122247227887
 30
0.0
 10
12.88790047388035
 20
-5.627861963387118
 30
0.0
 10
12.16152824195172
 20
-5.579846203347781
 30
0.0
  0
SPLINE
  5
AA3
330
A8B
100
AcDbEntity
  8
FRONT
  6
Continuous
 62
     4
100
AcDbSpline
210
0.0
220
0.0
230
1.0
 70
     8
 71
     2
 72
     6
 73
     3
 74
     0
 42
0.0000000001
 43
0.0000000001
 40
0.0
 40
0.0
 40
0.0
 40
1.0
 40
1.0
 40
1.0
 10
17.4863838813945
 20
-5.914121941707048
 30
0.0
 10
14.77806455657193
 20
-5.88204522422477
 30
0.0
 10
12.06951141172709
 20
-5.72451506620573
 30
0.0
  0
SPLINE
  5
AA4
330
A8B
100
AcDbEntity
  8
FRONT
  6
Continuous
 62
     4
100
AcDbSpline
210
0.0
220
0.0
230
1.0
 70
     8
 71
     3
 72
    13
 73
     9
 74
     0
 42
0.0000000001
 43
0.0000000001
 40
0.0
 40
0.0
 40
0.0
 40
0.0
 40
0.1221948788939986
 40
0.3409322576720923
 40
0.5593089850044601
 40
0.7634079375909129
 40
0.9483404453246466
 40
1.0
 40
1.0
 40
1.0
 40
1.0
 10
13.21765994700341
 20
-5.008998841068255
 30
0.0
 10
13.21008985781698
 20
-4.986912363625971
 30
0.0
 10
13.17823433448347
 20
-4.926841776453724
 30
0.0
 10
13.07361191277297
 20
-4.829791137456386
 30
0.0
 10
12.88884659553877
 20
-4.74181959386623
 30
0.0
 10
12.67056256702776
 20
-4.697037384916851
 30
0.0
 10
12.50187045502288
 20
-4.699685032400541
 30
0.0
 10
12.41657811424804
 20
-4.712092428703162
 30
0.0
 10
12.39802525781035
 20
-4.715335514293908
 30
0.0
  0
ELLIPSE
  5
AA5
330
A8B
100
AcDbEntity
  8
FRONT
  6
Continuous
 62
     4
100
AcDbEllipse
 10
5.66201983816218
 20
-0.0000000000335509
 30
0.0
 11
-30.04133316929991
 21
2.588839177181583
 31
0.0
210
0.0
220
0.0
230
1.0
 40
0.1615314150625295
 41
1.478397138584063
 42
1.769839153165509
  0
SPLINE
  5
AA6
330
A8B
100
AcDbEntity
  8
FRONT
  6
Continuous
 62
     4
100
AcDbSpline
210
0.0
220
0.0
230
1.0
 70
     8
 71
     3
 72
    13
 73
     9
 74
     0
 42
0.0000000001
 43
0.0000000001
 40
0.0
 40
0.0
 40
0.0
 40
0.0
 40
0.111195031304195
 40
0.2657804119641697
 40
0.4822058427557557
 40
0.6989752890855822
 40
0.9172035917595028
 40
1.0
 40
1.0
 40
1.0
 40
1.0
 10
1.345325372781968
 20
-5.499999327115823
 30
0.0
 10
1.398511539679659
 20
-5.499310768582706
 30
0.0
 10
1.538983733379424
 20
-5.487567585039426
 30
0.0
 10
1.854584013762764
 20
-5.418189805484521
 30
0.0
 10
2.329371189940173
 20
-5.271647579637816
 30
0.0
 10
2.940699872587572
 20
-5.059593436719063
 30
0.0
 10
3.480267253473383
 20
-4.873448667483954
 30
0.0
 10
3.808123122364646
 20
-4.762436312820168
 30
0.0
 10
3.899607151901193
 20
-4.731554934786731
 30
0.0
  0
LINE
  5
AA7
330
A8B
100
AcDbEntity
  8
FRONT
  6
Continuous
 62
     4
100
AcDbLine
 10
0.8660254037844552
 20
-5.5
 30
0.0
 11
1.352746725880145
 21
-5.5
 31
0.0
  0
ELLIPSE
  5
AA8
330
A8B
100
AcDbEntity
  8
FRONT
  6
Continuous
 62
     4
100
AcDbEllipse
 10
12.00000899116139
 20
-16.06832890666516
 30
0.0
 11
-14.85880604145566
 21
5.93421040515988
 31
0.0
210
0.0
220
0.0
230
1.0
 40
0.8742329960678898
 41
5.792900081455464
 42
5.811533204192437
  0
SPLINE
  5
AA9
330
A8B
100
AcDbEntity
  8
FRONT
  6
Continuous
 62
     4
100
AcDbSpline
210
0.0
220
0.0
230
1.0
 70
     8
 71
     3
 72
    13
 73
     9
 74
     0
 42
0.0000000001
 43
0.0000000001
 40
0.0
 40
0.0
 40
0.0
 40
0.0
 40
0.0708887435082171
 40
0.2571724611284706
 40
0.5329963062952721
 40
0.7291217371113851
 40
0.9254339909461146
 40
1.0
 40
1.0
 40
1.0
 40
1.0
 10
1.195562502632583
 20
-4.790625489461174
 30
0.0
 10
1.213912861725795
 20
-4.776794773960335
 30
0.0
 10
1.285762723978912
 20
-4.729112862436839
 30
0.0
 10
1.488346843837938
 20
-4.648305888484085
 30
0.0
 10
1.783730465684264
 20
-4.592365381939607
 30
0.0
 10
2.095253569585678
 20
-4.572953003185091
 30
0.0
 10
2.314409026134284
 20
-4.578924439658588
 30
0.0
 10
2.439434992623304
 20
-4.589560477122677
 30
0.0
 10
2.473778129000646
 20
-4.593052498405127
 30
0.0
  0
SPLINE
  5
AAA
330
A8B
100
AcDbEntity
  8
FRONT
  6
Continuous
 62
     4
100
AcDbSpline
210
0.0
220
0.0
230
1.0
 70
     8
 71
     2
 72
     6
 73
     3
 74
     0
 42
0.0000000001
 43
0.0000000001
 40
0.0
 40
0.0
 40
0.0
 40
1.0
 40
1.0
 40
1.0
 10
1.120663577351435
 20
-4.879877191273159
 30
0.0
 10
1.140463196528336
 20
-4.832984670632591
 30
0.0
 10
1.195562502632583
 20
-4.790625489461174
 30
0.0
  0
SPLINE
  5
AAB
330
A8B
100
AcDbEntity
  8
FRONT
  6
Continuous
 62
     4
100
AcDbSpline
210
0.0
220
0.0
230
1.0
 70
     8
 71
     3
 72
    12
 73
     8
 74
     0
 42
0.0000000001
 43
0.0000000001
 40
0.0
 40
0.0
 40
0.0
 40
0.0
 40
0.2338452144524324
 40
0.4675970184665896
 40
0.701762765663897
 40
0.9359711320872667
 40
1.0
 40
1.0
 40
1.0
 40
1.0
 10
1.120663577351435
 20
-4.879877191273159
 30
0.0
 10
1.081791927506593
 20
-4.975462956792688
 30
0.0
 10
1.030111601870139
 20
-5.144886500420123
 30
0.0
 10
1.027342870416914
 20
-5.338220270821794
 30
0.0
 10
1.109594465876227
 20
-5.457981564958576
 30
0.0
 10
1.233664404095364
 20
-5.496508749567235
 30
0.0
 10
1.324763405221041
 20
-5.50007654266059
 30
0.0
 10
1.345325372781968
 20
-5.499999327115823
 30
0.0
  0
LINE
  5
AAC
330
A8B
100
AcDbEntity
  8
FRONT
  6
Continuous
 62
     4
100
AcDbLine
 10
12.26430749227676
 20
-4.727059865963761
 30
0.0
 11
12.29104950531358
 21
-4.894695500397101
 31
0.0
  0
LINE
  5
AAD
330
A8B
100
AcDbEntity
  8
FRONT
  6
Continuous
 62
     4
100
AcDbLine
 10
12.05195883253294
 20
-5.282066276975115
 30
0.0
 11
12.07142987167434
 21
-5.257090327121177
 31
0.0
  0
LINE
  5
AAE
330
A8B
100
AcDbEntity
  8
FRONT
  6
Continuous
 62
     4
100
AcDbLine
 10
11.73862963750702
 20
-5.461687541797807
 30
0.0
 11
11.75466693733003
 21
-5.546759538624929
 31
0.0
  0
LINE
  5
AAF
330
A8B
100
AcDbEntity
  8
FRONT
  6
Continuous
 62
     4
100
AcDbLine
 10
12.37475758366253
 20
-4.718713550200846
 30
0.0
 11
12.3980252578104
 21
-4.864569859230441
 31
0.0
  0
LINE
  5
AB0
330
A8B
100
AcDbEntity
  8
FRONT
  6
Continuous
 62
     4
100
AcDbLine
 10
12.29104950531358
 20
-4.894695500397101
 30
0.0
 11
12.30173417735763
 21
-4.961673695881327
 31
0.0
  0
LINE
  5
AB1
330
A8B
100
AcDbEntity
  8
FRONT
  6
Continuous
 62
     4
100
AcDbLine
 10
12.1154520297858
 20
-5.200622092145676
 30
0.0
 11
12.30173417735763
 21
-4.961673695881327
 31
0.0
  0
ELLIPSE
  5
AB2
330
A8B
100
AcDbEntity
  8
FRONT
  6
Continuous
 62
     4
100
AcDbEllipse
 10
12.16010065627367
 20
-5.364110026768818
 30
0.0
 11
-0.1629665045002963
 21
0.162301935942986
 31
0.0
210
0.0
220
0.0
230
1.0
 40
0.885395213116765
 41
0.9406572002840926
 42
2.300026522294225
  0
ELLIPSE
  5
AB3
330
A8B
100
AcDbEntity
  8
FRONT
  6
Continuous
 62
     4
100
AcDbEllipse
 10
10.7327861538169
 20
-6.237521875482824
 30
0.0
 11
-0.1862107868856989
 21
2.621605320212951
 31
0.0
210
0.0
220
0.0
230
0.9999999999999998
 40
0.4178728177031461
 41
4.983018135371414
 42
5.015339106062617
  0
ELLIPSE
  5
AB4
330
A8B
100
AcDbEntity
  8
FRONT
  6
Continuous
 62
     4
100
AcDbEllipse
 10
10.87421353467201
 20
-0.0952172533848828
 30
0.0
 11
-0.6453609818231091
 21
5.423953475707063
 31
0.0
210
0.0
220
0.0
230
1.0
 40
0.4002139493379774
 41
3.301152841311651
 42
3.433631365786768
  0
ELLIPSE
  5
AB5
330
A8B
100
AcDbEntity
  8
FRONT
  6
Continuous
 62
     4
100
AcDbEllipse
 10
12.05114473010541
 20
-5.545182037602573
 30
0.0
 11
-0.2141351294070844
 21
0.0839413268520247
 31
0.0
210
0.0
220
0.0
230
1.0
 40
0.7465216560962231
 41
0.5997695972309498
 42
1.937897467873524
  0
ELLIPSE
  5
AB6
330
A8B
100
AcDbEntity
  8
FRONT
  6
Continuous
 62
     4
100
AcDbEllipse
 10
12.05060526702193
 20
-5.546128395411039
 30
0.0
 11
-0.1654325527084979
 21
0.1597875793175752
 31
0.0
210
0.0
220
0.0
230
0.9999999999999998
 40
0.882922871075139
 41
0.9271183505009291
 42
2.296772776618916
  0
ELLIPSE
  5
AB7
330
A8B
100
AcDbEntity
  8
FRONT
  6
Continuous
 62
     4
100
AcDbEllipse
 10
12.29961961995718
 20
-4.878644087818582
 30
0.0
 11
-0.0987513760092463
 21
-0.0157532770020267
 31
0.0
210
0.0
220
0.0
230
1.0
 40
0.1458931740710974
 41
1.460656485145534
 42
3.031452811938669
  0
ELLIPSE
  5
AB8
330
A8B
100
AcDbEntity
  8
FRONT
  6
Continuous
 62
     4
100
AcDbEllipse
 10
335.219081173506
 20
-27.65352952608379
 30
0.0
 11
-342.1452092599433
 21
28.7644353191734
 31
0.0
210
0.0
220
0.0
230
1.0
 40
0.0434239235819959
 41
0.3305623080092169
 42
0.336553522992711
  0
ELLIPSE
  5
AB9
330
A8B
100
AcDbEntity
  8
FRONT
  6
Continuous
 62
     4
100
AcDbEllipse
 10
12.61274556700008
 20
-7.087755426446605
 30
0.0
 11
-0.6874421685867658
 21
4.776216476972511
 31
0.0
210
0.0
220
0.0
230
1.0
 40
0.0505508379540167
 41
1.059760007862942
 42
1.160653432741368
  0
SPLINE
  5
ABA
330
A8B
100
AcDbEntity
  8
FRONT
  6
Continuous
 62
     4
100
AcDbSpline
210
0.0
220
0.0
230
1.0
 70
    24
 71
     1
 72
     4
 73
     2
 74
     0
 42
0.0000000001
 43
0.0000000001
 40
0.0
 40
0.0
 40
1.0
 40
1.0
 10
11.83847321585812
 20
-5.567069085629718
 30
0.0
 10
11.83901267894247
 20
-5.566122727825887
 30
0.0
  0
SPLINE
  5
ABB
330
A8B
100
AcDbEntity
  8
FRONT
  6
Continuous
 62
     4
100
AcDbSpline
210
0.0
220
0.0
230
1.0
 70
     8
 71
     3
 72
    12
 73
     8
 74
     0
 42
0.0000000001
 43
0.0000000001
 40
0.0
 40
0.0
 40
0.0
 40
0.0
 40
0.0007970805857311
 40
0.2615790368690925
 40
0.5223632910078863
 40
0.9992029194147567
 40
1.0
 40
1.0
 40
1.0
 40
1.0
 10
12.06951141172706
 20
-5.72451506620573
 30
0.0
 10
12.06948314701705
 20
-5.724610988602324
 30
0.0
 10
12.06830139779342
 20
-5.728621512447585
 30
0.0
 10
12.06584538067532
 20
-5.73637821965794
 30
0.0
 10
12.0610158647334
 20
-5.749472267031435
 30
0.0
 10
12.05732682921892
 20
-5.75726605425465
 30
0.0
 10
12.05497323553964
 20
-5.761353601725923
 30
0.0
 10
12.05492333661389
 20
-5.761440262542944
 30
0.0
  0
SPLINE
  5
ABC
330
A8B
100
AcDbEntity
  8
FRONT
  6
Continuous
 62
     4
100
AcDbSpline
210
0.0
220
0.0
230
1.0
 70
    24
 71
     1
 72
     4
 73
     2
 74
     0
 42
0.0000000001
 43
0.0000000001
 40
0.0
 40
0.0
 40
1.0
 40
1.0
 10
11.77084472479986
 20
-5.637701490563106
 30
0.0
 10
11.83847321585812
 20
-5.567069085629722
 30
0.0
  0
SPLINE
  5
ABD
330
A8B
100
AcDbEntity
  8
FRONT
  6
Continuous
 62
     4
100
AcDbSpline
210
0.0
220
0.0
230
1.0
 70
     8
 71
     2
 72
     6
 73
     3
 74
     0
 42
0.0000000001
 43
0.0000000001
 40
0.0
 40
0.0
 40
0.0
 40
1.0
 40
1.0
 40
1.0
 10
12.26612713977722
 20
-5.47418946266737
 30
0.0
 10
12.21369198338541
 20
-5.526401979383564
 30
0.0
 10
12.16152824195172
 20
-5.579846203347781
 30
0.0
  0
SPLINE
  5
ABE
330
A8B
100
AcDbEntity
  8
FRONT
  6
Continuous
 62
     4
100
AcDbSpline
210
0.0
220
0.0
230
1.0
 70
    24
 71
     1
 72
     4
 73
     2
 74
     0
 42
0.0000000001
 43
0.0000000001
 40
0.0
 40
0.0
 40
1.0
 40
1.0
 10
12.2699596882263
 20
-5.474819161767427
 30
0.0
 10
12.26612713977731
 20
-5.474189462667331
 30
0.0
  0
SPLINE
  5
ABF
330
A8B
100
AcDbEntity
  8
FRONT
  6
Continuous
 62
     4
100
AcDbSpline
210
0.0
220
0.0
230
1.0
 70
    24
 71
     1
 72
     4
 73
     2
 74
     0
 42
0.0000000001
 43
0.0000000001
 40
0.0
 40
0.0
 40
1.0
 40
1.0
 10
11.75466693733006
 20
-5.546759538624929
 30
0.0
 10
11.77084472479986
 20
-5.637701490563197
 30
0.0
  0
SPLINE
  5
AC0
330
A8B
100
AcDbEntity
  8
FRONT
  6
Continuous
 62
     4
100
AcDbSpline
210
0.0
220
0.0
230
1.0
 70
     8
 71
     3
 72
    12
 73
     8
 74
     0
 42
0.0000000001
 43
0.0000000001
 40
0.0
 40
0.0
 40
0.0
 40
0.0
 40
0.0001979715625893
 40
0.3804243462904076
 40
0.6884015213626393
 40
0.9998020284374039
 40
1.0
 40
1.0
 40
1.0
 40
1.0
 10
12.16152824195172
 20
-5.579846203347781
 30
0.0
 10
12.16145494845797
 20
-5.579914233221867
 30
0.0
 10
12.14800020764509
 20
-5.592402712335362
 30
0.0
 10
12.12460907423586
 20
-5.619318961954996
 30
0.0
 10
12.09413125687514
 20
-5.668815656959997
 30
0.0
 10
12.07735989436437
 20
-5.705022480727572
 30
0.0
 10
12.06954876176722
 20
-5.72442230320394
 30
0.0
 10
12.06951141172706
 20
-5.72451506620573
 30
0.0
  0
SPLINE
  5
AC1
330
A8B
100
AcDbEntity
  8
FRONT
  6
Continuous
 62
     4
100
AcDbSpline
210
0.0
220
0.0
230
1.0
 70
     8
 71
     3
 72
    11
 73
     7
 74
     0
 42
0.0000000001
 43
0.0000000001
 40
0.0
 40
0.0
 40
0.0
 40
0.0
 40
0.0003046676542752
 40
0.2859486271382446
 40
0.5715925864685599
 40
1.0
 40
1.0
 40
1.0
 40
1.0
 10
12.05492333661392
 20
-5.761440262542944
 30
0.0
 10
12.05485458948857
 20
-5.761512883702093
 30
0.0
 10
12.04890508266609
 20
-5.767797656751879
 30
0.0
 10
12.0368932920704
 20
-5.780516646112557
 30
0.0
 10
12.01590433567814
 20
-5.802847200540763
 30
0.0
 10
12.00092977263713
 20
-5.818873351337892
 30
0.0
 10
11.99195171433706
 20
-5.82851593948345
 30
0.0
  0
SPLINE
  5
AC2
330
A8B
100
AcDbEntity
  8
FRONT
  6
Continuous
 62
     4
100
AcDbSpline
210
0.0
220
0.0
230
1.0
 70
     8
 71
     3
 72
    10
 73
     6
 74
     0
 42
0.0000000001
 43
0.0000000001
 40
0.0
 40
0.0
 40
0.0
 40
0.0
 40
0.3783609825527917
 40
0.8357001481048397
 40
1.0
 40
1.0
 40
1.0
 40
1.0
 10
11.92547454029552
 20
-4.97636464574548
 30
0.0
 10
11.92640289606277
 20
-5.008713239544544
 30
0.0
 10
11.9475704542029
 20
-5.078030220539246
 30
0.0
 10
12.02773237930664
 20
-5.158970478124096
 30
0.0
 10
12.09728872776178
 20
-5.203611051795411
 30
0.0
 10
12.11721712142133
 20
-5.215153759323888
 30
0.0
  0
SPLINE
  5
AC3
330
A8B
100
AcDbEntity
  8
FRONT
  6
Continuous
 62
     4
100
AcDbSpline
210
0.0
220
0.0
230
1.0
 70
    24
 71
     1
 72
     4
 73
     2
 74
     0
 42
0.0000000001
 43
0.0000000001
 40
0.0
 40
0.0
 40
1.0
 40
1.0
 10
11.99195171433702
 20
-5.828515939483446
 30
0.0
 10
12.03715635432748
 20
-5.830493677100303
 30
0.0
  0
SPLINE
  5
AC4
330
A8B
100
AcDbEntity
  8
FRONT
  6
Continuous
 62
     4
100
AcDbSpline
210
0.0
220
0.0
230
1.0
 70
    24
 71
     1
 72
     4
 73
     2
 74
     0
 42
0.0000000001
 43
0.0000000001
 40
0.0
 40
0.0
 40
1.0
 40
1.0
 10
11.83901267894153
 20
-5.566122727821471
 30
0.0
 10
11.9479686051097
 20
-5.385050716987656
 30
0.0
  0
SPLINE
  5
AC5
330
A8B
100
AcDbEntity
  8
FRONT
  6
Continuous
 62
     4
100
AcDbSpline
210
0.0
220
0.0
230
1.0
 70
    24
 71
     1
 72
     4
 73
     2
 74
     0
 42
0.0000000001
 43
0.0000000001
 40
0.0
 40
0.0
 40
1.0
 40
1.0
 10
11.9479686051097
 20
-5.385050716987656
 30
0.0
 10
12.05195883253294
 20
-5.282066276975115
 30
0.0
  0
SPLINE
  5
AC6
330
A8B
100
AcDbEntity
  8
FRONT
  6
Continuous
 62
     4
100
AcDbSpline
210
0.0
220
0.0
230
1.0
 70
     8
 71
     3
 72
    12
 73
     8
 74
     0
 42
0.0000000001
 43
0.0000000001
 40
0.0
 40
0.0
 40
0.0
 40
0.0
 40
0.2440298709825522
 40
0.488120310074948
 40
0.7306421972591243
 40
0.9701993202335991
 40
1.0
 40
1.0
 40
1.0
 40
1.0
 10
11.99195171433709
 20
-5.82851593948345
 30
0.0
 10
11.96562176469131
 20
-5.827267267325022
 30
0.0
 10
11.91614572163951
 20
-5.817153042582487
 30
0.0
 10
11.84798307522928
 20
-5.777355599814407
 30
0.0
 10
11.79694752140735
 20
-5.718879229510209
 30
0.0
 10
11.77656470249855
 20
-5.668220081294727
 30
0.0
 10
11.77135854082036
 20
-5.640760675661914
 30
0.0
 10
11.77084472479986
 20
-5.637701490563109
 30
0.0
  0
SPLINE
  5
AC7
330
A8B
100
AcDbEntity
  8
FRONT
  6
Continuous
 62
     4
100
AcDbSpline
210
0.0
220
0.0
230
1.0
 70
     8
 71
     3
 72
    12
 73
     8
 74
     0
 42
0.0000000001
 43
0.0000000001
 40
0.0
 40
0.0
 40
0.0
 40
0.0
 40
0.2494158432111992
 40
0.4988262431130359
 40
0.7483784991253286
 40
0.9306372409059042
 40
1.0
 40
1.0
 40
1.0
 40
1.0
 10
12.26612713977725
 20
-5.474189462667368
 30
0.0
 10
12.24074389915803
 20
-5.470905762207362
 30
0.0
 10
12.19300726095426
 20
-5.45734271395117
 30
0.0
 10
12.12696856456717
 20
-5.413990106048153
 30
0.0
 10
12.08152368192698
 20
-5.359081947772208
 30
0.0
 10
12.0601917046491
 20
-5.312655749461065
 30
0.0
 10
12.05351014507608
 20
-5.288741533352951
 30
0.0
 10
12.05195883253294
 20
-5.282066276975186
 30
0.0
  0
SPLINE
  5
AC8
330
A8B
100
AcDbEntity
  8
FRONT
  6
Continuous
 62
     4
100
AcDbSpline
210
0.0
220
0.0
230
1.0
 70
     8
 71
     3
 72
    12
 73
     8
 74
     0
 42
0.0000000001
 43
0.0000000001
 40
0.0
 40
0.0
 40
0.0
 40
0.0
 40
0.2310224464948759
 40
0.4620128681126269
 40
0.700559328220569
 40
0.9585437245442095
 40
1.0
 40
1.0
 40
1.0
 40
1.0
 10
12.39802525781044
 20
-4.715335514294038
 30
0.0
 10
12.33170953226865
 20
-4.714864780624963
 30
0.0
 10
12.21155122598614
 20
-4.724956838763255
 30
0.0
 10
12.06026597347468
 20
-4.778355069166565
 30
0.0
 10
11.95757756141464
 20
-4.859331154412664
 30
0.0
 10
11.92685169980244
 20
-4.930597414275522
 30
0.0
 10
11.92538238415322
 20
-4.970764610147099
 30
0.0
 10
11.92547454029552
 20
-4.97636464574548
 30
0.0
  0
LINE
  5
AC9
330
A8B
100
AcDbEntity
  8
FRONT
  6
Continuous
 62
     4
100
AcDbLine
 10
15.84223636732298
 20
-3.792713428712794
 30
0.0
 11
15.84224378306065
 21
-3.174912246999863
 31
0.0
  0
LINE
  5
ACA
330
A8B
100
AcDbEntity
  8
FRONT
  6
Continuous
 62
     4
100
AcDbLine
 10
17.89827503693186
 20
-4.305849194799658
 30
0.0
 11
17.5908596611797
 21
-2.933128552700321
 31
0.0
  0
ELLIPSE
  5
ACB
330
A8B
100
AcDbEntity
  8
FRONT
  6
Continuous
 62
     4
100
AcDbEllipse
 10
15.54074239609756
 20
-0.0033845369197216
 30
0.0
 11
-0.0787240753221909
 21
-5.634958844023342
 31
0.0
210
0.0
220
0.0
230
0.9999999999999998
 40
0.0848761530590921
 41
0.8344445634990043
 42
0.9971121243690364
  0
ELLIPSE
  5
ACC
330
A8B
100
AcDbEntity
  8
FRONT
  6
Continuous
 62
     4
100
AcDbEllipse
 10
14.84592289431094
 20
-3.161093469702696
 30
0.0
 11
-0.7939253072066414
 21
0.4238898519389809
 31
0.0
210
0.0
220
0.0
230
1.0
 40
0.9833059182791441
 41
3.141592653589792
 42
6.283185307179584
  0
ELLIPSE
  5
ACD
330
A8B
100
AcDbEntity
  8
FRONT
  6
Continuous
 62
     4
100
AcDbEllipse
 10
14.82057983206995
 20
-3.208559806495621
 30
0.0
 11
-0.6124566485468032
 21
0.3270007338409036
 31
0.0
210
0.0
220
0.0
230
1.0
 40
0.9833059182791558
 41
0.0
 42
6.283185307179584
  0
ELLIPSE
  5
ACE
330
A8B
100
AcDbEntity
  8
FRONT
  6
Continuous
 62
     4
100
AcDbEllipse
 10
13.53332915049316
 20
-0.0034367749653255
 30
0.0
 11
-0.0799385486845723
 21
-5.721889020223127
 31
0.0
210
0.0
220
0.0
230
1.0
 40
0.0848761529690107
 41
0.8609885795557556
 42
1.010813097306144
  0
ELLIPSE
  5
ACF
330
A8B
100
AcDbEntity
  8
FRONT
  6
Continuous
 62
     4
100
AcDbEllipse
 10
14.84592289431431
 20
-3.161093469702228
 30
0.0
 11
-0.793925307234311
 21
0.42388985189299
 31
0.0
210
0.0
220
0.0
230
1.0
 40
0.9833059182785405
 41
0.0
 42
1.217655899238259
  0
ELLIPSE
  5
AD0
330
A8B
100
AcDbEntity
  8
FRONT
  6
Continuous
 62
     4
100
AcDbEllipse
 10
14.80294988243549
 20
-3.241579854311311
 30
0.0
 11
-0.7939252851528728
 21
0.4238898401648104
 31
0.0
210
0.0
220
0.0
230
1.0
 40
0.9833059182791334
 41
3.193165641446312
 42
5.213279965006496
  0
LINE
  5
AD1
330
A8B
100
AcDbEntity
  8
FRONT
  6
Continuous
 62
     4
100
AcDbLine
 10
12.59147932455181
 20
-5.148581112793888
 30
0.0
 11
16.67361660422962
 21
-5.134616718352519
 31
0.0
  0
ELLIPSE
  5
AD2
330
A8B
100
AcDbEntity
  8
FRONT
  6
Continuous
 62
     4
100
AcDbEllipse
 10
14.84592289572717
 20
-3.161093470714305
 30
0.0
 11
-0.7939253088795834
 21
0.4238898451415228
 31
0.0
210
0.0
220
0.0
230
1.0
 40
0.9833059192021876
 41
2.862822081785346
 42
3.141592646178711
  0
ELLIPSE
  5
AD3
330
A8B
100
AcDbEntity
  8
FRONT
  6
Continuous
 62
     4
100
AcDbEllipse
 10
26.03145212602744
 20
0.4201256460465415
 30
0.0
 11
-60.22774572573949
 21
0.8391642046853387
 31
0.0
210
0.0
220
0.0
230
1.0
 40
0.0733360947234748
 41
1.395961454238489
 42
1.401822529636017
  0
ELLIPSE
  5
AD4
330
A8B
100
AcDbEntity
  8
FRONT
  6
Continuous
 62
     4
100
AcDbEllipse
 10
-2.102243007827921
 20
0.5190125394426035
 30
0.0
 11
-74.39203540301211
 21
1.036502535843046
 31
0.0
210
0.0
220
0.0
230
1.0
 40
0.0733366707427299
 41
1.786532921110053
 42
1.835644438831914
  0
SPLINE
  5
AD5
330
A8B
100
AcDbEntity
  8
FRONT
  6
Continuous
 62
     4
100
AcDbSpline
210
0.0
220
0.0
230
1.0
 70
    24
 71
     1
 72
     4
 73
     2
 74
     0
 42
0.0000000001
 43
0.0000000001
 40
0.0
 40
0.0
 40
1.0
 40
1.0
 10
17.59489872014192
 20
-5.975264142052814
 30
0.0
 10
14.60613712230076
 20
-5.930601946215396
 30
0.0
  0
SPLINE
  5
AD6
330
A8B
100
AcDbEntity
  8
FRONT
  6
Continuous
 62
     4
100
AcDbSpline
210
0.0
220
0.0
230
1.0
 70
     8
 71
     2
 72
     6
 73
     3
 74
     0
 42
0.0000000001
 43
0.0000000001
 40
0.0
 40
0.0
 40
0.0
 40
1.0
 40
1.0
 40
1.0
 10
17.53382959937809
 20
-5.939844692875301
 30
0.0
 10
16.07823206326433
 20
-5.926820755708295
 30
0.0
 10
14.62245185943817
 20
-5.87714135957826
 30
0.0
  0
SPLINE
  5
AD7
330
A8B
100
AcDbEntity
  8
FRONT
  6
Continuous
 62
     4
100
AcDbSpline
210
0.0
220
0.0
230
1.0
 70
    24
 71
     1
 72
     4
 73
     2
 74
     0
 42
0.0000000001
 43
0.0000000001
 40
0.0
 40
0.0
 40
1.0
 40
1.0
 10
15.13868294684773
 20
-5.711454223476931
 30
0.0
 10
17.25016942408504
 20
-5.752170042241942
 30
0.0
  0
SPLINE
  5
AD8
330
A8B
100
AcDbEntity
  8
FRONT
  6
Continuous
 62
     4
100
AcDbSpline
210
0.0
220
0.0
230
1.0
 70
     8
 71
     2
 72
     6
 73
     3
 74
     0
 42
0.0000000001
 43
0.0000000001
 40
0.0
 40
0.0
 40
0.0
 40
1.0
 40
1.0
 40
1.0
 10
17.29538407867861
 20
-5.788382807545392
 30
0.0
 10
16.20626920503309
 20
-5.775330117086896
 30
0.0
 10
15.12493514742535
 20
-5.739186742282312
 30
0.0
  0
SPLINE
  5
AD9
330
A8B
100
AcDbEntity
  8
FRONT
  6
Continuous
 62
     4
100
AcDbSpline
210
0.0
220
0.0
230
1.0
 70
     8
 71
     2
 72
     6
 73
     3
 74
     0
 42
0.0000000001
 43
0.0000000001
 40
0.0
 40
0.0
 40
0.0
 40
1.0
 40
1.0
 40
1.0
 10
17.31289606147389
 20
-5.809345576655007
 30
0.0
 10
16.21894412271205
 20
-5.784442697072787
 30
0.0
 10
15.12493514742539
 20
-5.739186742282306
 30
0.0
  0
LINE
  5
ADA
330
A8B
100
AcDbEntity
  8
FRONT
  6
Continuous
 62
     4
100
AcDbLine
 10
13.21506101770313
 20
-5.031717125328196
 30
0.0
 11
13.70168904333385
 21
-5.030052442043299
 31
0.0
  0
LINE
  5
ADB
330
A8B
100
AcDbEntity
  8
FRONT
  6
Continuous
 62
     4
100
AcDbLine
 10
12.59831180396925
 20
-5.033826934161636
 30
0.0
 11
13.21506101770313
 21
-5.031717125328196
 31
0.0
  0
LINE
  5
ADC
330
A8B
100
AcDbEntity
  8
FRONT
  6
Continuous
 62
     4
100
AcDbLine
 10
12.52411245174376
 20
-5.148811565010388
 30
0.0
 11
12.59147932455181
 21
-5.148581112793888
 31
0.0
  0
LINE
  5
ADD
330
A8B
100
AcDbEntity
  8
FRONT
  6
Continuous
 62
     4
100
AcDbLine
 10
13.73039490001062
 20
-5.644465229015402
 30
0.0
 11
13.65251602410751
 21
-5.651687726725348
 31
0.0
  0
ELLIPSE
  5
ADE
330
A8B
100
AcDbEntity
  8
FRONT
  6
Continuous
 62
     4
100
AcDbEllipse
 10
14.19019065232725
 20
-5.217546069540356
 30
0.0
 11
-0.0261303380478747
 21
-0.4993167493651739
 31
0.0
210
0.0
220
0.0
230
1.0
 40
0.207227326156888
 41
0.293361878369899
 42
0.4309508045600884
  0
ELLIPSE
  5
ADF
330
A8B
100
AcDbEntity
  8
FRONT
  6
Continuous
 62
     4
100
AcDbEllipse
 10
35.35054063342625
 20
0.000151900276844
 30
0.0
 11
-66.41326335410838
 21
0.9269833922146547
 31
0.0
210
0.0
220
0.0
230
1.0
 40
0.0848785527739216
 41
1.232222219062653
 42
1.240685434065807
  0
ELLIPSE
  5
AE0
330
A8B
100
AcDbEntity
  8
FRONT
  6
Continuous
 62
     4
100
AcDbEllipse
 10
15.11920026906091
 20
-5.25552853925582
 30
0.0
 11
-0.0157629108455211
 21
-0.4997514551771808
 31
0.0
210
0.0
220
0.0
230
0.9999999999999996
 40
0.1634163455934212
 41
0.2596728804504972
 42
0.4271027027017509
  0
ELLIPSE
  5
AE1
330
A8B
100
AcDbEntity
  8
FRONT
  6
Continuous
 62
     4
100
AcDbEllipse
 10
26.03106406187677
 20
0.4200021500912944
 30
0.0
 11
-60.22680518323547
 21
0.8391789498204172
 31
0.0
210
0.0
220
0.0
230
0.9999999999999998
 40
0.073335099090449
 41
1.368153266464279
 42
1.373756158617132
  0
ELLIPSE
  5
AE2
330
A8B
100
AcDbEntity
  8
FRONT
  6
Continuous
 62
     4
100
AcDbEllipse
 10
12.60004943919611
 20
-5.132529700220393
 30
0.0
 11
-0.000342083369458
 21
0.0999994148984049
 31
0.0
210
0.0
220
0.0
230
0.9999999999999998
 40
0.0873785520673491
 41
0.1609135457003019
 42
1.731709872424159
  0
SPLINE
  5
AE3
330
A8B
100
AcDbEntity
  8
FRONT
  6
Continuous
 62
     4
100
AcDbSpline
210
0.0
220
0.0
230
1.0
 70
     8
 71
     3
 72
    10
 73
     6
 74
     0
 42
0.0000000001
 43
0.0000000001
 40
0.0
 40
0.0
 40
0.0
 40
0.0
 40
0.2568958804124872
 40
0.5137917608271178
 40
1.0
 40
1.0
 40
1.0
 40
1.0
 10
14.6061371218886
 20
-5.930601824966093
 30
0.0
 10
14.60753377257093
 20
-5.926009260558598
 30
0.0
 10
14.61032728581661
 20
-5.916831653154844
 30
0.0
 10
14.61576516470299
 20
-5.898998421367481
 30
0.0
 10
14.61980695983203
 20
-5.885777952760061
 30
0.0
 10
14.62245185943814
 20
-5.87714135957826
 30
0.0
  0
SPLINE
  5
AE4
330
A8B
100
AcDbEntity
  8
FRONT
  6
Continuous
 62
     4
100
AcDbSpline
210
0.0
220
0.0
230
1.0
 70
    24
 71
     1
 72
     4
 73
     2
 74
     0
 42
0.0000000001
 43
0.0000000001
 40
0.0
 40
0.0
 40
1.0
 40
1.0
 10
13.65251602410751
 20
-5.651687726725348
 30
0.0
 10
13.57741475365825
 20
-5.65512213110166
 30
0.0
  0
SPLINE
  5
AE5
330
A8B
100
AcDbEntity
  8
FRONT
  6
Continuous
 62
     4
100
AcDbSpline
210
0.0
220
0.0
230
1.0
 70
     8
 71
     3
 72
    15
 73
    11
 74
     0
 42
0.0000000001
 43
0.0000000001
 40
0.0
 40
0.0
 40
0.0
 40
0.0
 40
0.140976339028535
 40
0.2892431856819297
 40
0.4121436114845082
 40
0.5144916745071848
 40
0.6168092444520747
 40
0.7567233522043856
 40
0.9739203035115163
 40
1.0
 40
1.0
 40
1.0
 40
1.0
 10
15.49450213479355
 20
-3.783439226602423
 30
0.0
 10
15.44981998562096
 20
-3.834784754789421
 30
0.0
 10
15.34586240619185
 20
-3.929717956575207
 30
0.0
 10
15.16411478532275
 20
-4.042164088828029
 30
0.0
 10
14.96509713276188
 20
-4.105578478492557
 30
0.0
 10
14.77588171470955
 20
-4.116965143829848
 30
0.0
 10
14.5865234857672
 20
-4.081240257906233
 30
0.0
 10
14.37534379397539
 20
-3.975845413349876
 30
0.0
 10
14.24980172860958
 20
-3.846984870652867
 30
0.0
 10
14.1867895891514
 20
-3.756804337707721
 30
0.0
 10
14.18025452780808
 20
-3.746989982441069
 30
0.0
  0
SPLINE
  5
AE6
330
A8B
100
AcDbEntity
  8
FRONT
  6
Continuous
 62
     4
100
AcDbSpline
210
0.0
220
0.0
230
1.0
 70
    24
 71
     1
 72
     4
 73
     2
 74
     0
 42
0.0000000001
 43
0.0000000001
 40
0.0
 40
0.0
 40
1.0
 40
1.0
 10
13.69211008638281
 20
-5.664088371972116
 30
0.0
 10
13.57741475365825
 20
-5.65512213110166
 30
0.0
  0
SPLINE
  5
AE7
330
A8B
100
AcDbEntity
  8
FRONT
  6
Continuous
 62
     4
100
AcDbSpline
210
0.0
220
0.0
230
1.0
 70
    24
 71
     1
 72
     4
 73
     2
 74
     0
 42
0.0000000001
 43
0.0000000001
 40
0.0
 40
0.0
 40
1.0
 40
1.0
 10
14.19509791486686
 20
-5.697096415954096
 30
0.0
 10
13.67240432655448
 20
-5.670248142954241
 30
0.0
  0
SPLINE
  5
AE8
330
A8B
100
AcDbEntity
  8
FRONT
  6
Continuous
 62
     4
100
AcDbSpline
210
0.0
220
0.0
230
1.0
 70
    24
 71
     1
 72
     4
 73
     2
 74
     0
 42
0.0000000001
 43
0.0000000001
 40
0.0
 40
0.0
 40
1.0
 40
1.0
 10
14.60613712230153
 20
-5.930601946215417
 30
0.0
 10
13.9484959168259
 20
-5.910374237639902
 30
0.0
  0
SPLINE
  5
AE9
330
A8B
100
AcDbEntity
  8
FRONT
  6
Continuous
 62
     4
100
AcDbSpline
210
0.0
220
0.0
230
1.0
 70
    24
 71
     1
 72
     4
 73
     2
 74
     0
 42
0.0000000001
 43
0.0000000001
 40
0.0
 40
0.0
 40
1.0
 40
1.0
 10
13.73039490001062
 20
-5.644465229015402
 30
0.0
 10
14.20967333082538
 20
-5.673471778213071
 30
0.0
  0
SPLINE
  5
AEA
330
A8B
100
AcDbEntity
  8
FRONT
  6
Continuous
 62
     4
100
AcDbSpline
210
0.0
220
0.0
230
1.0
 70
    24
 71
     1
 72
     4
 73
     2
 74
     0
 42
0.0000000001
 43
0.0000000001
 40
0.0
 40
0.0
 40
1.0
 40
1.0
 10
14.19509791486686
 20
-5.697096415954096
 30
0.0
 10
13.69211008638281
 20
-5.664088371972116
 30
0.0
  0
SPLINE
  5
AEB
330
A8B
100
AcDbEntity
  8
FRONT
  6
Continuous
 62
     4
100
AcDbSpline
210
0.0
220
0.0
230
1.0
 70
     8
 71
     3
 72
    11
 73
     7
 74
     0
 42
0.0000000001
 43
0.0000000001
 40
0.0
 40
0.0
 40
0.0
 40
0.0
 40
0.000063183656549
 40
0.6610072159485929
 40
0.9999368181050073
 40
1.0
 40
1.0
 40
1.0
 40
1.0
 10
15.12493514742537
 20
-5.739186742282305
 30
0.0
 10
15.12483521826678
 20
-5.739182978870811
 30
0.0
 10
14.91946003926739
 20
-5.731448386494392
 30
0.0
 10
14.60906890037243
 20
-5.718477412827605
 30
0.0
 10
14.29980413634301
 20
-5.702773299872545
 30
0.0
 10
14.1951977682056
 20
-5.697101829728066
 30
0.0
 10
14.19509791485794
 20
-5.697096415953659
 30
0.0
  0
SPLINE
  5
AEC
330
A8B
100
AcDbEntity
  8
FRONT
  6
Continuous
 62
     4
100
AcDbSpline
210
0.0
220
0.0
230
1.0
 70
    24
 71
     1
 72
     4
 73
     2
 74
     0
 42
0.0000000001
 43
0.0000000001
 40
0.0
 40
0.0
 40
1.0
 40
1.0
 10
14.20967333286792
 20
-5.673471778307494
 30
0.0
 10
15.13868294684773
 20
-5.711454223476938
 30
0.0
  0
SPLINE
  5
AED
330
A8B
100
AcDbEntity
  8
FRONT
  6
Continuous
 62
     4
100
AcDbSpline
210
0.0
220
0.0
230
1.0
 70
    24
 71
     1
 72
     4
 73
     2
 74
     0
 42
0.0000000001
 43
0.0000000001
 40
0.0
 40
0.0
 40
1.0
 40
1.0
 10
13.67240432655448
 20
-5.670248142954241
 30
0.0
 10
13.61429623476742
 20
-5.667122247227887
 30
0.0
  0
LINE
  5
AEE
330
A8B
100
AcDbEntity
  8
FRONT
  6
Continuous
 62
     4
100
AcDbLine
 10
17.94014373270267
 20
-4.696380917179419
 30
0.0
 11
17.94014637934187
 21
-4.697134583006601
 31
0.0
  0
LINE
  5
AEF
330
A8B
100
AcDbEntity
  8
FRONT
  6
Continuous
 62
     4
100
AcDbLine
 10
17.9296204316509
 20
-4.690827415632082
 30
0.0
 11
17.93253772748869
 21
-5.521566331524031
 31
0.0
  0
LINE
  5
AF0
330
A8B
100
AcDbEntity
  8
FRONT
  6
Continuous
 62
     4
100
AcDbLine
 10
17.9955352574119
 20
-4.703931962073951
 30
0.0
 11
17.99860264302532
 21
-5.577410944240646
 31
0.0
  0
LINE
  5
AF1
330
A8B
100
AcDbEntity
  8
FRONT
  6
Continuous
 62
     4
100
AcDbLine
 10
17.58943827622755
 20
-4.872056962875418
 30
0.0
 11
17.58957197281752
 21
-4.91012885081491
 31
0.0
  0
LINE
  5
AF2
330
A8B
100
AcDbEntity
  8
FRONT
  6
Continuous
 62
     4
100
AcDbLine
 10
17.58943827622755
 20
-4.872056962875418
 30
0.0
 11
17.86767576873332
 21
-4.704849480079047
 31
0.0
  0
LINE
  5
AF3
330
A8B
100
AcDbEntity
  8
FRONT
  6
Continuous
 62
     4
100
AcDbLine
 10
17.87708664776414
 20
-4.686615922447828
 30
0.0
 11
17.87984322178274
 21
-5.471587155772794
 31
0.0
  0
LINE
  5
AF4
330
A8B
100
AcDbEntity
  8
FRONT
  6
Continuous
 62
     4
100
AcDbLine
 10
17.94014637934187
 20
-4.697134583006601
 30
0.0
 11
17.94307446467377
 21
-5.53094595129999
 31
0.0
  0
LINE
  5
AF5
330
A8B
100
AcDbEntity
  8
FRONT
  6
Continuous
 62
     4
100
AcDbLine
 10
17.90527073750188
 20
-4.337218884751767
 30
0.0
 11
17.82020488840544
 21
-4.404730119587552
 31
0.0
  0
LINE
  5
AF6
330
A8B
100
AcDbEntity
  8
FRONT
  6
Continuous
 62
     4
100
AcDbLine
 10
17.82020488840544
 20
-4.404730119587552
 30
0.0
 11
17.86767576873332
 21
-4.704849480079047
 31
0.0
  0
LINE
  5
AF7
330
A8B
100
AcDbEntity
  8
FRONT
  6
Continuous
 62
     4
100
AcDbLine
 10
17.57701616247765
 20
-4.794187397985162
 30
0.0
 11
17.48879939540238
 21
-4.241189622687848
 31
0.0
  0
LINE
  5
AF8
330
A8B
100
AcDbEntity
  8
FRONT
  6
Continuous
 62
     4
100
AcDbLine
 10
17.58943827622755
 20
-4.872056962875418
 30
0.0
 11
17.57701616247765
 21
-4.794187397985162
 31
0.0
  0
ELLIPSE
  5
AF9
330
A8B
100
AcDbEntity
  8
FRONT
  6
Continuous
 62
     4
100
AcDbEllipse
 10
17.28179924891806
 20
-4.836410083749438
 30
0.0
 11
-0.2646417690684293
 21
0.1412966173143831
 31
0.0
210
0.0
220
0.0
230
1.0
 40
0.9833059182785888
 41
2.071687311421134
 42
3.782109978374953
  0
ELLIPSE
  5
AFA
330
A8B
100
AcDbEntity
  8
FRONT
  6
Continuous
 62
     4
100
AcDbEllipse
 10
18.78976301780029
 20
-4.225196264847973
 30
0.0
 11
-0.9665041965168652
 21
0.3765818908141549
 31
0.0
210
0.0
220
0.0
230
0.9999999999999998
 40
0.8498862410049405
 41
0.6298734289431917
 42
0.7760221204517431
  0
ELLIPSE
  5
AFB
330
A8B
100
AcDbEntity
  8
FRONT
  6
Continuous
 62
     4
100
AcDbEllipse
 10
17.29036936377426
 20
-4.820358671225433
 30
0.0
 11
-0.1764278450464169
 21
0.094197746298221
 31
0.0
210
0.0
220
0.0
230
1.0
 40
0.9833059187880415
 41
3.524855636639208
 42
3.716574258287971
  0
ELLIPSE
  5
AFC
330
A8B
100
AcDbEntity
  8
FRONT
  6
Continuous
 62
     4
100
AcDbEllipse
 10
17.43752785348189
 20
-3.994735409268031
 30
0.0
 11
-0.6378505702784448
 21
2.576726862152773
 31
0.0
210
0.0
220
0.0
230
1.0
 40
0.1420514033894129
 41
4.544013824159174
 42
4.556279548729346
  0
ELLIPSE
  5
AFD
330
A8B
100
AcDbEntity
  8
FRONT
  6
Continuous
 62
     4
100
AcDbEllipse
 10
17.29558226924102
 20
-5.116466969333043
 30
0.0
 11
-0.0003420833691217
 21
0.0999994148939525
 31
0.0
210
0.0
220
0.0
230
1.0
 40
0.0873785520668444
 41
0.1609135456945704
 42
1.732484486224235
  0
ELLIPSE
  5
AFE
330
A8B
100
AcDbEntity
  8
FRONT
  6
Continuous
 62
     4
100
AcDbEllipse
 10
17.91251036989776
 20
1.921767689627283
 30
0.0
 11
-0.2231549673139982
 21
7.545048101838847
 31
0.0
210
0.0
220
0.0
230
1.0
 40
0.1565419392169584
 41
2.98028837913766
 42
3.026543021602508
  0
ELLIPSE
  5
AFF
330
A8B
100
AcDbEntity
  8
FRONT
  6
Continuous
 62
     4
100
AcDbEllipse
 10
17.74265415408251
 20
-4.702133472814753
 30
0.0
 11
-0.1999999433238031
 21
-0.0001525554653821
 31
0.0
210
0.0
220
0.0
230
1.0
 40
0.1775485647405439
 41
3.300064853530633
 42
3.503329043719288
  0
ELLIPSE
  5
B00
330
A8B
100
AcDbEntity
  8
FRONT
  6
Continuous
 62
     4
100
AcDbEllipse
 10
17.58558627712221
 20
-4.778135985406353
 30
0.0
 11
-0.0987513760100169
 21
-0.0157532770022912
 31
0.0
210
0.0
220
0.0
230
1.0
 40
0.1458931740712325
 41
0.1778612733484125
 42
1.460656485136271
  0
ELLIPSE
  5
B01
330
A8B
100
AcDbEntity
  8
FRONT
  6
Continuous
 62
     4
100
AcDbEllipse
 10
67.64350291379154
 20
34.55023588267693
 30
0.0
 11
-52.91333538115097
 21
-41.25130454679958
 31
0.0
210
0.0
220
0.0
230
1.0
 40
0.0120306976498371
 41
0.3393916290940456
 42
0.3422858615911428
  0
ELLIPSE
  5
B02
330
A8B
100
AcDbEntity
  8
FRONT
  6
Continuous
 62
     4
100
AcDbEllipse
 10
17.29036936356746
 20
-4.820358671193344
 30
0.0
 11
-0.1764278461941974
 21
0.0941977445624821
 31
0.0
210
0.0
220
0.0
230
1.0
 40
0.9833059182720552
 41
2.071687309673813
 42
2.454396003569158
  0
ELLIPSE
  5
B03
330
A8B
100
AcDbEntity
  8
FRONT
  6
Continuous
 62
     4
100
AcDbEllipse
 10
17.29036936356451
 20
-4.820358671172773
 30
0.0
 11
-0.1764278460477521
 21
0.0941977448654515
 31
0.0
210
0.0
220
0.0
230
1.0
 40
0.9833059182873423
 41
2.454396005236844
 42
3.524855627886243
  0
ELLIPSE
  5
B04
330
A8B
100
AcDbEntity
  8
FRONT
  6
Continuous
 62
     4
100
AcDbEllipse
 10
17.80753817497214
 20
1.984604698993624
 30
0.0
 11
-0.0579833643088966
 21
6.690109145654452
 31
0.0
210
0.0
220
0.0
230
1.0
 40
0.0234081852915922
 41
3.155384266539653
 42
3.216552275148325
  0
ELLIPSE
  5
B05
330
A8B
100
AcDbEntity
  8
FRONT
  6
Continuous
 62
     4
100
AcDbEllipse
 10
69.31113081533111
 20
35.56042935518711
 30
0.0
 11
-54.58145203794352
 21
-42.26950703433849
 31
0.0
210
0.0
220
0.0
230
0.9999999999999998
 40
0.0166389419643796
 41
0.3320360213461808
 42
0.3350067550538322
  0
ELLIPSE
  5
B06
330
A8B
100
AcDbEntity
  8
FRONT
  6
Continuous
 62
     4
100
AcDbEllipse
 10
17.74265577240787
 20
-4.702887859456103
 30
0.0
 11
-0.1999987668190257
 21
-0.0007023332506881
 31
0.0
210
0.0
220
0.0
230
1.0
 40
0.1608116416752289
 41
3.299567109250761
 42
3.504047308224818
  0
SPLINE
  5
B07
330
A8B
100
AcDbEntity
  8
FRONT
  6
Continuous
 62
     4
100
AcDbSpline
210
0.0
220
0.0
230
1.0
 70
     8
 71
     2
 72
     6
 73
     3
 74
     0
 42
0.0000000001
 43
0.0000000001
 40
0.0
 40
0.0
 40
0.0
 40
1.0
 40
1.0
 40
1.0
 10
17.94014476251969
 20
-4.696380196294287
 30
0.0
 10
17.93820990995539
 20
-4.62484467721253
 30
0.0
 10
17.91370298271945
 20
-4.559914968743824
 30
0.0
  0
SPLINE
  5
B08
330
A8B
100
AcDbEntity
  8
FRONT
  6
Continuous
 62
     4
100
AcDbSpline
210
0.0
220
0.0
230
1.0
 70
     8
 71
     3
 72
    11
 73
     7
 74
     0
 42
0.0000000001
 43
0.0000000001
 40
0.0
 40
0.0
 40
0.0
 40
0.0
 40
0.2797385983135209
 40
0.5594467342961888
 40
0.7797158294879042
 40
1.0
 40
1.0
 40
1.0
 40
1.0
 10
17.5948987190443
 20
-5.975264142050702
 30
0.0
 10
17.65745563319629
 20
-5.974483801919768
 30
0.0
 10
17.77036020044778
 20
-5.950887920362924
 30
0.0
 10
17.90567908297141
 20
-5.850401171714425
 30
0.0
 10
17.98283180302257
 20
-5.717078973008215
 30
0.0
 10
17.99830296929953
 20
-5.626215792883595
 30
0.0
 10
17.99860264302532
 20
-5.577410944240646
 30
0.0
  0
SPLINE
  5
B09
330
A8B
100
AcDbEntity
  8
FRONT
  6
Continuous
 62
     4
100
AcDbSpline
210
0.0
220
0.0
230
1.0
 70
    24
 71
     1
 72
     4
 73
     2
 74
     0
 42
0.0000000001
 43
0.0000000001
 40
0.0
 40
0.0
 40
1.0
 40
1.0
 10
17.93253772748869
 20
-5.521566331524028
 30
0.0
 10
17.87984322178274
 20
-5.471587155772788
 30
0.0
  0
SPLINE
  5
B0A
330
A8B
100
AcDbEntity
  8
FRONT
  6
Continuous
 62
     4
100
AcDbSpline
210
0.0
220
0.0
230
1.0
 70
     8
 71
     2
 72
     6
 73
     3
 74
     0
 42
0.0000000001
 43
0.0000000001
 40
0.0
 40
0.0
 40
0.0
 40
1.0
 40
1.0
 40
1.0
 10
17.53382959937809
 20
-5.939844692875301
 30
0.0
 10
17.5478348404841
 20
-5.948879112898527
 30
0.0
 10
17.56310864296497
 20
-5.957732756903237
 30
0.0
  0
SPLINE
  5
B0B
330
A8B
100
AcDbEntity
  8
FRONT
  6
Continuous
 62
     4
100
AcDbSpline
210
0.0
220
0.0
230
1.0
 70
    24
 71
     1
 72
     4
 73
     2
 74
     0
 42
0.0000000001
 43
0.0000000001
 40
0.0
 40
0.0
 40
1.0
 40
1.0
 10
17.9387785253627
 20
-5.526976438079115
 30
0.0
 10
17.93253772748869
 20
-5.521566331524034
 30
0.0
  0
SPLINE
  5
B0C
330
A8B
100
AcDbEntity
  8
FRONT
  6
Continuous
 62
     4
100
AcDbSpline
210
0.0
220
0.0
230
1.0
 70
     8
 71
     2
 72
     6
 73
     3
 74
     0
 42
0.0000000001
 43
0.0000000001
 40
0.0
 40
0.0
 40
0.0
 40
1.0
 40
1.0
 40
1.0
 10
17.56310862460081
 20
-5.957732669274165
 30
0.0
 10
17.57839777531656
 20
-5.966594955161369
 30
0.0
 10
17.59489682987357
 20
-5.975263315085282
 30
0.0
  0
SPLINE
  5
B0D
330
A8B
100
AcDbEntity
  8
FRONT
  6
Continuous
 62
     4
100
AcDbSpline
210
0.0
220
0.0
230
1.0
 70
     8
 71
     2
 72
     6
 73
     3
 74
     0
 42
0.0000000001
 43
0.0000000001
 40
0.0
 40
0.0
 40
0.0
 40
1.0
 40
1.0
 40
1.0
 10
17.92970126088954
 20
-4.689423949520302
 30
0.0
 10
17.93325498333023
 20
-4.621665100236254
 30
0.0
 10
17.91370204730798
 20
-4.55991347542175
 30
0.0
  0
SPLINE
  5
B0E
330
A8B
100
AcDbEntity
  8
FRONT
  6
Continuous
 62
     4
100
AcDbSpline
210
0.0
220
0.0
230
1.0
 70
     8
 71
     2
 72
     6
 73
     3
 74
     0
 42
0.0000000001
 43
0.0000000001
 40
0.0
 40
0.0
 40
0.0
 40
1.0
 40
1.0
 40
1.0
 10
17.48753914728162
 20
-4.842620158601206
 30
0.0
 10
17.49069400018172
 20
-4.813353923430181
 30
0.0
 10
17.48589383548049
 20
-4.784463510063917
 30
0.0
  0
SPLINE
  5
B0F
330
A8B
100
AcDbEntity
  8
FRONT
  6
Continuous
 62
     4
100
AcDbSpline
210
0.0
220
0.0
230
1.0
 70
     8
 71
     2
 72
     6
 73
     3
 74
     0
 42
0.0000000001
 43
0.0000000001
 40
0.0
 40
0.0
 40
0.0
 40
1.0
 40
1.0
 40
1.0
 10
17.9296204316509
 20
-4.690827415632075
 30
0.0
 10
17.90811236517729
 20
-4.654740894371965
 30
0.0
 10
17.89274962395551
 20
-4.643583112873108
 30
0.0
  0
SPLINE
  5
B10
330
A8B
100
AcDbEntity
  8
FRONT
  6
Continuous
 62
     4
100
AcDbSpline
210
0.0
220
0.0
230
1.0
 70
    24
 71
     1
 72
     4
 73
     2
 74
     0
 42
0.0000000001
 43
0.0000000001
 40
0.0
 40
0.0
 40
1.0
 40
1.0
 10
17.28962519580169
 20
-5.781691499550616
 30
0.0
 10
17.29561436988828
 20
-5.788108146748303
 30
0.0
  0
SPLINE
  5
B11
330
A8B
100
AcDbEntity
  8
FRONT
  6
Continuous
 62
     4
100
AcDbSpline
210
0.0
220
0.0
230
1.0
 70
    24
 71
     1
 72
     4
 73
     2
 74
     0
 42
0.0000000001
 43
0.0000000001
 40
0.0
 40
0.0
 40
1.0
 40
1.0
 10
17.9955352574119
 20
-4.703931962073951
 30
0.0
 10
17.99520039268492
 20
-4.657821589441176
 30
0.0
  0
SPLINE
  5
B12
330
A8B
100
AcDbEntity
  8
FRONT
  6
Continuous
 62
     4
100
AcDbSpline
210
0.0
220
0.0
230
1.0
 70
     8
 71
     3
 72
    14
 73
    10
 74
     0
 42
0.0000000001
 43
0.0000000001
 40
0.0
 40
0.0
 40
0.0
 40
0.0
 40
0.1248883957440875
 40
0.2497714879519448
 40
0.3746545211303977
 40
0.4995231745160237
 40
0.6243751603251047
 40
0.7494560896066159
 40
1.0
 40
1.0
 40
1.0
 40
1.0
 10
17.87984322178273
 20
-5.471587155772788
 30
0.0
 10
17.87987268926037
 20
-5.50489258238397
 30
0.0
 10
17.87177012324012
 20
-5.568441189966804
 30
0.0
 10
17.83414334612334
 20
-5.657603560500879
 30
0.0
 10
17.77401488846159
 20
-5.731535238533902
 30
0.0
 10
17.6954628151493
 20
-5.785183731153777
 30
0.0
 10
17.60367529558672
 20
-5.815264208756982
 30
0.0
 10
17.47391022284451
 20
-5.813531480830889
 30
0.0
 10
17.37763835799498
 20
-5.813847709256805
 30
0.0
 10
17.31289606147389
 20
-5.809345576655006
 30
0.0
  0
SPLINE
  5
B13
330
A8B
100
AcDbEntity
  8
FRONT
  6
Continuous
 62
     4
100
AcDbSpline
210
0.0
220
0.0
230
1.0
 70
     8
 71
     2
 72
     6
 73
     3
 74
     0
 42
0.0000000001
 43
0.0000000001
 40
0.0
 40
0.0
 40
0.0
 40
1.0
 40
1.0
 40
1.0
 10
17.96624821359698
 20
-4.521740220909061
 30
0.0
 10
17.9945056831512
 20
-4.587389658473393
 30
0.0
 10
17.99520039268492
 20
-4.657821589442201
 30
0.0
  0
SPLINE
  5
B14
330
A8B
100
AcDbEntity
  8
FRONT
  6
Continuous
 62
     4
100
AcDbSpline
210
0.0
220
0.0
230
1.0
 70
    24
 71
     1
 72
     4
 73
     2
 74
     0
 42
0.0000000001
 43
0.0000000001
 40
0.0
 40
0.0
 40
1.0
 40
1.0
 10
17.89274962395551
 20
-4.643583112873108
 30
0.0
 10
17.87708664776414
 20
-4.686615922447828
 30
0.0
  0
SPLINE
  5
B15
330
A8B
100
AcDbEntity
  8
FRONT
  6
Continuous
 62
     4
100
AcDbSpline
210
0.0
220
0.0
230
1.0
 70
     8
 71
     2
 72
     6
 73
     3
 74
     0
 42
0.0000000001
 43
0.0000000001
 40
0.0
 40
0.0
 40
0.0
 40
1.0
 40
1.0
 40
1.0
 10
17.87578472966787
 20
-4.531787042132242
 30
0.0
 10
17.89175394076562
 20
-4.538312409517049
 30
0.0
 10
17.91370204730901
 20
-4.559913475424244
 30
0.0
  0
SPLINE
  5
B16
330
A8B
100
AcDbEntity
  8
FRONT
  6
Continuous
 62
     4
100
AcDbSpline
210
0.0
220
0.0
230
1.0
 70
    24
 71
     1
 72
     4
 73
     2
 74
     0
 42
0.0000000001
 43
0.0000000001
 40
0.0
 40
0.0
 40
1.0
 40
1.0
 10
17.9296204316509
 20
-4.690827415632075
 30
0.0
 10
17.92970126089028
 20
-4.689423949521914
 30
0.0
  0
SPLINE
  5
B17
330
A8B
100
AcDbEntity
  8
FRONT
  6
Continuous
 62
     4
100
AcDbSpline
210
0.0
220
0.0
230
1.0
 70
     8
 71
     2
 72
     6
 73
     3
 74
     0
 42
0.0000000001
 43
0.0000000001
 40
0.0
 40
0.0
 40
0.0
 40
1.0
 40
1.0
 40
1.0
 10
17.87984322178273
 20
-5.471587155772788
 30
0.0
 10
17.73244831207634
 20
-5.298438713033085
 30
0.0
 10
17.58957197281752
 20
-4.910128850814881
 30
0.0
  0
SPLINE
  5
B18
330
A8B
100
AcDbEntity
  8
FRONT
  6
Continuous
 62
     4
100
AcDbSpline
210
0.0
220
0.0
230
1.0
 70
    24
 71
     1
 72
     4
 73
     2
 74
     0
 42
0.0000000001
 43
0.0000000001
 40
0.0
 40
0.0
 40
1.0
 40
1.0
 10
17.28677117630373
 20
-5.132617233954769
 30
0.0
 10
16.67361660422959
 20
-5.134616718352519
 30
0.0
  0
SPLINE
  5
B19
330
A8B
100
AcDbEntity
  8
FRONT
  6
Continuous
 62
     4
100
AcDbSpline
210
0.0
220
0.0
230
1.0
 70
    24
 71
     1
 72
     4
 73
     2
 74
     0
 42
0.0000000001
 43
0.0000000001
 40
0.0
 40
0.0
 40
1.0
 40
1.0
 10
17.94182141506172
 20
-4.461266655075608
 30
0.0
 10
17.90527073750188
 20
-4.337218884751767
 30
0.0
  0
SPLINE
  5
B1A
330
A8B
100
AcDbEntity
  8
FRONT
  6
Continuous
 62
     4
100
AcDbSpline
210
0.0
220
0.0
230
1.0
 70
     8
 71
     2
 72
     6
 73
     3
 74
     0
 42
0.0000000001
 43
0.0000000001
 40
0.0
 40
0.0
 40
0.0
 40
1.0
 40
1.0
 40
1.0
 10
17.4863838813945
 20
-5.914121941707048
 30
0.0
 10
17.50241434520515
 20
-5.922316462127195
 30
0.0
 10
17.5149609852006
 20
-5.929071224485984
 30
0.0
  0
SPLINE
  5
B1B
330
A8B
100
AcDbEntity
  8
FRONT
  6
Continuous
 62
     4
100
AcDbSpline
210
0.0
220
0.0
230
1.0
 70
     8
 71
     3
 72
    10
 73
     6
 74
     0
 42
0.0000000001
 43
0.0000000001
 40
0.0
 40
0.0
 40
0.0
 40
0.0
 40
0.2802834343870607
 40
0.561500176492782
 40
1.0
 40
1.0
 40
1.0
 40
1.0
 10
17.93253772748871
 20
-5.521566331524031
 30
0.0
 10
17.92998166710049
 20
-5.58748102827846
 30
0.0
 10
17.90119279899605
 20
-5.70400075827699
 30
0.0
 10
17.73853112752677
 20
-5.870209334555772
 30
0.0
 10
17.59319445825168
 20
-5.912750987343615
 30
0.0
 10
17.4863838813945
 20
-5.914121941707048
 30
0.0
  0
SPLINE
  5
B1C
330
A8B
100
AcDbEntity
  8
FRONT
  6
Continuous
 62
     4
100
AcDbSpline
210
0.0
220
0.0
230
1.0
 70
     8
 71
     2
 72
     6
 73
     3
 74
     0
 42
0.0000000001
 43
0.0000000001
 40
0.0
 40
0.0
 40
0.0
 40
1.0
 40
1.0
 40
1.0
 10
17.29745226804206
 20
-5.017742724400552
 30
0.0
 10
17.334810636267
 20
-5.017343599018348
 30
0.0
 10
17.36829733251894
 20
-5.003728771550662
 30
0.0
  0
SPLINE
  5
B1D
330
A8B
100
AcDbEntity
  8
FRONT
  6
Continuous
 62
     4
100
AcDbSpline
210
0.0
220
0.0
230
1.0
 70
    24
 71
     1
 72
     4
 73
     2
 74
     0
 42
0.0000000001
 43
0.0000000001
 40
0.0
 40
0.0
 40
1.0
 40
1.0
 10
17.25039528434257
 20
-5.752276639961346
 30
0.0
 10
17.25582938323384
 20
-5.75599142494071
 30
0.0
  0
SPLINE
  5
B1E
330
A8B
100
AcDbEntity
  8
FRONT
  6
Continuous
 62
     4
100
AcDbSpline
210
0.0
220
0.0
230
1.0
 70
     8
 71
     2
 72
     6
 73
     3
 74
     0
 42
0.0000000001
 43
0.0000000001
 40
0.0
 40
0.0
 40
0.0
 40
1.0
 40
1.0
 40
1.0
 10
17.31289606147389
 20
-5.809345576655006
 30
0.0
 10
17.35705677144961
 20
-5.849142853119974
 30
0.0
 10
17.48638388139446
 20
-5.914121941707048
 30
0.0
  0
SPLINE
  5
B1F
330
A8B
100
AcDbEntity
  8
FRONT
  6
Continuous
 62
     4
100
AcDbSpline
210
0.0
220
0.0
230
1.0
 70
    24
 71
     1
 72
     4
 73
     2
 74
     0
 42
0.0000000001
 43
0.0000000001
 40
0.0
 40
0.0
 40
1.0
 40
1.0
 10
17.29561436988828
 20
-5.788108146748303
 30
0.0
 10
17.31289606147389
 20
-5.809345576655006
 30
0.0
  0
SPLINE
  5
B20
330
A8B
100
AcDbEntity
  8
FRONT
  6
Continuous
 62
     4
100
AcDbSpline
210
0.0
220
0.0
230
1.0
 70
    24
 71
     1
 72
     4
 73
     2
 74
     0
 42
0.0000000001
 43
0.0000000001
 40
0.0
 40
0.0
 40
1.0
 40
1.0
 10
17.96624821359698
 20
-4.521740220909061
 30
0.0
 10
17.94182141506172
 20
-4.461266655075608
 30
0.0
  0
SPLINE
  5
B21
330
A8B
100
AcDbEntity
  8
FRONT
  6
Continuous
 62
     4
100
AcDbSpline
210
0.0
220
0.0
230
1.0
 70
     8
 71
     3
 72
    11
 73
     7
 74
     0
 42
0.0000000001
 43
0.0000000001
 40
0.0
 40
0.0
 40
0.0
 40
0.0
 40
0.2627757061120019
 40
0.5667558013116807
 40
0.8797139751218168
 40
1.0
 40
1.0
 40
1.0
 40
1.0
 10
17.36829733251894
 20
-5.003728771550662
 30
0.0
 10
17.38587714511173
 20
-4.996404794424628
 30
0.0
 10
17.41990969395924
 20
-4.976439430695343
 30
0.0
 10
17.46158084441127
 20
-4.929333558277144
 30
0.0
 10
17.48149927690769
 20
-4.880797777468139
 30
0.0
 10
17.4866141760235
 20
-4.851053802725655
 30
0.0
 10
17.48753914728162
 20
-4.842620158601206
 30
0.0
  0
SPLINE
  5
B22
330
A8B
100
AcDbEntity
  8
FRONT
  6
Continuous
 62
     4
100
AcDbSpline
210
0.0
220
0.0
230
1.0
 70
     8
 71
     3
 72
    11
 73
     7
 74
     0
 42
0.0000000001
 43
0.0000000001
 40
0.0
 40
0.0
 40
0.0
 40
0.0
 40
0.2793522346033047
 40
0.5593335184216813
 40
0.7797559679565327
 40
1.0
 40
1.0
 40
1.0
 40
1.0
 10
17.94307446467377
 20
-5.530945951299988
 30
0.0
 10
17.94180307462405
 20
-5.594501577118919
 30
0.0
 10
17.91667550799417
 20
-5.709260710265843
 30
0.0
 10
17.81058445331001
 20
-5.846075908549162
 30
0.0
 10
17.67367926843748
 20
-5.924340080915007
 30
0.0
 10
17.58243171918843
 20
-5.939723916719522
 30
0.0
 10
17.53382959937809
 20
-5.939844692875301
 30
0.0
  0
SPLINE
  5
B23
330
A8B
100
AcDbEntity
  8
FRONT
  6
Continuous
 62
     4
100
AcDbSpline
210
0.0
220
0.0
230
1.0
 70
     8
 71
     3
 72
    14
 73
    10
 74
     0
 42
0.0000000001
 43
0.0000000001
 40
0.0
 40
0.0
 40
0.0
 40
0.0
 40
0.1951062385720619
 40
0.3339125582488692
 40
0.4501474463006513
 40
0.566328053941413
 40
0.7231136318596933
 40
0.9477057072569012
 40
1.0
 40
1.0
 40
1.0
 40
1.0
 10
17.89274962394844
 20
-4.643583112868443
 30
0.0
 10
17.89474514222996
 20
-4.639748694764659
 30
0.0
 10
17.89724314910162
 20
-4.631244618840346
 30
0.0
 10
17.89924971527219
 20
-4.615701729296858
 30
0.0
 10
17.89842728956798
 20
-4.599454138182963
 30
0.0
 10
17.8951461020218
 20
-4.581218840503261
 30
0.0
 10
17.88844700421837
 20
-4.558968223287878
 30
0.0
 10
17.8812580747526
 20
-4.542461472099691
 30
0.0
 10
17.8766627348089
 20
-4.533439686083934
 30
0.0
 10
17.87578472966787
 20
-4.531787042132242
 30
0.0
  0
SPLINE
  5
B24
330
A8B
100
AcDbEntity
  8
FRONT
  6
Continuous
 62
     4
100
AcDbSpline
210
0.0
220
0.0
230
1.0
 70
     8
 71
     2
 72
     6
 73
     3
 74
     0
 42
0.0000000001
 43
0.0000000001
 40
0.0
 40
0.0
 40
0.0
 40
1.0
 40
1.0
 40
1.0
 10
17.51496097087978
 20
-5.929071210841827
 30
0.0
 10
17.52734365897923
 20
-5.93571427869794
 30
0.0
 10
17.53382959937809
 20
-5.939844692875301
 30
0.0
  0
SPLINE
  5
B25
330
A8B
100
AcDbEntity
  8
FRONT
  6
Continuous
 62
     4
100
AcDbSpline
210
0.0
220
0.0
230
1.0
 70
     8
 71
     2
 72
     6
 73
     3
 74
     0
 42
0.0000000001
 43
0.0000000001
 40
0.0
 40
0.0
 40
0.0
 40
1.0
 40
1.0
 40
1.0
 10
16.67361660422962
 20
-5.134616718352519
 30
0.0
 10
16.8166102911388
 20
-5.470334999613283
 30
0.0
 10
17.25016942408499
 20
-5.752170042241946
 30
0.0
  0
SPLINE
  5
B26
330
A8B
100
AcDbEntity
  8
FRONT
  6
Continuous
 62
     4
100
AcDbSpline
210
0.0
220
0.0
230
1.0
 70
    24
 71
     1
 72
     4
 73
     2
 74
     0
 42
0.0000000001
 43
0.0000000001
 40
0.0
 40
0.0
 40
1.0
 40
1.0
 10
17.25582938323384
 20
-5.75599142494071
 30
0.0
 10
17.28962519580169
 20
-5.781691499550616
 30
0.0
  0
SPLINE
  5
B27
330
A8B
100
AcDbEntity
  8
FRONT
  6
Continuous
 62
     4
100
AcDbSpline
210
0.0
220
0.0
230
1.0
 70
    24
 71
     1
 72
     4
 73
     2
 74
     0
 42
0.0000000001
 43
0.0000000001
 40
0.0
 40
0.0
 40
1.0
 40
1.0
 10
17.94307446467377
 20
-5.530945951299988
 30
0.0
 10
17.9387785253627
 20
-5.526976438079117
 30
0.0
  0
SPLINE
  5
B28
330
A8B
100
AcDbEntity
  8
FRONT
  6
Continuous
 62
     4
100
AcDbSpline
210
0.0
220
0.0
230
1.0
 70
     8
 71
     3
 72
    14
 73
    10
 74
     0
 42
0.0000000001
 43
0.0000000001
 40
0.0
 40
0.0
 40
0.0
 40
0.0
 40
0.142151055421
 40
0.2416441906233231
 40
0.337512840946061
 40
0.5226088307748542
 40
0.7069349958419002
 40
0.7832535482434971
 40
1.0
 40
1.0
 40
1.0
 40
1.0
 10
17.58957197281758
 20
-4.910128850814881
 30
0.0
 10
17.58968669457347
 20
-4.930933722154952
 30
0.0
 10
17.58527280217872
 20
-4.96494050117826
 30
0.0
 10
17.56744498013549
 20
-5.00997609003333
 30
0.0
 10
17.53896901385022
 20
-5.056105771769582
 30
0.0
 10
17.48959095851773
 20
-5.102732691476536
 30
0.0
 10
17.42845235015919
 20
-5.125843715274846
 30
0.0
 10
17.36038010976709
 20
-5.134920028137988
 30
0.0
 10
17.31826363289789
 20
-5.135515785459636
 30
0.0
 10
17.28677048324978
 20
-5.132574095267016
 30
0.0
  0
ELLIPSE
  5
B29
330
A8B
100
AcDbEntity
  8
FRONT
  6
Continuous
 62
     4
100
AcDbEllipse
 10
14.84592289431094
 20
-3.161093469702648
 30
0.0
 11
-0.8821392302302177
 21
0.4709887243754463
 31
0.0
210
0.0
220
0.0
230
1.0
 40
0.9833059182791327
 41
3.625030345689558
 42
6.283185307179584
  0
SPLINE
  5
B2A
330
A8B
100
AcDbEntity
  8
FRONT
  6
Continuous
 62
     4
100
AcDbSpline
210
0.0
220
0.0
230
1.0
 70
     8
 71
     3
 72
    16
 73
    12
 74
     0
 42
0.0000000001
 43
0.0000000001
 40
0.0
 40
0.0
 40
0.0
 40
0.0
 40
0.129148378034396
 40
0.2674644537203973
 40
0.3841582685837871
 40
0.5013560291580168
 40
0.6062428686698798
 40
0.7064204883265523
 40
0.8086161864158006
 40
0.91809676777724
 40
1.0
 40
1.0
 40
1.0
 40
1.0
 10
15.89972191180696
 20
-3.067258476064096
 30
0.0
 10
15.90909121726365
 20
-2.958913954357801
 30
0.0
 10
15.89382133999201
 20
-2.73905812340351
 30
0.0
 10
15.7767083394974
 20
-2.417696763445265
 30
0.0
 10
15.55374765832576
 20
-2.152776320541678
 30
0.0
 10
15.26778494996267
 20
-1.989804342125394
 30
0.0
 10
14.95334031998964
 20
-1.939085852191666
 30
0.0
 10
14.65311205059481
 20
-1.989438808047074
 30
0.0
 10
14.38058061019693
 20
-2.127700253828794
 30
0.0
 10
14.17726057529053
 20
-2.322863280499757
 30
0.0
 10
14.08156978624059
 20
-2.467674156401074
 30
0.0
 10
14.04700334616364
 20
-2.534248306255423
 30
0.0
  0
ELLIPSE
  5
B2B
330
A8B
100
AcDbEntity
  8
FRONT
  6
Continuous
 62
     4
100
AcDbEllipse
 10
14.80294988243358
 20
-3.241579854307761
 30
0.0
 11
-0.7939252851790806
 21
0.4238898401086228
 31
0.0
210
0.0
220
0.0
230
1.0
 40
0.9833059182800139
 41
5.213279964936608
 42
6.231612357172
  0
SPLINE
  5
B2C
330
A8B
100
AcDbEntity
  8
FRONT
  6
Continuous
 62
     4
100
AcDbSpline
210
0.0
220
0.0
230
1.0
 70
     8
 71
     3
 72
    10
 73
     6
 74
     0
 42
0.0000000001
 43
0.0000000001
 40
0.0
 40
0.0
 40
0.0
 40
0.0
 40
0.1975215270407752
 40
0.8880294744614507
 40
1.0
 40
1.0
 40
1.0
 40
1.0
 10
14.04700334616364
 20
-2.534248306255423
 30
0.0
 10
14.02979995309934
 20
-2.56708149719274
 30
0.0
 10
13.95915311772168
 20
-2.715260042725278
 30
0.0
 10
13.91596124117772
 20
-2.891939134658461
 30
0.0
 10
13.90359775925108
 20
-3.029307479047951
 30
0.0
 10
13.90234343681433
 20
-3.048492528079988
 30
0.0
  0
LINE
  5
B2D
330
A8B
100
AcDbEntity
  8
FRONT
  6
Continuous
 62
     4
100
AcDbLine
 10
15.89972191180696
 20
-3.067258476064095
 30
0.0
 11
15.84224378306065
 21
-3.174912246999863
 31
0.0
  0
ELLIPSE
  5
B2E
330
A8B
100
AcDbEntity
  8
FRONT
  6
Continuous
 62
     4
100
AcDbEllipse
 10
17.97951315599034
 20
-2.391212493543383
 30
0.0
 11
-0.4845839650356391
 21
2.565417656625252
 31
0.0
210
0.0
220
0.0
230
0.9999999999999998
 40
0.1877462969956187
 41
1.545777644991644
 42
1.748054161917929
  0
ELLIPSE
  5
B2F
330
A8B
100
AcDbEntity
  8
FRONT
  6
Continuous
 62
     4
100
AcDbEllipse
 10
12.46509142978946
 20
4.4053773937274
 30
0.0
 11
-0.7820027716041942
 21
-0.3331240993350395
 31
0.0
210
0.0
220
0.0
230
1.0
 40
0.3528380920404428
 41
1.238775038219452
 42
1.609788972500551
  0
ELLIPSE
  5
B30
330
A8B
100
AcDbEntity
  8
FRONT
  6
Continuous
 62
     4
100
AcDbEllipse
 10
12.30437911162724
 20
5.324732699532396
 30
0.0
 11
-0.1775236042668109
 21
0.8312552970357225
 31
0.0
210
0.0
220
0.0
230
1.0
 40
0.1700246401022982
 41
4.325383915281284
 42
4.740398743479548
  0
SPLINE
  5
B31
330
A8B
100
AcDbEntity
  8
FRONT
  6
Continuous
 62
     4
100
AcDbSpline
210
0.0
220
0.0
230
1.0
 70
    24
 71
     1
 72
     4
 73
     2
 74
     0
 42
0.0000000001
 43
0.0000000001
 40
0.0
 40
0.0
 40
1.0
 40
1.0
 10
12.44068581249327
 20
5.378184466683816
 30
0.0
 10
12.71058671127498
 20
5.473403005394003
 30
0.0
  0
SPLINE
  5
B32
330
A8B
100
AcDbEntity
  8
FRONT
  6
Continuous
 62
     4
100
AcDbSpline
210
0.0
220
0.0
230
1.0
 70
    24
 71
     1
 72
     4
 73
     2
 74
     0
 42
0.0000000001
 43
0.0000000001
 40
0.0
 40
0.0
 40
1.0
 40
1.0
 10
12.4453969153142
 20
4.793762731808075
 30
0.0
 10
12.55914221892536
 20
4.254904835094778
 30
0.0
  0
SPLINE
  5
B33
330
A8B
100
AcDbEntity
  8
FRONT
  6
Continuous
 62
     4
100
AcDbSpline
210
0.0
220
0.0
230
1.0
 70
    24
 71
     1
 72
     4
 73
     2
 74
     0
 42
0.0000000001
 43
0.0000000001
 40
0.0
 40
0.0
 40
1.0
 40
1.0
 10
12.3980252578104
 20
3.54383975964174
 30
0.0
 10
13.21291955543235
 20
3.601539892142866
 30
0.0
  0
SPLINE
  5
B34
330
A8B
100
AcDbEntity
  8
FRONT
  6
Continuous
 62
     4
100
AcDbSpline
210
0.0
220
0.0
230
1.0
 70
    24
 71
     1
 72
     4
 73
     2
 74
     0
 42
0.0000000001
 43
0.0000000001
 40
0.0
 40
0.0
 40
1.0
 40
1.0
 10
12.73849007715883
 20
3.667718842522095
 30
0.0
 10
12.44268010034102
 20
3.606971866039024
 30
0.0
  0
SPLINE
  5
B35
330
A8B
100
AcDbEntity
  8
FRONT
  6
Continuous
 62
     4
100
AcDbSpline
210
0.0
220
0.0
230
1.0
 70
    24
 71
     1
 72
     4
 73
     2
 74
     0
 42
0.0000000001
 43
0.0000000001
 40
0.0
 40
0.0
 40
1.0
 40
1.0
 10
12.55915629769893
 20
4.254835323750993
 30
0.0
 10
12.26801481276993
 20
4.191302768065273
 30
0.0
  0
SPLINE
  5
B36
330
A8B
100
AcDbEntity
  8
FRONT
  6
Continuous
 62
     4
100
AcDbSpline
210
0.0
220
0.0
230
1.0
 70
     8
 71
     3
 72
    12
 73
     8
 74
     0
 42
0.0000000001
 43
0.0000000001
 40
0.0
 40
0.0
 40
0.0
 40
0.0
 40
0.2744697384182955
 40
0.551325202075647
 40
0.7557784030006751
 40
0.9601016673759271
 40
1.0
 40
1.0
 40
1.0
 40
1.0
 10
12.50226080994402
 20
5.038954222702709
 30
0.0
 10
12.49336678341477
 20
5.03692528720934
 30
0.0
 10
12.47674970363677
 20
5.030709459633406
 30
0.0
 10
12.45543597836243
 20
5.016913564102337
 30
0.0
 10
12.44193220855824
 20
4.998754955080447
 30
0.0
 10
12.43759971455943
 20
4.985018509162411
 30
0.0
 10
12.43655385903655
 20
4.977536033076629
 30
0.0
 10
12.43641987849389
 20
4.976306217531559
 30
0.0
  0
SPLINE
  5
B37
330
A8B
100
AcDbEntity
  8
FRONT
  6
Continuous
 62
     4
100
AcDbSpline
210
0.0
220
0.0
230
1.0
 70
     8
 71
     2
 72
     6
 73
     3
 74
     0
 42
0.0000000001
 43
0.0000000001
 40
0.0
 40
0.0
 40
0.0
 40
1.0
 40
1.0
 40
1.0
 10
12.03715634521592
 20
5.830492901738478
 30
0.0
 10
12.99283696601092
 20
5.878254479706012
 30
0.0
 10
13.94849592177253
 20
5.910374237806076
 30
0.0
  0
ELLIPSE
  5
B38
330
A8B
100
AcDbEntity
  8
FRONT
  6
Continuous
 62
     4
100
AcDbEllipse
 10
5.662019838117116
 20
-0.0000000000333795
 30
0.0
 11
-30.04133316949641
 21
-2.588839177206941
 31
0.0
210
0.0
220
0.0
230
0.9999999999999998
 40
0.161531415063552
 41
4.513346154013637
 42
4.756988358425918
  0
SPLINE
  5
B39
330
A8B
100
AcDbEntity
  8
FRONT
  6
Continuous
 62
     4
100
AcDbSpline
210
0.0
220
0.0
230
1.0
 70
     8
 71
     3
 72
    19
 73
    15
 74
     0
 42
0.0000000001
 43
0.0000000001
 40
0.0
 40
0.0
 40
0.0
 40
0.0
 40
0.0378701787910131
 40
0.0905179988905895
 40
0.1642269556926017
 40
0.2380530753730911
 40
0.3123760441477659
 40
0.3869895302976412
 40
0.4614745016438901
 40
0.5851496942702218
 40
0.7092835185565466
 40
0.833157903598639
 40
0.9165781401482579
 40
1.0
 40
1.0
 40
1.0
 40
1.0
 10
1.345325372781964
 20
5.49999932711582
 30
0.0
 10
1.398511539679653
 20
5.499310768582701
 30
0.0
 10
1.538982385476854
 20
5.487566690474291
 30
0.0
 10
1.854591910925284
 20
5.418195046609993
 30
0.0
 10
2.329329109016069
 20
5.271619651707619
 30
0.0
 10
2.940855747626413
 20
5.059696886614688
 30
0.0
 10
3.6216964289096
 20
4.824065572811823
 30
0.0
 10
4.352948688096573
 20
4.581228769111548
 30
0.0
 10
5.29008644652346
 20
4.292383252863228
 30
0.0
 10
6.451194759052143
 20
3.98739059815945
 30
0.0
 10
7.838486420970312
 20
3.705173860574058
 30
0.0
 10
9.103089126275692
 20
3.529868020428326
 30
0.0
 10
10.22364537502219
 20
3.441763234081208
 30
0.0
 10
10.86882686552338
 20
3.420927197378751
 30
0.0
 10
11.19220462092714
 20
3.417991427849379
 30
0.0
  0
LINE
  5
B3A
330
A8B
100
AcDbEntity
  8
FRONT
  6
Continuous
 62
     4
100
AcDbLine
 10
1.352746725880145
 20
5.5
 30
0.0
 11
0.8660254037844552
 21
5.5
 31
0.0
  0
LINE
  5
B3B
330
A8B
100
AcDbEntity
  8
FRONT
  6
Continuous
 62
     4
100
AcDbLine
 10
11.18782140983618
 20
3.622780017417606
 30
0.0
 11
11.58072561727361
 21
4.835384189051726
 31
0.0
  0
LINE
  5
B3C
330
A8B
100
AcDbEntity
  8
FRONT
  6
Continuous
 62
     4
100
AcDbLine
 10
11.18782140983618
 20
3.622780017417606
 30
0.0
 11
12.32131357354198
 21
4.035942971686977
 31
0.0
  0
LINE
  5
B3D
330
A8B
100
AcDbEntity
  8
FRONT
  6
Continuous
 62
     4
100
AcDbLine
 10
12.1287291577043
 20
4.721327038522023
 30
0.0
 11
11.58072561727361
 21
4.835384189051726
 31
0.0
  0
LINE
  5
B3E
330
A8B
100
AcDbEntity
  8
FRONT
  6
Continuous
 62
     4
100
AcDbLine
 10
11.73862963750702
 20
5.461687541797799
 30
0.0
 11
11.82908573895635
 21
5.442860719673216
 31
0.0
  0
LINE
  5
B3F
330
A8B
100
AcDbEntity
  8
FRONT
  6
Continuous
 62
     4
100
AcDbLine
 10
11.73862963750702
 20
5.461687541797799
 30
0.0
 11
11.75466693733003
 21
5.546759538624923
 31
0.0
  0
ELLIPSE
  5
B40
330
A8B
100
AcDbEntity
  8
FRONT
  6
Continuous
 62
     4
100
AcDbEllipse
 10
11.95540632460577
 20
5.633722551958136
 30
0.0
 11
-0.806489772482009
 21
-0.5912480410211467
 31
0.0
210
0.0
220
0.0
230
1.0
 40
0.0811337619020885
 41
1.354388177432271
 42
1.745711778396149
  0
ELLIPSE
  5
B41
330
A8B
100
AcDbEntity
  8
FRONT
  6
Continuous
 62
     4
100
AcDbEllipse
 10
335.1698859889653
 20
27.65013668158367
 30
0.0
 11
-342.0959389744786
 21
-28.76099667904112
 31
0.0
210
0.0
220
0.0
230
1.0
 40
0.0434265181053538
 41
5.947803486633389
 42
5.952599622232146
  0
ELLIPSE
  5
B42
330
A8B
100
AcDbEntity
  8
FRONT
  6
Continuous
 62
     4
100
AcDbEllipse
 10
5.102677341749099
 20
0.6587726038256668
 30
0.0
 11
-7.307339427366883
 21
-3.063816270399227
 31
0.0
210
0.0
220
0.0
230
1.0
 40
0.2481866287351503
 41
3.052623486450511
 42
3.080913953302548
  0
ELLIPSE
  5
B43
330
A8B
100
AcDbEntity
  8
FRONT
  6
Continuous
 62
     4
100
AcDbEllipse
 10
12.27250701395665
 20
5.090761460477818
 30
0.0
 11
-0.8217836972268276
 21
-0.2171901358713434
 31
0.0
210
0.0
220
0.0
230
0.9999999999999998
 40
0.3920499365775708
 41
1.292632269327997
 42
1.678371035082333
  0
ELLIPSE
  5
B44
330
A8B
100
AcDbEntity
  8
FRONT
  6
Continuous
 62
     4
100
AcDbEllipse
 10
5.404099419789869
 20
0.7686420975624931
 30
0.0
 11
-5.980729945729562
 21
-2.40986449979302
 31
0.0
210
0.0
220
0.0
230
0.9999999999999998
 40
0.3085337035018759
 41
3.290405811667822
 42
3.332639300504348
  0
ELLIPSE
  5
B45
330
A8B
100
AcDbEntity
  8
FRONT
  6
Continuous
 62
     4
100
AcDbEllipse
 10
12.04589348063163
 20
3.189576309002418
 30
0.0
 11
-0.6673421078069362
 21
-2.286566163010705
 31
0.0
210
0.0
220
0.0
230
0.9999999999999998
 40
0.3978450525441507
 41
4.63866320637629
 42
4.650929689634257
  0
ELLIPSE
  5
B46
330
A8B
100
AcDbEntity
  8
FRONT
  6
Continuous
 62
     4
100
AcDbEllipse
 10
10.73278510489058
 20
6.237522743498638
 30
0.0
 11
-0.1862105098576039
 21
-2.621606840087076
 31
0.0
210
0.0
220
0.0
230
0.9999999999999998
 40
0.4178730016605411
 41
1.036429758151679
 42
1.300166956177833
  0
ELLIPSE
  5
B47
330
A8B
100
AcDbEntity
  8
FRONT
  6
Continuous
 62
     4
100
AcDbEllipse
 10
12.25172592005139
 20
5.268705240183141
 30
0.0
 11
-0.8496785632609061
 21
0.0233738973287866
 31
0.0
210
0.0
220
0.0
230
1.0
 40
0.3469230430269695
 41
1.426511375320844
 42
1.799447862846502
  0
ELLIPSE
  5
B48
330
A8B
100
AcDbEntity
  8
FRONT
  6
Continuous
 62
     4
100
AcDbEllipse
 10
11.78356539115273
 20
2.802384415741716
 30
0.0
 11
-1.329462075118444
 21
-0.5309569405100488
 31
0.0
210
0.0
220
0.0
230
0.9999999999999998
 40
0.8742324331760295
 41
4.730475183920662
 42
5.327454682651223
  0
SPLINE
  5
B49
330
A8B
100
AcDbEntity
  8
FRONT
  6
Continuous
 62
     4
100
AcDbSpline
210
0.0
220
0.0
230
1.0
 70
    24
 71
     1
 72
     4
 73
     2
 74
     0
 42
0.0000000001
 43
0.0000000001
 40
0.0
 40
0.0
 40
1.0
 40
1.0
 10
12.44268010034102
 20
3.606971866039025
 30
0.0
 10
12.32131357354198
 20
4.03594297168698
 30
0.0
  0
SPLINE
  5
B4A
330
A8B
100
AcDbEntity
  8
FRONT
  6
Continuous
 62
     4
100
AcDbSpline
210
0.0
220
0.0
230
1.0
 70
    24
 71
     1
 72
     4
 73
     2
 74
     0
 42
0.0000000001
 43
0.0000000001
 40
0.0
 40
0.0
 40
1.0
 40
1.0
 10
11.19220462092714
 20
3.417991427849379
 30
0.0
 10
12.3980252578104
 20
3.543839759641738
 30
0.0
  0
SPLINE
  5
B4B
330
A8B
100
AcDbEntity
  8
FRONT
  6
Continuous
 62
     4
100
AcDbSpline
210
0.0
220
0.0
230
1.0
 70
    24
 71
     1
 72
     4
 73
     2
 74
     0
 42
0.0000000001
 43
0.0000000001
 40
0.0
 40
0.0
 40
1.0
 40
1.0
 10
11.13483081029059
 20
3.485051129667143
 30
0.0
 10
11.17890053972468
 20
3.595016077432556
 30
0.0
  0
SPLINE
  5
B4C
330
A8B
100
AcDbEntity
  8
FRONT
  6
Continuous
 62
     4
100
AcDbSpline
210
0.0
220
0.0
230
1.0
 70
    24
 71
     1
 72
     4
 73
     2
 74
     0
 42
0.0000000001
 43
0.0000000001
 40
0.0
 40
0.0
 40
1.0
 40
1.0
 10
11.82908573895635
 20
5.442860719673213
 30
0.0
 10
11.75466693733006
 20
5.546759538624923
 30
0.0
  0
SPLINE
  5
B4D
330
A8B
100
AcDbEntity
  8
FRONT
  6
Continuous
 62
     4
100
AcDbSpline
210
0.0
220
0.0
230
1.0
 70
    24
 71
     1
 72
     4
 73
     2
 74
     0
 42
0.0000000001
 43
0.0000000001
 40
0.0
 40
0.0
 40
1.0
 40
1.0
 10
11.99195171433702
 20
5.828515939483442
 30
0.0
 10
12.03715635432748
 20
5.830493677100296
 30
0.0
  0
SPLINE
  5
B4E
330
A8B
100
AcDbEntity
  8
FRONT
  6
Continuous
 62
     4
100
AcDbSpline
210
0.0
220
0.0
230
1.0
 70
     8
 71
     2
 72
     6
 73
     3
 74
     0
 42
0.0000000001
 43
0.0000000001
 40
0.0
 40
0.0
 40
0.0
 40
1.0
 40
1.0
 40
1.0
 10
12.12153033356313
 20
4.980355974952971
 30
0.0
 10
12.25725557980072
 20
5.188642474664766
 30
0.0
 10
12.44068581249289
 20
5.378184466685091
 30
0.0
  0
SPLINE
  5
B4F
330
A8B
100
AcDbEntity
  8
FRONT
  6
Continuous
 62
     4
100
AcDbSpline
210
0.0
220
0.0
230
1.0
 70
    24
 71
     1
 72
     4
 73
     2
 74
     0
 42
0.0000000001
 43
0.0000000001
 40
0.0
 40
0.0
 40
1.0
 40
1.0
 10
12.14299382353853
 20
5.672179305901577
 30
0.0
 10
12.44068581249117
 20
5.378184466683152
 30
0.0
  0
SPLINE
  5
B50
330
A8B
100
AcDbEntity
  8
FRONT
  6
Continuous
 62
     4
100
AcDbSpline
210
0.0
220
0.0
230
1.0
 70
    24
 71
     1
 72
     4
 73
     2
 74
     0
 42
0.0000000001
 43
0.0000000001
 40
0.0
 40
0.0
 40
1.0
 40
1.0
 10
12.43641987849358
 20
4.976306217531615
 30
0.0
 10
12.44539691531411
 20
4.793762731808084
 30
0.0
  0
SPLINE
  5
B51
330
A8B
100
AcDbEntity
  8
FRONT
  6
Continuous
 62
     4
100
AcDbSpline
210
0.0
220
0.0
230
1.0
 70
    24
 71
     1
 72
     4
 73
     2
 74
     0
 42
0.0000000001
 43
0.0000000001
 40
0.0
 40
0.0
 40
1.0
 40
1.0
 10
12.1287291577043
 20
4.721327038522023
 30
0.0
 10
12.12153033357644
 20
4.980355974944933
 30
0.0
  0
SPLINE
  5
B52
330
A8B
100
AcDbEntity
  8
FRONT
  6
Continuous
 62
     4
100
AcDbSpline
210
0.0
220
0.0
230
1.0
 70
    24
 71
     1
 72
     4
 73
     2
 74
     0
 42
0.0000000001
 43
0.0000000001
 40
0.0
 40
0.0
 40
1.0
 40
1.0
 10
11.75466693733006
 20
5.546759538624923
 30
0.0
 10
11.77084472479986
 20
5.637701490563192
 30
0.0
  0
SPLINE
  5
B53
330
A8B
100
AcDbEntity
  8
FRONT
  6
Continuous
 62
     4
100
AcDbSpline
210
0.0
220
0.0
230
1.0
 70
    24
 71
     1
 72
     4
 73
     2
 74
     0
 42
0.0000000001
 43
0.0000000001
 40
0.0
 40
0.0
 40
1.0
 40
1.0
 10
12.26801481277344
 20
4.191302768055223
 30
0.0
 10
12.12872915770442
 20
4.721327038522042
 30
0.0
  0
SPLINE
  5
B54
330
A8B
100
AcDbEntity
  8
FRONT
  6
Continuous
 62
     4
100
AcDbSpline
210
0.0
220
0.0
230
1.0
 70
    24
 71
     1
 72
     4
 73
     2
 74
     0
 42
0.0000000001
 43
0.0000000001
 40
0.0
 40
0.0
 40
1.0
 40
1.0
 10
12.32131357354198
 20
4.035942971686977
 30
0.0
 10
12.26802043571945
 20
4.191303577397426
 30
0.0
  0
SPLINE
  5
B55
330
A8B
100
AcDbEntity
  8
FRONT
  6
Continuous
 62
     4
100
AcDbSpline
210
0.0
220
0.0
230
1.0
 70
     8
 71
     3
 72
    12
 73
     8
 74
     0
 42
0.0000000001
 43
0.0000000001
 40
0.0
 40
0.0
 40
0.0
 40
0.0
 40
0.2440298709825523
 40
0.488120310074948
 40
0.7306421972591242
 40
0.9701993202335991
 40
1.0
 40
1.0
 40
1.0
 40
1.0
 10
11.99195171433709
 20
5.828515939483442
 30
0.0
 10
11.96562176469131
 20
5.827267267325016
 30
0.0
 10
11.91614572163948
 20
5.81715304258248
 30
0.0
 10
11.84798307522928
 20
5.777355599814397
 30
0.0
 10
11.79694752140736
 20
5.718879229510207
 30
0.0
 10
11.77656470249855
 20
5.668220081294717
 30
0.0
 10
11.77135854082036
 20
5.640760675661909
 30
0.0
 10
11.77084472479986
 20
5.637701490563106
 30
0.0
  0
SPLINE
  5
B56
330
A8B
100
AcDbEntity
  8
FRONT
  6
Continuous
 62
     4
100
AcDbSpline
210
0.0
220
0.0
230
1.0
 70
    24
 71
     1
 72
     4
 73
     2
 74
     0
 42
0.0000000001
 43
0.0000000001
 40
0.0
 40
0.0
 40
1.0
 40
1.0
 10
11.10699408027199
 20
3.430964201513404
 30
0.0
 10
11.13483081029059
 20
3.485051129667143
 30
0.0
  0
SPLINE
  5
B57
330
A8B
100
AcDbEntity
  8
FRONT
  6
Continuous
 62
     4
100
AcDbSpline
210
0.0
220
0.0
230
1.0
 70
     8
 71
     2
 72
     6
 73
     3
 74
     0
 42
0.0000000001
 43
0.0000000001
 40
0.0
 40
0.0
 40
0.0
 40
1.0
 40
1.0
 40
1.0
 10
12.03715634521592
 20
5.830492901738478
 30
0.0
 10
12.08883088585918
 20
5.750552258515644
 30
0.0
 10
12.14299382353853
 20
5.672179305901581
 30
0.0
  0
SPLINE
  5
B58
330
A8B
100
AcDbEntity
  8
FRONT
  6
Continuous
 62
     4
100
AcDbSpline
210
0.0
220
0.0
230
1.0
 70
     8
 71
     2
 72
     6
 73
     3
 74
     0
 42
0.0000000001
 43
0.0000000001
 40
0.0
 40
0.0
 40
0.0
 40
1.0
 40
1.0
 40
1.0
 10
12.12153033357693
 20
4.98035597495837
 30
0.0
 10
11.94052361365615
 20
5.188224351265906
 30
0.0
 10
11.82908573895635
 20
5.442860719673213
 30
0.0
  0
LINE
  5
B59
330
A8B
100
AcDbEntity
  8
FRONT
  6
Continuous
 62
     4
100
AcDbLine
 10
17.89827503693186
 20
4.305849194799654
 30
0.0
 11
17.5908596611797
 21
2.933128552700317
 31
0.0
  0
LINE
  5
B5A
330
A8B
100
AcDbEntity
  8
FRONT
  6
Continuous
 62
     4
100
AcDbLine
 10
17.48879939540238
 20
2.948133384037639
 30
0.0
 11
17.5908596611797
 21
2.933128552700317
 31
0.0
  0
ELLIPSE
  5
B5B
330
A8B
100
AcDbEntity
  8
FRONT
  6
Continuous
 62
     4
100
AcDbEllipse
 10
17.97951315555683
 20
2.391212493729724
 30
0.0
 11
-0.4845839648273406
 21
-2.565417655414864
 31
0.0
210
0.0
220
0.0
230
1.0
 40
0.1877462969075319
 41
4.535131145218768
 42
4.737407662240475
  0
ELLIPSE
  5
B5C
330
A8B
100
AcDbEntity
  8
FRONT
  6
Continuous
 62
     4
100
AcDbEllipse
 10
14.515607907233
 20
3.779757555175363
 30
0.0
 11
-1.088811819638892
 21
-0.5813346379390692
 31
0.0
210
0.0
220
0.0
230
0.9999999999999998
 40
0.9833059182791359
 41
3.141592653589792
 42
5.933643914404617
  0
ELLIPSE
  5
B5D
330
A8B
100
AcDbEntity
  8
FRONT
  6
Continuous
 62
     4
100
AcDbEllipse
 10
14.59586354321826
 20
3.865394052024021
 30
0.0
 11
-1.19524239155921
 21
-0.6381596805011488
 31
0.0
210
0.0
220
0.0
230
0.9999999999999998
 40
0.9833059182791515
 41
2.398313761510258
 42
5.985009272386527
  0
ELLIPSE
  5
B5E
330
A8B
100
AcDbEntity
  8
FRONT
  6
Continuous
 62
     4
100
AcDbEllipse
 10
14.58257986552084
 20
3.890273741521
 30
0.0
 11
-1.274184406475826
 21
-0.6803081278529028
 31
0.0
210
0.0
220
0.0
230
0.9999999999999996
 40
0.9833059182793167
 41
2.393939591548555
 42
4.152487722051174
  0
ELLIPSE
  5
B5F
330
A8B
100
AcDbEntity
  8
FRONT
  6
Continuous
 62
     4
100
AcDbEllipse
 10
14.624437821126
 20
3.811875803681258
 30
0.0
 11
-1.09830870118782
 21
-0.5864051800623212
 31
0.0
210
0.0
220
0.0
230
0.9999999999999998
 40
0.9833059182791778
 41
2.421430119237938
 42
4.646060335807837
  0
ELLIPSE
  5
B60
330
A8B
100
AcDbEntity
  8
FRONT
  6
Continuous
 62
     4
100
AcDbEllipse
 10
14.59586354321826
 20
3.865394052023983
 30
0.0
 11
-1.15113543004724
 21
-0.6146102442832692
 31
0.0
210
0.0
220
0.0
230
1.0
 40
0.9833059182791595
 41
2.854453356631227
 42
5.726113818514622
  0
ELLIPSE
  5
B61
330
A8B
100
AcDbEntity
  8
FRONT
  6
Continuous
 62
     4
100
AcDbEllipse
 10
14.61409458346563
 20
3.831248190399238
 30
0.0
 11
-1.141300807152083
 21
-0.6093593764552427
 31
0.0
210
0.0
220
0.0
230
1.0
 40
0.9833059182793387
 41
2.854453356640041
 42
4.211497995772411
  0
ELLIPSE
  5
B62
330
A8B
100
AcDbEntity
  8
FRONT
  6
Continuous
 62
     4
100
AcDbEllipse
 10
14.58172285405612
 20
3.891878882778576
 30
0.0
 11
-1.289463506136375
 21
-0.6884658918589805
 31
0.0
210
0.0
220
0.0
230
0.9999999999999998
 40
0.9833059182791195
 41
2.395557650275634
 42
4.152487722049663
  0
SPLINE
  5
B63
330
A8B
100
AcDbEntity
  8
FRONT
  6
Continuous
 62
     4
100
AcDbSpline
210
0.0
220
0.0
230
1.0
 70
    24
 71
     1
 72
     4
 73
     2
 74
     0
 42
0.0000000001
 43
0.0000000001
 40
0.0
 40
0.0
 40
1.0
 40
1.0
 10
17.29745226804206
 20
3.509679345658438
 30
0.0
 10
13.748385681282
 20
3.593205653172363
 30
0.0
  0
SPLINE
  5
B64
330
A8B
100
AcDbEntity
  8
FRONT
  6
Continuous
 62
     4
100
AcDbSpline
210
0.0
220
0.0
230
1.0
 70
    24
 71
     1
 72
     4
 73
     2
 74
     0
 42
0.0000000001
 43
0.0000000001
 40
0.0
 40
0.0
 40
1.0
 40
1.0
 10
16.11893557758381
 20
4.995450787331964
 30
0.0
 10
15.12498870412169
 20
5.250072189631183
 30
0.0
  0
SPLINE
  5
B65
330
A8B
100
AcDbEntity
  8
FRONT
  6
Continuous
 62
     4
100
AcDbSpline
210
0.0
220
0.0
230
1.0
 70
    24
 71
     1
 72
     4
 73
     2
 74
     0
 42
0.0000000001
 43
0.0000000001
 40
0.0
 40
0.0
 40
1.0
 40
1.0
 10
17.59489872014192
 20
5.975264142052812
 30
0.0
 10
14.60613712230076
 20
5.930601946215392
 30
0.0
  0
SPLINE
  5
B66
330
A8B
100
AcDbEntity
  8
FRONT
  6
Continuous
 62
     4
100
AcDbSpline
210
0.0
220
0.0
230
1.0
 70
    24
 71
     1
 72
     4
 73
     2
 74
     0
 42
0.0000000001
 43
0.0000000001
 40
0.0
 40
0.0
 40
1.0
 40
1.0
 10
14.92350318018168
 20
5.636516777042869
 30
0.0
 10
16.19668973819389
 20
5.335334408581799
 30
0.0
  0
LINE
  5
B67
330
A8B
100
AcDbEntity
  8
FRONT
  6
Continuous
 62
     4
100
AcDbLine
 10
15.10230670790777
 20
4.183313301931558
 30
0.0
 11
15.04448787470278
 21
4.291605195933396
 31
0.0
  0
LINE
  5
B68
330
A8B
100
AcDbEntity
  8
FRONT
  6
Continuous
 62
     4
100
AcDbLine
 10
15.1976496365405
 20
3.611859513448073
 30
0.0
 11
15.22617856444389
 21
3.558426203482309
 31
0.0
  0
LINE
  5
B69
330
A8B
100
AcDbEntity
  8
FRONT
  6
Continuous
 62
     4
100
AcDbLine
 10
13.80446405246526
 20
3.591885864106183
 30
0.0
 11
13.80379348619884
 21
3.593141802474725
 31
0.0
  0
LINE
  5
B6A
330
A8B
100
AcDbEntity
  8
FRONT
  6
Continuous
 62
     4
100
AcDbLine
 10
14.83756674726533
 20
5.331362856545027
 30
0.0
 11
14.69295620412083
 21
5.331857548057461
 31
0.0
  0
LINE
  5
B6B
330
A8B
100
AcDbEntity
  8
FRONT
  6
Continuous
 62
     4
100
AcDbLine
 10
14.05370990737933
 20
4.186900398182689
 30
0.0
 11
13.99589107417434
 21
4.295192292184527
 31
0.0
  0
LINE
  5
B6C
330
A8B
100
AcDbEntity
  8
FRONT
  6
Continuous
 62
     4
100
AcDbLine
 10
14.44227717851973
 20
4.461613941808328
 30
0.0
 11
14.40175106321881
 21
4.382834230900383
 31
0.0
  0
LINE
  5
B6D
330
A8B
100
AcDbEntity
  8
FRONT
  6
Continuous
 62
     4
100
AcDbLine
 10
14.36658232700411
 20
4.549988550519462
 30
0.0
 11
14.38057235479898
 21
4.577184109163312
 31
0.0
  0
LINE
  5
B6E
330
A8B
100
AcDbEntity
  8
FRONT
  6
Continuous
 62
     4
100
AcDbLine
 10
14.40175106321881
 20
4.382834230900383
 30
0.0
 11
14.3439322300138
 21
4.491126124902223
 31
0.0
  0
LINE
  5
B6F
330
A8B
100
AcDbEntity
  8
FRONT
  6
Continuous
 62
     4
100
AcDbLine
 10
13.934096024833
 20
4.306515336617805
 30
0.0
 11
13.903565927193
 21
4.308647770791533
 31
0.0
  0
LINE
  5
B70
330
A8B
100
AcDbEntity
  8
FRONT
  6
Continuous
 62
     4
100
AcDbLine
 10
13.77533931878937
 20
4.042581236833521
 30
0.0
 11
13.75872784864233
 21
4.067853483548937
 31
0.0
  0
LINE
  5
B71
330
A8B
100
AcDbEntity
  8
FRONT
  6
Continuous
 62
     4
100
AcDbLine
 10
13.96527075091378
 20
4.193077603436552
 30
0.0
 11
14.05370990737933
 21
4.186900398182689
 31
0.0
  0
LINE
  5
B72
330
A8B
100
AcDbEntity
  8
FRONT
  6
Continuous
 62
     4
100
AcDbLine
 10
13.96527075091378
 20
4.193077603436552
 30
0.0
 11
13.903565927193
 21
4.308647770791533
 31
0.0
  0
LINE
  5
B73
330
A8B
100
AcDbEntity
  8
FRONT
  6
Continuous
 62
     4
100
AcDbLine
 10
15.248091543825
 20
4.037543166926568
 30
0.0
 11
15.26559078171205
 21
4.062698725899988
 31
0.0
  0
LINE
  5
B74
330
A8B
100
AcDbEntity
  8
FRONT
  6
Continuous
 62
     4
100
AcDbLine
 10
15.19095269576139
 20
4.18888472481321
 30
0.0
 11
15.10230670790777
 21
4.183313301931558
 31
0.0
  0
LINE
  5
B75
330
A8B
100
AcDbEntity
  8
FRONT
  6
Continuous
 62
     4
100
AcDbLine
 10
14.71128105223291
 20
4.474369018649596
 30
0.0
 11
14.76822961098702
 21
4.367707106841534
 31
0.0
  0
LINE
  5
B76
330
A8B
100
AcDbEntity
  8
FRONT
  6
Continuous
 62
     4
100
AcDbLine
 10
15.09864637409872
 20
4.302531580239758
 30
0.0
 11
15.12924787204065
 21
4.304454892168187
 31
0.0
  0
LINE
  5
B77
330
A8B
100
AcDbEntity
  8
FRONT
  6
Continuous
 62
     4
100
AcDbLine
 10
15.19095269576139
 20
4.18888472481321
 30
0.0
 11
15.12924787204065
 21
4.304454892168187
 31
0.0
  0
LINE
  5
B78
330
A8B
100
AcDbEntity
  8
FRONT
  6
Continuous
 62
     4
100
AcDbLine
 10
13.88468018453357
 20
3.851921520671986
 30
0.0
 11
13.82879362639822
 21
3.956594356394368
 31
0.0
  0
LINE
  5
B79
330
A8B
100
AcDbEntity
  8
FRONT
  6
Continuous
 62
     4
100
AcDbLine
 10
14.44227717851973
 20
4.461613941808328
 30
0.0
 11
14.38057235479898
 21
4.577184109163312
 31
0.0
  0
LINE
  5
B7A
330
A8B
100
AcDbEntity
  8
FRONT
  6
Continuous
 62
     4
100
AcDbLine
 10
14.67478420277406
 20
4.548934236990556
 30
0.0
 11
14.66175334302106
 21
4.576222230137708
 31
0.0
  0
LINE
  5
B7B
330
A8B
100
AcDbEntity
  8
FRONT
  6
Continuous
 62
     4
100
AcDbLine
 10
15.22782923901037
 20
3.55838735530968
 30
0.0
 11
15.21184500108873
 21
3.588325064231844
 31
0.0
  0
ELLIPSE
  5
B7C
330
A8B
100
AcDbEntity
  8
FRONT
  6
Continuous
 62
     4
100
AcDbEllipse
 10
14.57425026010683
 20
3.669923248444872
 30
0.0
 11
-0.5697208004759025
 21
-0.3041833576987884
 31
0.0
210
0.0
220
0.0
230
1.0
 40
0.9833059182803454
 41
3.141592653589792
 42
4.211497995854738
  0
ELLIPSE
  5
B7D
330
A8B
100
AcDbEntity
  8
FRONT
  6
Continuous
 62
     4
100
AcDbEllipse
 10
14.69467022705201
 20
5.328647265550291
 30
0.0
 11
-0.0012380506136597
 21
-0.0199616439988246
 31
0.0
210
0.0
220
0.0
230
1.0
 40
0.0966394604989199
 41
4.556861561911704
 42
5.60405911256103
  0
ELLIPSE
  5
B7E
330
A8B
100
AcDbEntity
  8
FRONT
  6
Continuous
 62
     4
100
AcDbEllipse
 10
15.13698707744814
 20
4.149555768557871
 30
0.0
 11
-0.1387163939545198
 21
-0.0740629769062388
 31
0.0
210
0.0
220
0.0
230
1.0
 40
0.983305918279537
 41
3.141592653589792
 42
4.278357181632673
  0
ELLIPSE
  5
B7F
330
A8B
100
AcDbEntity
  8
FRONT
  6
Continuous
 62
     4
100
AcDbEllipse
 10
14.56910786775645
 20
3.679554149551463
 30
0.0
 11
-0.5697232499858903
 21
-0.3041793370702448
 31
0.0
210
0.0
220
0.0
230
0.9999999999999998
 40
0.9833058533003276
 41
2.452122662756899
 42
2.51349782037308
  0
ELLIPSE
  5
B80
330
A8B
100
AcDbEntity
  8
FRONT
  6
Continuous
 62
     4
100
AcDbEllipse
 10
15.13698707744945
 20
4.149555768557799
 30
0.0
 11
-0.1387163939436924
 21
-0.0740629769240791
 31
0.0
210
0.0
220
0.0
230
1.0
 40
0.9833059182820004
 41
2.05024370739385
 42
3.141592653473066
  0
ELLIPSE
  5
B81
330
A8B
100
AcDbEntity
  8
FRONT
  6
Continuous
 62
     4
100
AcDbEllipse
 10
13.95207889255067
 20
4.038250081933183
 30
0.0
 11
-0.138716393954182
 21
-0.0740629769072034
 31
0.0
210
0.0
220
0.0
230
1.0
 40
0.9833059182793643
 41
4.144638809916375
 42
6.033222504441043
  0
ELLIPSE
  5
B82
330
A8B
100
AcDbEntity
  8
FRONT
  6
Continuous
 62
     4
100
AcDbEllipse
 10
14.50740336589031
 20
3.795124266565245
 30
0.0
 11
-0.6878480648487471
 21
-0.3672534576645039
 31
0.0
210
0.0
220
0.0
230
1.0
 40
0.9833059182825293
 41
3.364014017275521
 42
4.011784423528292
  0
ELLIPSE
  5
B83
330
A8B
100
AcDbEntity
  8
FRONT
  6
Continuous
 62
     4
100
AcDbEllipse
 10
15.19869190116777
 20
4.03398560119947
 30
0.0
 11
-0.1387163939305158
 21
-0.0740629769569428
 31
0.0
210
0.0
220
0.0
230
0.9999999999999998
 40
0.9833059182794855
 41
3.579055150075236
 42
4.278357181272085
  0
ELLIPSE
  5
B84
330
A8B
100
AcDbEntity
  8
FRONT
  6
Continuous
 62
     4
100
AcDbEllipse
 10
14.57425026010534
 20
3.669923248441066
 30
0.0
 11
-0.5697208004536415
 21
-0.3041833577478669
 31
0.0
210
0.0
220
0.0
230
1.0
 40
0.9833059182795919
 41
4.211497995770305
 42
5.916687780929657
  0
ELLIPSE
  5
B85
330
A8B
100
AcDbEntity
  8
FRONT
  6
Continuous
 62
     4
100
AcDbEllipse
 10
14.51995578064691
 20
4.508250739867492
 30
0.0
 11
-0.1387190760836097
 21
-0.074062710247625
 31
0.0
210
0.0
220
0.0
230
1.0
 40
0.9832989179835243
 41
3.097450943316431
 42
3.141602023580455
  0
ELLIPSE
  5
B86
330
A8B
100
AcDbEntity
  8
FRONT
  6
Continuous
 62
     4
100
AcDbEllipse
 10
14.51995778039392
 20
4.508251751292131
 30
0.0
 11
-0.1387163939537963
 21
-0.0740629769078515
 31
0.0
210
0.0
220
0.0
230
0.9999999999999998
 40
0.9833059182791126
 41
3.141592653589792
 42
5.325554732817813
  0
ELLIPSE
  5
B87
330
A8B
100
AcDbEntity
  8
FRONT
  6
Continuous
 62
     4
100
AcDbEllipse
 10
14.60429708204515
 20
3.613646995939661
 30
0.0
 11
-0.3532268962687824
 21
-0.1885936818296914
 31
0.0
210
0.0
220
0.0
230
1.0
 40
0.9833059182785307
 41
3.188548543609073
 42
4.2114979956971
  0
ELLIPSE
  5
B88
330
A8B
100
AcDbEntity
  8
FRONT
  6
Continuous
 62
     4
100
AcDbEllipse
 10
14.08380160591652
 20
4.540074528313537
 30
0.0
 11
-0.3164233418824987
 21
-0.1689436554341971
 31
0.0
210
0.0
220
0.0
230
1.0
 40
0.9833059182770933
 41
1.003046156315968
 42
2.183962079224543
  0
ELLIPSE
  5
B89
330
A8B
100
AcDbEntity
  8
FRONT
  6
Continuous
 62
     4
100
AcDbEllipse
 10
14.50740336587441
 20
3.795124266572471
 30
0.0
 11
-0.6878480647677431
 21
-0.3672534578178684
 31
0.0
210
0.0
220
0.0
230
1.0
 40
0.9833059182652659
 41
4.41121156824879
 42
5.058981974505009
  0
ELLIPSE
  5
B8A
330
A8B
100
AcDbEntity
  8
FRONT
  6
Continuous
 62
     4
100
AcDbEllipse
 10
14.58172285396982
 20
3.891878882787051
 30
0.0
 11
-1.289463505490718
 21
-0.6884658929129688
 31
0.0
210
0.0
220
0.0
230
1.0
 40
0.9833059182902299
 41
5.42507150311212
 42
5.993725673721996
  0
ELLIPSE
  5
B8B
330
A8B
100
AcDbEntity
  8
FRONT
  6
Continuous
 62
     4
100
AcDbEllipse
 10
13.97044885753497
 20
5.616005562204333
 30
0.0
 11
-0.0211384512596285
 21
-0.8497371156793303
 31
0.0
210
0.0
220
0.0
230
1.0
 40
0.1896634436923256
 41
1.168100390367426
 42
1.749625419812159
  0
ELLIPSE
  5
B8C
330
A8B
100
AcDbEntity
  8
FRONT
  6
Continuous
 62
     4
100
AcDbEllipse
 10
14.58166260411466
 20
4.392681583937155
 30
0.0
 11
-0.138716393954067
 21
-0.0740629769073293
 31
0.0
210
0.0
220
0.0
230
1.0
 40
0.9833059182794162
 41
3.353232323526823
 42
5.325554732821572
  0
ELLIPSE
  5
B8D
330
A8B
100
AcDbEntity
  8
FRONT
  6
Continuous
 62
     4
100
AcDbEllipse
 10
13.89037417432644
 20
4.153820311544767
 30
0.0
 11
-0.1387164275215775
 21
-0.0740631738835355
 31
0.0
210
0.0
220
0.0
230
1.0
 40
0.9833055364643515
 41
6.283184319510271
 42
6.372751261455347
  0
ELLIPSE
  5
B8E
330
A8B
100
AcDbEntity
  8
FRONT
  6
Continuous
 62
     4
100
AcDbEllipse
 10
14.50740336586205
 20
3.795124266556618
 30
0.0
 11
-0.6878480646011706
 21
-0.3672534581129616
 31
0.0
210
0.0
220
0.0
230
0.9999999999999998
 40
0.9833059182837756
 41
5.458409119012037
 42
6.053253327806824
  0
ELLIPSE
  5
B8F
330
A8B
100
AcDbEntity
  8
FRONT
  6
Continuous
 62
     4
100
AcDbEllipse
 10
14.58207327753735
 20
3.891222556444417
 30
0.0
 11
-1.314616796581824
 21
-0.7018956497286183
 31
0.0
210
0.0
220
0.0
230
1.0
 40
0.9833059182747907
 41
4.552187304562112
 42
5.292715336509727
  0
ELLIPSE
  5
B90
330
A8B
100
AcDbEntity
  8
FRONT
  6
Continuous
 62
     4
100
AcDbEllipse
 10
14.58688798533232
 20
3.646253396861238
 30
0.0
 11
-0.3532268962957501
 21
-0.1885936817720534
 31
0.0
210
0.0
220
0.0
230
1.0
 40
0.9833059182800568
 41
3.141592653589792
 42
4.211497995858031
  0
ELLIPSE
  5
B91
330
A8B
100
AcDbEntity
  8
FRONT
  6
Continuous
 62
     4
100
AcDbEllipse
 10
5.175521261857809
 20
0.522334779761014
 30
0.0
 11
-7.504621568768301
 21
-3.321134731786813
 31
0.0
210
0.0
220
0.0
230
1.0
 40
0.3415132900699109
 41
3.041715105904696
 42
3.07577658346799
  0
ELLIPSE
  5
B92
330
A8B
100
AcDbEntity
  8
FRONT
  6
Continuous
 62
     4
100
AcDbEllipse
 10
14.58688798535681
 20
3.646253396862427
 30
0.0
 11
-0.3532268961353468
 21
-0.1885936820254782
 31
0.0
210
0.0
220
0.0
230
1.0
 40
0.9833059183033368
 41
2.433542523355816
 42
3.141592652947553
  0
ELLIPSE
  5
B93
330
A8B
100
AcDbEntity
  8
FRONT
  6
Continuous
 62
     4
100
AcDbEllipse
 10
14.60429708204586
 20
3.613646995941261
 30
0.0
 11
-0.3532268962799985
 21
-0.1885936818057033
 31
0.0
210
0.0
220
0.0
230
1.0
 40
0.9833059182790311
 41
4.211497995764053
 42
5.866656694161925
  0
ELLIPSE
  5
B94
330
A8B
100
AcDbEntity
  8
FRONT
  6
Continuous
 62
     4
100
AcDbEllipse
 10
14.61409458346357
 20
3.831248190401323
 30
0.0
 11
-1.141300807144346
 21
-0.6093593764680999
 31
0.0
210
0.0
220
0.0
230
1.0
 40
0.9833059182778084
 41
4.21149799575997
 42
5.305260955205677
  0
ELLIPSE
  5
B95
330
A8B
100
AcDbEntity
  8
FRONT
  6
Continuous
 62
     4
100
AcDbEllipse
 10
14.58172613529574
 20
3.891872737174622
 30
0.0
 11
-1.2898928947353
 21
-0.6886951495342341
 31
0.0
210
0.0
220
0.0
230
0.9999999999999998
 40
0.9833059182785364
 41
4.211497995763918
 42
5.292715336570157
  0
ELLIPSE
  5
B96
330
A8B
100
AcDbEntity
  8
FRONT
  6
Continuous
 62
     4
100
AcDbEllipse
 10
14.56910818960469
 20
3.679554099198936
 30
0.0
 11
-0.5697208004516448
 21
-0.3041833577510329
 31
0.0
210
0.0
220
0.0
230
0.9999999999999998
 40
0.9833059182790732
 41
4.211497995764176
 42
5.932188545061793
  0
ELLIPSE
  5
B97
330
A8B
100
AcDbEntity
  8
FRONT
  6
Continuous
 62
     4
100
AcDbEllipse
 10
12.57015373105181
 20
5.400676431794027
 30
0.0
 11
-0.2869743301033756
 21
0.8000910781621206
 31
0.0
210
0.0
220
0.0
230
0.9999999999999998
 40
0.1844576932552187
 41
4.318012958595913
 42
4.737148911237754
  0
ELLIPSE
  5
B98
330
A8B
100
AcDbEntity
  8
FRONT
  6
Continuous
 62
     4
100
AcDbEllipse
 10
14.50740336588399
 20
3.79512426655381
 30
0.0
 11
-0.8808790105358404
 21
-0.4703158722400647
 31
0.0
210
0.0
220
0.0
230
1.0
 40
0.9833059182791467
 41
2.390668816843747
 42
5.988551940869403
  0
ELLIPSE
  5
B99
330
A8B
100
AcDbEntity
  8
FRONT
  6
Continuous
 62
     4
100
AcDbEllipse
 10
14.76472077294693
 20
5.467799863486598
 30
0.0
 11
-0.2364016993902184
 21
-0.8164644729534451
 31
0.0
210
0.0
220
0.0
230
0.9999999999999998
 40
0.1280545533618557
 41
1.440078277354396
 42
1.815854610802254
  0
ELLIPSE
  5
B9A
330
A8B
100
AcDbEntity
  8
FRONT
  6
Continuous
 62
     4
100
AcDbEllipse
 10
14.58257986552555
 20
3.890273741520238
 30
0.0
 11
-1.274184406513254
 21
-0.6803081277927215
 31
0.0
210
0.0
220
0.0
230
0.9999999999999998
 40
0.9833059182784806
 41
5.425071504014952
 42
5.994214383758207
  0
ELLIPSE
  5
B9B
330
A8B
100
AcDbEntity
  8
FRONT
  6
Continuous
 62
     4
100
AcDbEllipse
 10
13.78292511660905
 20
5.616499995611142
 30
0.0
 11
-0.0163260565688646
 21
0.8498431972198538
 31
0.0
210
0.0
220
0.0
230
1.0
 40
0.1967958030989425
 41
4.311714536223274
 42
4.876679898782334
  0
ELLIPSE
  5
B9C
330
A8B
100
AcDbEntity
  8
FRONT
  6
Continuous
 62
     4
100
AcDbEllipse
 10
14.50740336587235
 20
3.795124266552682
 30
0.0
 11
-0.6878480648432717
 21
-0.3672534577212541
 31
0.0
210
0.0
220
0.0
230
1.0
 40
0.9833059182736951
 41
2.316816466017689
 42
2.964586872260165
  0
ELLIPSE
  5
B9D
330
A8B
100
AcDbEntity
  8
FRONT
  6
Continuous
 62
     4
100
AcDbEllipse
 10
14.56910818960365
 20
3.679554099196997
 30
0.0
 11
-0.5697208004383743
 21
-0.3041833577798674
 31
0.0
210
0.0
220
0.0
230
0.9999999999999998
 40
0.9833059182783683
 41
3.141592653589792
 42
4.211497995714275
  0
ELLIPSE
  5
B9E
330
A8B
100
AcDbEntity
  8
FRONT
  6
Continuous
 62
     4
100
AcDbEllipse
 10
14.61736004955248
 20
5.312895778975766
 30
0.0
 11
-0.0004109759370388
 21
-0.119983668084697
 31
0.0
210
0.0
220
0.0
230
0.9999999999999998
 40
0.0873685432136738
 41
4.487162694202337
 42
4.526241732837313
  0
ELLIPSE
  5
B9F
330
A8B
100
AcDbEntity
  8
FRONT
  6
Continuous
 62
     4
100
AcDbEllipse
 10
14.56910819127553
 20
3.679554099860636
 30
0.0
 11
-0.5697207959968914
 21
-0.3041833623035364
 31
0.0
210
0.0
220
0.0
230
1.0
 40
0.9833059196149559
 41
2.938742608956589
 42
3.141592644282478
  0
ELLIPSE
  5
BA0
330
A8B
100
AcDbEntity
  8
FRONT
  6
Continuous
 62
     4
100
AcDbEllipse
 10
15.08465295287089
 20
4.536650762276023
 30
0.0
 11
-0.3164233418788596
 21
-0.1689436554438716
 31
0.0
210
0.0
220
0.0
230
0.9999999999999998
 40
0.9833059182783118
 41
0.0
 42
1.136764527997375
  0
ELLIPSE
  5
BA1
330
A8B
100
AcDbEntity
  8
FRONT
  6
Continuous
 62
     4
100
AcDbEllipse
 10
14.58258259988541
 20
3.890268620186363
 30
0.0
 11
-1.274168156721289
 21
-0.6802994518514309
 31
0.0
210
0.0
220
0.0
230
0.9999999999999998
 40
0.9833059182777518
 41
4.211497995758451
 42
5.292715337516465
  0
ELLIPSE
  5
BA2
330
A8B
100
AcDbEntity
  8
FRONT
  6
Continuous
 62
     4
100
AcDbEllipse
 10
13.89037406882998
 20
4.153820249288088
 30
0.0
 11
-0.1387163939551331
 21
-0.0740629769055295
 31
0.0
210
0.0
220
0.0
230
0.9999999999999998
 40
0.9833059182795551
 41
4.144638809929066
 42
6.283185307179584
  0
ELLIPSE
  5
BA3
330
A8B
100
AcDbEntity
  8
FRONT
  6
Continuous
 62
     4
100
AcDbEllipse
 10
13.56825684262709
 20
3.682977865236207
 30
0.0
 11
-0.3164233420262994
 21
-0.1689436552114316
 31
0.0
210
0.0
220
0.0
230
0.9999999999999998
 40
0.983305918256555
 41
2.372365793430125
 42
3.141592654310951
  0
ELLIPSE
  5
BA4
330
A8B
100
AcDbEntity
  8
FRONT
  6
Continuous
 62
     4
100
AcDbEllipse
 10
14.5868879853312
 20
3.646253396859196
 30
0.0
 11
-0.3532268962794111
 21
-0.1885936818066905
 31
0.0
210
0.0
220
0.0
230
1.0
 40
0.9833059182788758
 41
4.211497995761056
 42
5.951301366806
  0
SPLINE
  5
BA5
330
A8B
100
AcDbEntity
  8
FRONT
  6
Continuous
 62
     4
100
AcDbSpline
210
0.0
220
0.0
230
1.0
 70
    24
 71
     1
 72
     4
 73
     2
 74
     0
 42
0.0000000001
 43
0.0000000001
 40
0.0
 40
0.0
 40
1.0
 40
1.0
 10
14.69249519034973
 20
5.313189824235679
 30
0.0
 10
14.60768112625891
 20
5.315938369092338
 30
0.0
  0
SPLINE
  5
BA6
330
A8B
100
AcDbEntity
  8
FRONT
  6
Continuous
 62
     4
100
AcDbSpline
210
0.0
220
0.0
230
1.0
 70
    24
 71
     1
 72
     4
 73
     2
 74
     0
 42
0.0000000001
 43
0.0000000001
 40
0.0
 40
0.0
 40
1.0
 40
1.0
 10
14.83756674726533
 20
5.331362856545028
 30
0.0
 10
14.68992440208029
 20
5.336837850675596
 30
0.0
  0
SPLINE
  5
BA7
330
A8B
100
AcDbEntity
  8
FRONT
  6
Continuous
 62
     4
100
AcDbSpline
210
0.0
220
0.0
230
1.0
 70
    24
 71
     1
 72
     4
 73
     2
 74
     0
 42
0.0000000001
 43
0.0000000001
 40
0.0
 40
0.0
 40
1.0
 40
1.0
 10
12.81667247474081
 20
5.142126865126981
 30
0.0
 10
12.502260809944
 20
5.038954222702708
 30
0.0
  0
SPLINE
  5
BA8
330
A8B
100
AcDbEntity
  8
FRONT
  6
Continuous
 62
     4
100
AcDbSpline
210
0.0
220
0.0
230
1.0
 70
     8
 71
     2
 72
     6
 73
     3
 74
     0
 42
0.0000000001
 43
0.0000000001
 40
0.0
 40
0.0
 40
0.0
 40
1.0
 40
1.0
 40
1.0
 10
13.94329233751025
 20
5.287986048440243
 30
0.0
 10
13.36904800632871
 20
5.308177948949881
 30
0.0
 10
12.81667247474081
 20
5.142126865127038
 30
0.0
  0
SPLINE
  5
BA9
330
A8B
100
AcDbEntity
  8
FRONT
  6
Continuous
 62
     4
100
AcDbSpline
210
0.0
220
0.0
230
1.0
 70
     8
 71
     3
 72
    11
 73
     7
 74
     0
 42
0.0000000001
 43
0.0000000001
 40
0.0
 40
0.0
 40
0.0
 40
0.0
 40
0.2500000000004002
 40
0.5000000000000384
 40
0.7500000000002445
 40
1.0
 40
1.0
 40
1.0
 40
1.0
 10
13.24329890969342
 20
4.393410854946448
 30
0.0
 10
13.24233341373558
 20
4.393971351428181
 30
0.0
 10
13.24014478598936
 20
4.395146401648325
 30
0.0
 10
13.23597462327683
 20
4.397127664258944
 30
0.0
 10
13.23126018027509
 20
4.399158067618833
 30
0.0
 10
13.22803724322823
 20
4.400426501220721
 30
0.0
 10
13.22638220773661
 20
4.401049253290286
 30
0.0
  0
SPLINE
  5
BAA
330
A8B
100
AcDbEntity
  8
FRONT
  6
Continuous
 62
     4
100
AcDbSpline
210
0.0
220
0.0
230
1.0
 70
    24
 71
     1
 72
     4
 73
     2
 74
     0
 42
0.0000000001
 43
0.0000000001
 40
0.0
 40
0.0
 40
1.0
 40
1.0
 10
14.13280283862451
 20
5.763209387832385
 30
0.0
 10
14.60909340460244
 20
5.711114127719043
 30
0.0
  0
SPLINE
  5
BAB
330
A8B
100
AcDbEntity
  8
FRONT
  6
Continuous
 62
     4
100
AcDbSpline
210
0.0
220
0.0
230
1.0
 70
    24
 71
     1
 72
     4
 73
     2
 74
     0
 42
0.0000000001
 43
0.0000000001
 40
0.0
 40
0.0
 40
1.0
 40
1.0
 10
14.6090865051094
 20
5.711625498686736
 30
0.0
 10
14.92350318018168
 20
5.636516777042869
 30
0.0
  0
SPLINE
  5
BAC
330
A8B
100
AcDbEntity
  8
FRONT
  6
Continuous
 62
     4
100
AcDbSpline
210
0.0
220
0.0
230
1.0
 70
    24
 71
     1
 72
     4
 73
     2
 74
     0
 42
0.0000000001
 43
0.0000000001
 40
0.0
 40
0.0
 40
1.0
 40
1.0
 10
14.70338694437526
 20
4.489896482910467
 30
0.0
 10
14.71097785761778
 20
4.474938976988299
 30
0.0
  0
SPLINE
  5
BAD
330
A8B
100
AcDbEntity
  8
FRONT
  6
Continuous
 62
     4
100
AcDbSpline
210
0.0
220
0.0
230
1.0
 70
    24
 71
     1
 72
     4
 73
     2
 74
     0
 42
0.0000000001
 43
0.0000000001
 40
0.0
 40
0.0
 40
1.0
 40
1.0
 10
13.94524870938069
 20
5.758663903675718
 30
0.0
 10
13.94849591684476
 20
5.910374238520851
 30
0.0
  0
SPLINE
  5
BAE
330
A8B
100
AcDbEntity
  8
FRONT
  6
Continuous
 62
     4
100
AcDbSpline
210
0.0
220
0.0
230
1.0
 70
     8
 71
     3
 72
    27
 73
    23
 74
     0
 42
0.0000000001
 43
0.0000000001
 40
0.0
 40
0.0
 40
0.0
 40
0.0
 40
0.2366252197469015
 40
0.5011857703755036
 40
0.6170954909511118
 40
0.6813809129738626
 40
0.7150700700809978
 40
0.7322963567034382
 40
0.7410042896839962
 40
0.7453818723743754
 40
0.7475765575058172
 40
0.7486753722519263
 40
0.7492251475017373
 40
0.7495001270756441
 40
0.7496376398473227
 40
0.7497064019790262
 40
0.7497407844813077
 40
0.7497751679411861
 40
0.7516543580812576
 40
0.7684406215659994
 40
0.8166950275236356
 40
1.0
 40
1.0
 40
1.0
 40
1.0
 10
14.60909339101644
 20
5.711114124413491
 30
0.0
 10
14.60948781698238
 20
5.682031763659281
 30
0.0
 10
14.61005082917718
 20
5.620220915826541
 30
0.0
 10
14.61001311662804
 20
5.543096055524626
 30
0.0
 10
14.60961852963504
 20
5.487687827984436
 30
0.0
 10
14.60933943853557
 20
5.461104315057176
 30
0.0
 10
14.60916381097548
 20
5.446814350617032
 30
0.0
 10
14.60906622380328
 20
5.439426844543143
 30
0.0
 10
14.60901490310633
 20
5.435673462883298
 30
0.0
 10
14.60898860047587
 20
5.4337819906927
 30
0.0
 10
14.60897045899501
 20
5.432493419559841
 30
0.0
 10
14.60896905688914
 20
5.432393429389828
 30
0.0
 10
14.60896765478331
 20
5.432293439219815
 30
0.0
 10
14.60896625267744
 20
5.432193449049803
 30
0.0
 10
14.6089648505716
 20
5.43209345887979
 30
0.0
 10
14.60896344846577
 20
5.431993468709777
 30
0.0
 10
14.60896204635992
 20
5.431893478539761
 30
0.0
 10
14.60895863749725
 20
5.431652428828829
 30
0.0
 10
14.60892682016698
 20
5.429338529498513
 30
0.0
 10
14.60881020481483
 20
5.421061993311028
 30
0.0
 10
14.6083339813956
 20
5.390397134061578
 30
0.0
 10
14.60776482101609
 20
5.362037547077322
 30
0.0
 10
14.60723379104669
 20
5.339726363785728
 30
0.0
  0
SPLINE
  5
BAF
330
A8B
100
AcDbEntity
  8
FRONT
  6
Continuous
 62
     4
100
AcDbSpline
210
0.0
220
0.0
230
1.0
 70
    24
 71
     1
 72
     4
 73
     2
 74
     0
 42
0.0000000001
 43
0.0000000001
 40
0.0
 40
0.0
 40
1.0
 40
1.0
 10
13.77533931878937
 20
4.042581236833521
 30
0.0
 10
13.81073371171078
 20
3.987366922169501
 30
0.0
  0
SPLINE
  5
BB0
330
A8B
100
AcDbEntity
  8
FRONT
  6
Continuous
 62
     4
100
AcDbSpline
210
0.0
220
0.0
230
1.0
 70
    24
 71
     1
 72
     4
 73
     2
 74
     0
 42
0.0000000001
 43
0.0000000001
 40
0.0
 40
0.0
 40
1.0
 40
1.0
 10
15.248091543825
 20
4.037543166926567
 30
0.0
 10
15.21878522660067
 20
3.982550183926618
 30
0.0
  0
SPLINE
  5
BB1
330
A8B
100
AcDbEntity
  8
FRONT
  6
Continuous
 62
     4
100
AcDbSpline
210
0.0
220
0.0
230
1.0
 70
     8
 71
     3
 72
    13
 73
     9
 74
     0
 42
0.0000000001
 43
0.0000000001
 40
0.0
 40
0.0
 40
0.0
 40
0.0
 40
0.2195179240467221
 40
0.3900257003637577
 40
0.5330606690638802
 40
0.6760211201067881
 40
0.8783846008238288
 40
1.0
 40
1.0
 40
1.0
 40
1.0
 10
13.99589107417438
 20
4.295192292184528
 30
0.0
 10
14.02503990650797
 20
4.289018514220859
 30
0.0
 10
14.07813545040565
 20
4.286623059621509
 30
0.0
 10
14.15671911404191
 20
4.301478243787753
 30
0.0
 10
14.22171844805865
 20
4.332770470360475
 30
0.0
 10
14.28033457719675
 20
4.380945161854135
 30
0.0
 10
14.3195727746653
 20
4.436285674998737
 30
0.0
 10
14.33825358880528
 20
4.475847256447877
 30
0.0
 10
14.3439322300138
 20
4.491126124902221
 30
0.0
  0
SPLINE
  5
BB2
330
A8B
100
AcDbEntity
  8
FRONT
  6
Continuous
 62
     4
100
AcDbSpline
210
0.0
220
0.0
230
1.0
 70
    24
 71
     1
 72
     4
 73
     2
 74
     0
 42
0.0000000001
 43
0.0000000001
 40
0.0
 40
0.0
 40
1.0
 40
1.0
 10
14.67478420277406
 20
4.548934236990556
 30
0.0
 10
14.70338694437526
 20
4.489896482910471
 30
0.0
  0
SPLINE
  5
BB3
330
A8B
100
AcDbEntity
  8
FRONT
  6
Continuous
 62
     4
100
AcDbSpline
210
0.0
220
0.0
230
1.0
 70
     8
 71
     3
 72
    11
 73
     7
 74
     0
 42
0.0000000001
 43
0.0000000001
 40
0.0
 40
0.0
 40
0.0
 40
0.0
 40
0.2500000000000269
 40
0.5000000000000613
 40
0.749999999999787
 40
1.0
 40
1.0
 40
1.0
 40
1.0
 10
13.32453443224985
 20
4.565040025424456
 30
0.0
 10
13.32359602231685
 20
4.565724324465811
 30
0.0
 10
13.3214696827018
 20
4.567186493161131
 30
0.0
 10
13.31741499243888
 20
4.569735924742813
 30
0.0
 10
13.31284498611547
 20
4.572415134760538
 30
0.0
 10
13.30974180656181
 20
4.574123313175141
 30
0.0
 10
13.30815217000305
 20
4.574971618696021
 30
0.0
  0
SPLINE
  5
BB4
330
A8B
100
AcDbEntity
  8
FRONT
  6
Continuous
 62
     4
100
AcDbSpline
210
0.0
220
0.0
230
1.0
 70
     8
 71
     2
 72
     6
 73
     3
 74
     0
 42
0.0000000001
 43
0.0000000001
 40
0.0
 40
0.0
 40
0.0
 40
1.0
 40
1.0
 40
1.0
 10
13.22638220773663
 20
4.401049253290271
 30
0.0
 10
13.2613789349715
 20
4.490908928155922
 30
0.0
 10
13.308152170003
 20
4.574971618696058
 30
0.0
  0
SPLINE
  5
BB5
330
A8B
100
AcDbEntity
  8
FRONT
  6
Continuous
 62
     4
100
AcDbSpline
210
0.0
220
0.0
230
1.0
 70
    24
 71
     1
 72
     4
 73
     2
 74
     0
 42
0.0000000001
 43
0.0000000001
 40
0.0
 40
0.0
 40
1.0
 40
1.0
 10
13.80267447603256
 20
3.591914630017021
 30
0.0
 10
13.80379348619884
 20
3.593141802474727
 30
0.0
  0
SPLINE
  5
BB6
330
A8B
100
AcDbEntity
  8
FRONT
  6
Continuous
 62
     4
100
AcDbSpline
210
0.0
220
0.0
230
1.0
 70
    24
 71
     1
 72
     4
 73
     2
 74
     0
 42
0.0000000001
 43
0.0000000001
 40
0.0
 40
0.0
 40
1.0
 40
1.0
 10
14.60909339101634
 20
5.711114124413048
 30
0.0
 10
14.6090865051094
 20
5.711625498686736
 30
0.0
  0
SPLINE
  5
BB7
330
A8B
100
AcDbEntity
  8
FRONT
  6
Continuous
 62
     4
100
AcDbSpline
210
0.0
220
0.0
230
1.0
 70
    24
 71
     1
 72
     4
 73
     2
 74
     0
 42
0.0000000001
 43
0.0000000001
 40
0.0
 40
0.0
 40
1.0
 40
1.0
 10
14.60713440708852
 20
5.335136932445034
 30
0.0
 10
14.69295620412083
 20
5.331857548057461
 30
0.0
  0
SPLINE
  5
BB8
330
A8B
100
AcDbEntity
  8
FRONT
  6
Continuous
 62
     4
100
AcDbSpline
210
0.0
220
0.0
230
1.0
 70
     8
 71
     3
 72
    13
 73
     9
 74
     0
 42
0.0000000001
 43
0.0000000001
 40
0.0
 40
0.0
 40
0.0
 40
0.0
 40
0.1870906036410149
 40
0.3646813612908705
 40
0.5136542261935185
 40
0.6625496942781221
 40
0.8732997954630318
 40
1.0
 40
1.0
 40
1.0
 40
1.0
 10
14.71097785761778
 20
4.474938976988299
 30
0.0
 10
14.72258946069355
 20
4.452117336803171
 30
0.0
 10
14.75023929494702
 20
4.410179915390369
 30
0.0
 10
14.80309030761751
 20
4.354724829831821
 30
0.0
 10
14.86319833542792
 20
4.314941243102536
 30
0.0
 10
14.93091957239508
 20
4.289394301276414
 30
0.0
 10
14.99207346962869
 20
4.284228893684812
 30
0.0
 10
15.03052376342849
 20
4.28859592198095
 30
0.0
 10
15.04448787470278
 20
4.291605195933395
 30
0.0
  0
SPLINE
  5
BB9
330
A8B
100
AcDbEntity
  8
FRONT
  6
Continuous
 62
     4
100
AcDbSpline
210
0.0
220
0.0
230
1.0
 70
    24
 71
     1
 72
     4
 73
     2
 74
     0
 42
0.0000000001
 43
0.0000000001
 40
0.0
 40
0.0
 40
1.0
 40
1.0
 10
14.36658232700411
 20
4.549988550519461
 30
0.0
 10
14.3439322300138
 20
4.491126124902221
 30
0.0
  0
SPLINE
  5
BBA
330
A8B
100
AcDbEntity
  8
FRONT
  6
Continuous
 62
     4
100
AcDbSpline
210
0.0
220
0.0
230
1.0
 70
    24
 71
     1
 72
     4
 73
     2
 74
     0
 42
0.0000000001
 43
0.0000000001
 40
0.0
 40
0.0
 40
1.0
 40
1.0
 10
12.81667247474081
 20
5.142126865126981
 30
0.0
 10
13.28408820193523
 20
4.587414672117768
 30
0.0
  0
SPLINE
  5
BBB
330
A8B
100
AcDbEntity
  8
FRONT
  6
Continuous
 62
     4
100
AcDbSpline
210
0.0
220
0.0
230
1.0
 70
    24
 71
     1
 72
     4
 73
     2
 74
     0
 42
0.0000000001
 43
0.0000000001
 40
0.0
 40
0.0
 40
1.0
 40
1.0
 10
14.68992440208029
 20
5.336837850675596
 30
0.0
 10
14.60723379104648
 20
5.339726363791863
 30
0.0
  0
SPLINE
  5
BBC
330
A8B
100
AcDbEntity
  8
FRONT
  6
Continuous
 62
     4
100
AcDbSpline
210
0.0
220
0.0
230
1.0
 70
    24
 71
     1
 72
     4
 73
     2
 74
     0
 42
0.0000000001
 43
0.0000000001
 40
0.0
 40
0.0
 40
1.0
 40
1.0
 10
13.934096024833
 20
4.306515336617805
 30
0.0
 10
13.99589107417434
 20
4.295192292184527
 30
0.0
  0
SPLINE
  5
BBD
330
A8B
100
AcDbEntity
  8
FRONT
  6
Continuous
 62
     4
100
AcDbSpline
210
0.0
220
0.0
230
1.0
 70
    24
 71
     1
 72
     4
 73
     2
 74
     0
 42
0.0000000001
 43
0.0000000001
 40
0.0
 40
0.0
 40
1.0
 40
1.0
 10
13.82870159920979
 20
3.956766489145926
 30
0.0
 10
13.81073371171078
 20
3.987366922169501
 30
0.0
  0
SPLINE
  5
BBE
330
A8B
100
AcDbEntity
  8
FRONT
  6
Continuous
 62
     4
100
AcDbSpline
210
0.0
220
0.0
230
1.0
 70
    24
 71
     1
 72
     4
 73
     2
 74
     0
 42
0.0000000001
 43
0.0000000001
 40
0.0
 40
0.0
 40
1.0
 40
1.0
 10
15.12498870412169
 20
5.250072189631183
 30
0.0
 10
14.83756674726533
 20
5.331362856545028
 30
0.0
  0
SPLINE
  5
BBF
330
A8B
100
AcDbEntity
  8
FRONT
  6
Continuous
 62
     4
100
AcDbSpline
210
0.0
220
0.0
230
1.0
 70
    24
 71
     1
 72
     4
 73
     2
 74
     0
 42
0.0000000001
 43
0.0000000001
 40
0.0
 40
0.0
 40
1.0
 40
1.0
 10
14.60613712230153
 20
5.930601946215412
 30
0.0
 10
13.9484959168259
 20
5.910374237639897
 30
0.0
  0
SPLINE
  5
BC0
330
A8B
100
AcDbEntity
  8
FRONT
  6
Continuous
 62
     4
100
AcDbSpline
210
0.0
220
0.0
230
1.0
 70
     8
 71
     3
 72
    13
 73
     9
 74
     0
 42
0.0000000001
 43
0.0000000001
 40
0.0
 40
0.0
 40
0.0
 40
0.0
 40
0.2347537562056165
 40
0.4839866866904262
 40
0.5952214255276555
 40
0.7119727950652918
 40
0.96740910102467
 40
1.0
 40
1.0
 40
1.0
 40
1.0
 10
13.28408820191653
 20
4.587414672136794
 30
0.0
 10
13.25012566103997
 20
4.527227778404608
 30
0.0
 10
13.16675985793541
 20
4.419327616560915
 30
0.0
 10
13.02099432060977
 20
4.324734681857226
 30
0.0
 10
12.89482138585317
 20
4.276802417204223
 30
0.0
 10
12.76176035094723
 20
4.247019780138493
 30
0.0
 10
12.64742901726418
 20
4.245333565339181
 30
0.0
 10
12.56818868716331
 20
4.25379454225212
 30
0.0
 10
12.55922715270803
 20
4.25489452478367
 30
0.0
  0
SPLINE
  5
BC1
330
A8B
100
AcDbEntity
  8
FRONT
  6
Continuous
 62
     4
100
AcDbSpline
210
0.0
220
0.0
230
1.0
 70
    24
 71
     1
 72
     4
 73
     2
 74
     0
 42
0.0000000001
 43
0.0000000001
 40
0.0
 40
0.0
 40
1.0
 40
1.0
 10
15.19781587154303
 20
3.611548393029448
 30
0.0
 10
15.21184500108873
 20
3.588325064231846
 30
0.0
  0
SPLINE
  5
BC2
330
A8B
100
AcDbEntity
  8
FRONT
  6
Continuous
 62
     4
100
AcDbSpline
210
0.0
220
0.0
230
1.0
 70
     8
 71
     3
 72
    13
 73
     9
 74
     0
 42
0.0000000001
 43
0.0000000001
 40
0.0
 40
0.0
 40
0.0
 40
0.0
 40
0.2396506614303369
 40
0.4258576417570409
 40
0.5820550163389703
 40
0.7381714217428096
 40
0.9591299429654435
 40
1.0
 40
1.0
 40
1.0
 40
1.0
 10
13.80379348619884
 20
3.593141802474731
 30
0.0
 10
13.82192418679251
 20
3.611675128293107
 30
0.0
 10
13.84805114611859
 20
3.651068053755462
 30
0.0
 10
13.87223513902732
 20
3.72087154530691
 30
0.0
 10
13.87761343104861
 20
3.791029577212136
 30
0.0
 10
13.86710343122898
 20
3.867335533638517
 30
0.0
 10
13.84678182979217
 20
3.921569727755633
 30
0.0
 10
13.83122577128982
 20
3.952077271441022
 30
0.0
 10
13.82870159920979
 20
3.956766489145926
 30
0.0
  0
SPLINE
  5
BC3
330
A8B
100
AcDbEntity
  8
FRONT
  6
Continuous
 62
     4
100
AcDbSpline
210
0.0
220
0.0
230
1.0
 70
    24
 71
     1
 72
     4
 73
     2
 74
     0
 42
0.0000000001
 43
0.0000000001
 40
0.0
 40
0.0
 40
1.0
 40
1.0
 10
13.32453443224985
 20
4.565040025424456
 30
0.0
 10
13.24329890969339
 20
4.393410854946447
 30
0.0
  0
SPLINE
  5
BC4
330
A8B
100
AcDbEntity
  8
FRONT
  6
Continuous
 62
     4
100
AcDbSpline
210
0.0
220
0.0
230
1.0
 70
    24
 71
     1
 72
     4
 73
     2
 74
     0
 42
0.0000000001
 43
0.0000000001
 40
0.0
 40
0.0
 40
1.0
 40
1.0
 10
14.11043689694178
 20
5.279305060039821
 30
0.0
 10
13.94329233739435
 20
5.287986047480941
 30
0.0
  0
SPLINE
  5
BC5
330
A8B
100
AcDbEntity
  8
FRONT
  6
Continuous
 62
     4
100
AcDbSpline
210
0.0
220
0.0
230
1.0
 70
     8
 71
     3
 72
    11
 73
     7
 74
     0
 42
0.0000000001
 43
0.0000000001
 40
0.0
 40
0.0
 40
0.0
 40
0.0
 40
0.1281905622924043
 40
0.421624799894869
 40
0.7263899413642454
 40
1.0
 40
1.0
 40
1.0
 40
1.0
 10
12.73853609935463
 20
3.667760942170496
 30
0.0
 10
12.76672223532988
 20
3.693449167011665
 30
0.0
 10
12.85617813617569
 20
3.780688567568847
 30
0.0
 10
12.99312764578302
 20
3.948243292988441
 30
0.0
 10
13.12308988273993
 20
4.171774666937092
 30
0.0
 10
13.19571953861603
 20
4.326067837016096
 30
0.0
 10
13.2263821747769
 20
4.401049180529136
 30
0.0
  0
SPLINE
  5
BC6
330
A8B
100
AcDbEntity
  8
FRONT
  6
Continuous
 62
     4
100
AcDbSpline
210
0.0
220
0.0
230
1.0
 70
    24
 71
     1
 72
     4
 73
     2
 74
     0
 42
0.0000000001
 43
0.0000000001
 40
0.0
 40
0.0
 40
1.0
 40
1.0
 10
15.23230844269541
 20
3.558198880030201
 30
0.0
 10
15.21184500108873
 20
3.588325064231844
 30
0.0
  0
SPLINE
  5
BC7
330
A8B
100
AcDbEntity
  8
FRONT
  6
Continuous
 62
     4
100
AcDbSpline
210
0.0
220
0.0
230
1.0
 70
     8
 71
     2
 72
     6
 73
     3
 74
     0
 42
0.0000000001
 43
0.0000000001
 40
0.0
 40
0.0
 40
0.0
 40
1.0
 40
1.0
 40
1.0
 10
14.60723379104669
 20
5.339726363785726
 30
0.0
 10
14.35457942540308
 20
5.348825046804551
 30
0.0
 10
14.11043689694178
 20
5.279305060039821
 30
0.0
  0
SPLINE
  5
BC8
330
A8B
100
AcDbEntity
  8
FRONT
  6
Continuous
 62
     4
100
AcDbSpline
210
0.0
220
0.0
230
1.0
 70
    24
 71
     1
 72
     4
 73
     2
 74
     0
 42
0.0000000001
 43
0.0000000001
 40
0.0
 40
0.0
 40
1.0
 40
1.0
 10
13.94524848483674
 20
5.758663915957267
 30
0.0
 10
14.13280283862451
 20
5.763209387832385
 30
0.0
  0
SPLINE
  5
BC9
330
A8B
100
AcDbEntity
  8
FRONT
  6
Continuous
 62
     4
100
AcDbSpline
210
0.0
220
0.0
230
1.0
 70
    24
 71
     1
 72
     4
 73
     2
 74
     0
 42
0.0000000001
 43
0.0000000001
 40
0.0
 40
0.0
 40
1.0
 40
1.0
 10
13.31078889119694
 20
4.573561762749701
 30
0.0
 10
13.28408820191651
 20
4.587414672136792
 30
0.0
  0
SPLINE
  5
BCA
330
A8B
100
AcDbEntity
  8
FRONT
  6
Continuous
 62
     4
100
AcDbSpline
210
0.0
220
0.0
230
1.0
 70
     8
 71
     3
 72
    10
 73
     6
 74
     0
 42
0.0000000001
 43
0.0000000001
 40
0.0
 40
0.0
 40
0.0
 40
0.0
 40
0.4926947242044152
 40
0.9999538112423723
 40
1.0
 40
1.0
 40
1.0
 40
1.0
 10
12.71058671127498
 20
5.473403005394001
 30
0.0
 10
12.90547943076539
 20
5.555788825541005
 30
0.0
 10
13.30796995905596
 20
5.686507873440067
 30
0.0
 10
13.73025717117942
 20
5.748973858563186
 30
0.0
 10
13.94514876776342
 20
5.758657162767132
 30
0.0
 10
13.94524866639153
 20
5.758661664333676
 30
0.0
  0
SPLINE
  5
BCB
330
A8B
100
AcDbEntity
  8
FRONT
  6
Continuous
 62
     4
100
AcDbSpline
210
0.0
220
0.0
230
1.0
 70
     8
 71
     2
 72
     6
 73
     3
 74
     0
 42
0.0000000001
 43
0.0000000001
 40
0.0
 40
0.0
 40
0.0
 40
1.0
 40
1.0
 40
1.0
 10
12.55931172980702
 20
4.254879951245562
 30
0.0
 10
12.58336828364422
 20
4.198188936261384
 30
0.0
 10
12.61302558883277
 20
4.142652858215962
 30
0.0
  0
SPLINE
  5
BCC
330
A8B
100
AcDbEntity
  8
FRONT
  6
Continuous
 62
     4
100
AcDbSpline
210
0.0
220
0.0
230
1.0
 70
     8
 71
     3
 72
    11
 73
     7
 74
     0
 42
0.0000000001
 43
0.0000000001
 40
0.0
 40
0.0
 40
0.0
 40
0.0
 40
0.3213498426608201
 40
0.6577811939102644
 40
0.9998827329771151
 40
1.0
 40
1.0
 40
1.0
 40
1.0
 10
12.61302558883341
 20
4.142652858218689
 30
0.0
 10
12.63661235923142
 20
4.096595077435821
 30
0.0
 10
12.67812392222471
 20
3.999067509734118
 30
0.0
 10
12.71731265817428
 20
3.837886834830852
 30
0.0
 10
12.73306739599114
 20
3.725263586159053
 30
0.0
 10
12.7384250930861
 20
3.668060358493228
 30
0.0
 10
12.73843441834863
 20
3.667960794245231
 30
0.0
  0
SPLINE
  5
BCD
330
A8B
100
AcDbEntity
  8
FRONT
  6
Continuous
 62
     4
100
AcDbSpline
210
0.0
220
0.0
230
1.0
 70
    24
 71
     1
 72
     4
 73
     2
 74
     0
 42
0.0000000001
 43
0.0000000001
 40
0.0
 40
0.0
 40
1.0
 40
1.0
 10
15.09864637409872
 20
4.302531580239758
 30
0.0
 10
15.04448787470278
 20
4.291605195933395
 30
0.0
  0
SPLINE
  5
BCE
330
A8B
100
AcDbEntity
  8
FRONT
  6
Continuous
 62
     4
100
AcDbSpline
210
0.0
220
0.0
230
1.0
 70
     8
 71
     3
 72
    13
 73
     9
 74
     0
 42
0.0000000001
 43
0.0000000001
 40
0.0
 40
0.0
 40
0.0
 40
0.0
 40
0.2396506614303343
 40
0.4258576417570496
 40
0.5820550163389778
 40
0.7381714217428188
 40
0.9591299429654512
 40
1.0
 40
1.0
 40
1.0
 40
1.0
 10
15.21878522660069
 20
3.982550183926613
 30
0.0
 10
15.20446185940899
 20
3.956885905746576
 30
0.0
 10
15.18382701449337
 20
3.907206514117078
 30
0.0
 10
15.16499089997498
 20
3.827386703527638
 30
0.0
 10
15.16059144136004
 20
3.755395363725888
 30
0.0
 10
15.16830971452799
 20
3.684318177059933
 30
0.0
 10
15.18379083088686
 20
3.63914997870789
 30
0.0
 10
15.19585560171569
 20
3.615181448933922
 30
0.0
 10
15.19781587154303
 20
3.611548393029448
 30
0.0
  0
LINE
  5
BCF
330
A8B
100
AcDbEntity
  8
FRONT
  6
Continuous
 62
     4
100
AcDbLine
 10
17.89827503693186
 20
4.305849194799654
 30
0.0
 11
16.84081100360065
 21
3.750289208641194
 31
0.0
  0
LINE
  5
BD0
330
A8B
100
AcDbEntity
  8
FRONT
  6
Continuous
 62
     4
100
AcDbLine
 10
17.9955352574119
 20
4.703931962073951
 30
0.0
 11
17.99860264302532
 21
5.577410944240638
 31
0.0
  0
LINE
  5
BD1
330
A8B
100
AcDbEntity
  8
FRONT
  6
Continuous
 62
     4
100
AcDbLine
 10
16.71085065679104
 20
4.613894536173183
 30
0.0
 11
16.71002253368082
 21
4.378075430726664
 31
0.0
  0
LINE
  5
BD2
330
A8B
100
AcDbEntity
  8
FRONT
  6
Continuous
 62
     4
100
AcDbLine
 10
16.39808469837355
 20
4.364837484698021
 30
0.0
 11
16.39891265055782
 21
4.600607916707208
 31
0.0
  0
LINE
  5
BD3
330
A8B
100
AcDbEntity
  8
FRONT
  6
Continuous
 62
     4
100
AcDbLine
 10
17.66367077329101
 20
4.879093702836494
 30
0.0
 11
17.66526427735394
 21
5.332865247206257
 31
0.0
  0
LINE
  5
BD4
330
A8B
100
AcDbEntity
  8
FRONT
  6
Continuous
 62
     4
100
AcDbLine
 10
15.64053491978258
 20
4.293450173624481
 30
0.0
 11
15.60441972687181
 21
4.361092193114611
 31
0.0
  0
LINE
  5
BD5
330
A8B
100
AcDbEntity
  8
FRONT
  6
Continuous
 62
     4
100
AcDbLine
 10
16.71002253368082
 20
4.378075430726664
 30
0.0
 11
17.66367077329101
 21
4.879093702836494
 31
0.0
  0
LINE
  5
BD6
330
A8B
100
AcDbEntity
  8
FRONT
  6
Continuous
 62
     4
100
AcDbLine
 10
17.82736069662903
 20
5.451970850041035
 30
0.0
 11
17.82538373039164
 21
4.889003337034266
 31
0.0
  0
ELLIPSE
  5
BD7
330
A8B
100
AcDbEntity
  8
FRONT
  6
Continuous
 62
     4
100
AcDbEllipse
 10
14.59586354314858
 20
3.865394052025882
 30
0.0
 11
-1.151135430529534
 21
-0.6146102435097502
 31
0.0
210
0.0
220
0.0
230
1.0
 40
0.9833059182658811
 41
2.387532948130643
 42
2.854453357321848
  0
ELLIPSE
  5
BD8
330
A8B
100
AcDbEntity
  8
FRONT
  6
Continuous
 62
     4
100
AcDbEllipse
 10
23.34289700321895
 20
7.404971643362473
 30
0.0
 11
-5.502211667105154
 21
-2.588827676295629
 31
0.0
210
0.0
220
0.0
230
1.0
 40
0.1586239430231971
 41
6.208012116159168
 42
6.457681703334741
  0
ELLIPSE
  5
BD9
330
A8B
100
AcDbEntity
  8
FRONT
  6
Continuous
 62
     4
100
AcDbEllipse
 10
23.98792439919572
 20
7.261422965178862
 30
0.0
 11
-7.504621521697405
 21
-3.321134711197778
 31
0.0
210
0.0
220
0.0
230
1.0
 40
0.3415132911448714
 41
6.131781412421299
 42
6.217369236841816
  0
ELLIPSE
  5
BDA
330
A8B
100
AcDbEntity
  8
FRONT
  6
Continuous
 62
     4
100
AcDbEllipse
 10
16.32523872390661
 20
4.501274491612504
 30
0.0
 11
-0.8499947589592117
 21
0.0029849163490714
 31
0.0
210
0.0
220
0.0
230
1.0
 40
0.1608116416914428
 41
1.657167966400878
 42
2.041140401843712
  0
ELLIPSE
  5
BDB
330
A8B
100
AcDbEntity
  8
FRONT
  6
Continuous
 62
     4
100
AcDbEllipse
 10
23.91507831970675
 20
7.397859926833847
 30
0.0
 11
-7.163008401427503
 21
-3.337131822624029
 31
0.0
210
0.0
220
0.0
230
1.0
 40
0.2488347320293084
 41
6.1272315578895
 42
6.212819382930589
  0
ELLIPSE
  5
BDC
330
A8B
100
AcDbEntity
  8
FRONT
  6
Continuous
 62
     4
100
AcDbEllipse
 10
18.11635760682543
 20
4.734153631805039
 30
0.0
 11
-0.9999938318006432
 21
0.0035116660557411
 31
0.0
210
0.0
220
0.0
230
1.0
 40
0.1608116414610818
 41
5.008200129322958
 42
5.18273305487219
  0
ELLIPSE
  5
BDD
330
A8B
100
AcDbEntity
  8
FRONT
  6
Continuous
 62
     4
100
AcDbEllipse
 10
16.56225603727189
 20
3.633285833833903
 30
0.0
 11
-0.7801070765252688
 21
-0.3375395473105581
 31
0.0
210
0.0
220
0.0
230
1.0
 40
0.0040693916708658
 41
1.563153189442481
 42
1.934167124601573
  0
ELLIPSE
  5
BDE
330
A8B
100
AcDbEntity
  8
FRONT
  6
Continuous
 62
     4
100
AcDbEllipse
 10
14.51560790726658
 20
3.779757555178877
 30
0.0
 11
-1.088811819437994
 21
-0.5813346382489481
 31
0.0
210
0.0
220
0.0
230
1.0
 40
0.9833059182890519
 41
2.448217296598584
 42
3.141592653297247
  0
ELLIPSE
  5
BDF
330
A8B
100
AcDbEntity
  8
FRONT
  6
Continuous
 62
     4
100
AcDbEllipse
 10
23.63387088225076
 20
7.250121938023302
 30
0.0
 11
-5.931785057190547
 21
-2.503957966687563
 31
0.0
210
0.0
220
0.0
230
1.0
 40
0.3000603614080196
 41
6.212003631040982
 42
6.468355228140293
  0
ELLIPSE
  5
BE0
330
A8B
100
AcDbEntity
  8
FRONT
  6
Continuous
 62
     4
100
AcDbEllipse
 10
14.55172310019603
 20
3.712115535694636
 30
0.0
 11
-1.088811819366767
 21
-0.5813346383414362
 31
0.0
210
0.0
220
0.0
230
1.0
 40
0.9833059182967726
 41
2.505541426623854
 42
3.141592653205357
  0
ELLIPSE
  5
BE1
330
A8B
100
AcDbEntity
  8
FRONT
  6
Continuous
 62
     4
100
AcDbEllipse
 10
17.43753142984373
 20
3.994737951825666
 30
0.0
 11
-0.6378475908704978
 21
-2.576716806991784
 31
0.0
210
0.0
220
0.0
230
1.0
 40
0.1420508862706076
 41
1.726905085211521
 42
1.739170856938257
  0
SPLINE
  5
BE2
330
A8B
100
AcDbEntity
  8
FRONT
  6
Continuous
 62
     4
100
AcDbSpline
210
0.0
220
0.0
230
1.0
 70
    24
 71
     1
 72
     4
 73
     2
 74
     0
 42
0.0000000001
 43
0.0000000001
 40
0.0
 40
0.0
 40
1.0
 40
1.0
 10
16.49595502931909
 20
5.475699839190808
 30
0.0
 10
17.5948987190443
 20
5.975264142050702
 30
0.0
  0
SPLINE
  5
BE3
330
A8B
100
AcDbEntity
  8
FRONT
  6
Continuous
 62
     4
100
AcDbSpline
210
0.0
220
0.0
230
1.0
 70
    24
 71
     1
 72
     4
 73
     2
 74
     0
 42
0.0000000001
 43
0.0000000001
 40
0.0
 40
0.0
 40
1.0
 40
1.0
 10
17.67701948821644
 20
5.341527188321591
 30
0.0
 10
17.77311705953044
 20
5.412174745271188
 30
0.0
  0
SPLINE
  5
BE4
330
A8B
100
AcDbEntity
  8
FRONT
  6
Continuous
 62
     4
100
AcDbSpline
210
0.0
220
0.0
230
1.0
 70
    24
 71
     1
 72
     4
 73
     2
 74
     0
 42
0.0000000001
 43
0.0000000001
 40
0.0
 40
0.0
 40
1.0
 40
1.0
 10
16.90020018818717
 20
3.583522341359216
 30
0.0
 10
16.91843118442867
 20
3.518558886112968
 30
0.0
  0
SPLINE
  5
BE5
330
A8B
100
AcDbEntity
  8
FRONT
  6
Continuous
 62
     4
100
AcDbSpline
210
0.0
220
0.0
230
1.0
 70
    24
 71
     1
 72
     4
 73
     2
 74
     0
 42
0.0000000001
 43
0.0000000001
 40
0.0
 40
0.0
 40
1.0
 40
1.0
 10
16.60738235910093
 20
3.52622347312716
 30
0.0
 10
16.55766717029034
 20
3.62753152931504
 30
0.0
  0
SPLINE
  5
BE6
330
A8B
100
AcDbEntity
  8
FRONT
  6
Continuous
 62
     4
100
AcDbSpline
210
0.0
220
0.0
230
1.0
 70
     8
 71
     2
 72
     6
 73
     3
 74
     0
 42
0.0000000001
 43
0.0000000001
 40
0.0
 40
0.0
 40
0.0
 40
1.0
 40
1.0
 40
1.0
 10
17.96624821359698
 20
4.521740220909058
 30
0.0
 10
17.99450568315117
 20
4.587389658473391
 30
0.0
 10
17.99520039268492
 20
4.657821589442201
 30
0.0
  0
SPLINE
  5
BE7
330
A8B
100
AcDbEntity
  8
FRONT
  6
Continuous
 62
     4
100
AcDbSpline
210
0.0
220
0.0
230
1.0
 70
    24
 71
     1
 72
     4
 73
     2
 74
     0
 42
0.0000000001
 43
0.0000000001
 40
0.0
 40
0.0
 40
1.0
 40
1.0
 10
16.71141267560334
 20
4.194303491672546
 30
0.0
 10
16.84081100360065
 20
3.750289208641194
 30
0.0
  0
SPLINE
  5
BE8
330
A8B
100
AcDbEntity
  8
FRONT
  6
Continuous
 62
     4
100
AcDbSpline
210
0.0
220
0.0
230
1.0
 70
    24
 71
     1
 72
     4
 73
     2
 74
     0
 42
0.0000000001
 43
0.0000000001
 40
0.0
 40
0.0
 40
1.0
 40
1.0
 10
16.42495563095343
 20
4.116038923035028
 30
0.0
 10
16.71141267560334
 20
4.194303491672547
 30
0.0
  0
SPLINE
  5
BE9
330
A8B
100
AcDbEntity
  8
FRONT
  6
Continuous
 62
     4
100
AcDbSpline
210
0.0
220
0.0
230
1.0
 70
    24
 71
     1
 72
     4
 73
     2
 74
     0
 42
0.0000000001
 43
0.0000000001
 40
0.0
 40
0.0
 40
1.0
 40
1.0
 10
16.49314501744483
 20
5.474374826890542
 30
0.0
 10
16.49474485326082
 20
5.475120305234273
 30
0.0
  0
SPLINE
  5
BEA
330
A8B
100
AcDbEntity
  8
FRONT
  6
Continuous
 62
     4
100
AcDbSpline
210
0.0
220
0.0
230
1.0
 70
    24
 71
     1
 72
     4
 73
     2
 74
     0
 42
0.0000000001
 43
0.0000000001
 40
0.0
 40
0.0
 40
1.0
 40
1.0
 10
16.84081100360065
 20
3.750289208641194
 30
0.0
 10
16.90019487381277
 20
3.583520954077106
 30
0.0
  0
SPLINE
  5
BEB
330
A8B
100
AcDbEntity
  8
FRONT
  6
Continuous
 62
     4
100
AcDbSpline
210
0.0
220
0.0
230
1.0
 70
     8
 71
     3
 72
    12
 73
     8
 74
     0
 42
0.0000000001
 43
0.0000000001
 40
0.0
 40
0.0
 40
0.0
 40
0.0
 40
0.1495624586559048
 40
0.3981305669337531
 40
0.6362518309539893
 40
0.8431419366934655
 40
1.0
 40
1.0
 40
1.0
 40
1.0
 10
17.48589383548178
 20
3.463369935461981
 30
0.0
 10
17.4886026749378
 20
3.466280125578256
 30
0.0
 10
17.49078367105906
 20
3.47398973939262
 30
0.0
 10
17.47309542125874
 20
3.486777129879093
 30
0.0
 10
17.42482211552024
 20
3.49917167572542
 30
0.0
 10
17.36085181227452
 20
3.507004690170802
 30
0.0
 10
17.31746007618845
 20
3.509155435452544
 30
0.0
 10
17.29745226804206
 20
3.509679345658438
 30
0.0
  0
SPLINE
  5
BEC
330
A8B
100
AcDbEntity
  8
FRONT
  6
Continuous
 62
     4
100
AcDbSpline
210
0.0
220
0.0
230
1.0
 70
    24
 71
     1
 72
     4
 73
     2
 74
     0
 42
0.0000000001
 43
0.0000000001
 40
0.0
 40
0.0
 40
1.0
 40
1.0
 10
16.39885559051127
 20
4.600607322908822
 30
0.0
 10
16.71077838865055
 20
4.613840528244288
 30
0.0
  0
SPLINE
  5
BED
330
A8B
100
AcDbEntity
  8
FRONT
  6
Continuous
 62
     4
100
AcDbSpline
210
0.0
220
0.0
230
1.0
 70
     8
 71
     3
 72
    11
 73
     7
 74
     0
 42
0.0000000001
 43
0.0000000001
 40
0.0
 40
0.0
 40
0.0
 40
0.0
 40
0.0001349180935091
 40
0.1930788600656165
 40
0.9998650818819635
 40
1.0
 40
1.0
 40
1.0
 40
1.0
 10
16.19667844852219
 20
5.335343228005076
 30
0.0
 10
16.19672500268154
 20
5.335254725404841
 30
0.0
 10
16.20989169584736
 20
5.310223947250959
 30
0.0
 10
16.32367950371092
 20
5.208467742036122
 30
0.0
 10
16.43522792301602
 20
5.114125861270784
 30
0.0
 10
16.50623019806864
 20
5.020733760974486
 30
0.0
 10
16.50629071951281
 20
5.020654154726011
 30
0.0
  0
SPLINE
  5
BEE
330
A8B
100
AcDbEntity
  8
FRONT
  6
Continuous
 62
     4
100
AcDbSpline
210
0.0
220
0.0
230
1.0
 70
    24
 71
     1
 72
     4
 73
     2
 74
     0
 42
0.0000000001
 43
0.0000000001
 40
0.0
 40
0.0
 40
1.0
 40
1.0
 10
17.45883754226277
 20
5.180035611251119
 30
0.0
 10
17.66526427735394
 20
5.332865247206231
 30
0.0
  0
SPLINE
  5
BEF
330
A8B
100
AcDbEntity
  8
FRONT
  6
Continuous
 62
     4
100
AcDbSpline
210
0.0
220
0.0
230
1.0
 70
     8
 71
     3
 72
    11
 73
     7
 74
     0
 42
0.0000000001
 43
0.0000000001
 40
0.0
 40
0.0
 40
0.0
 40
0.0
 40
0.0001278625790222
 40
0.8000466519499596
 40
0.9998721041576972
 40
1.0
 40
1.0
 40
1.0
 40
1.0
 10
16.50629071951281
 20
5.020654154726011
 30
0.0
 10
16.50635300832185
 20
5.020575923630723
 30
0.0
 10
16.58269256964586
 20
4.924697907350288
 30
0.0
 10
16.65651612623752
 20
4.786080692263082
 30
0.0
 10
16.70188763166069
 20
4.642377138962474
 30
0.0
 10
16.71073896129634
 20
4.613939119367898
 30
0.0
 10
16.71076868003114
 20
4.613843637449183
 30
0.0
  0
SPLINE
  5
BF0
330
A8B
100
AcDbEntity
  8
FRONT
  6
Continuous
 62
     4
100
AcDbSpline
210
0.0
220
0.0
230
1.0
 70
    24
 71
     1
 72
     4
 73
     2
 74
     0
 42
0.0000000001
 43
0.0000000001
 40
0.0
 40
0.0
 40
1.0
 40
1.0
 10
16.94611636433103
 20
4.794203885304683
 30
0.0
 10
17.45883754226277
 20
5.180035611251119
 30
0.0
  0
SPLINE
  5
BF1
330
A8B
100
AcDbEntity
  8
FRONT
  6
Continuous
 62
     4
100
AcDbSpline
210
0.0
220
0.0
230
1.0
 70
    24
 71
     1
 72
     4
 73
     2
 74
     0
 42
0.0000000001
 43
0.0000000001
 40
0.0
 40
0.0
 40
1.0
 40
1.0
 10
17.9955352574119
 20
4.70393196207395
 30
0.0
 10
17.99520039268492
 20
4.657821589441173
 30
0.0
  0
SPLINE
  5
BF2
330
A8B
100
AcDbEntity
  8
FRONT
  6
Continuous
 62
     4
100
AcDbSpline
210
0.0
220
0.0
230
1.0
 70
    24
 71
     1
 72
     4
 73
     2
 74
     0
 42
0.0000000001
 43
0.0000000001
 40
0.0
 40
0.0
 40
1.0
 40
1.0
 10
17.66526427735397
 20
5.332865247206212
 30
0.0
 10
17.67698916139616
 20
5.341504848748127
 30
0.0
  0
SPLINE
  5
BF3
330
A8B
100
AcDbEntity
  8
FRONT
  6
Continuous
 62
     4
100
AcDbSpline
210
0.0
220
0.0
230
1.0
 70
     8
 71
     2
 72
     6
 73
     3
 74
     0
 42
0.0000000001
 43
0.0000000001
 40
0.0
 40
0.0
 40
0.0
 40
1.0
 40
1.0
 40
1.0
 10
17.45883752894693
 20
5.180035602533471
 30
0.0
 10
17.56761241759019
 20
5.260934079266407
 30
0.0
 10
17.67698907835551
 20
5.341504790199523
 30
0.0
  0
SPLINE
  5
BF4
330
A8B
100
AcDbEntity
  8
FRONT
  6
Continuous
 62
     4
100
AcDbSpline
210
0.0
220
0.0
230
1.0
 70
    24
 71
     1
 72
     4
 73
     2
 74
     0
 42
0.0000000001
 43
0.0000000001
 40
0.0
 40
0.0
 40
1.0
 40
1.0
 10
16.19667844839965
 20
5.335343227947221
 30
0.0
 10
16.49314024556977
 20
5.474388270071903
 30
0.0
  0
SPLINE
  5
BF5
330
A8B
100
AcDbEntity
  8
FRONT
  6
Continuous
 62
     4
100
AcDbSpline
210
0.0
220
0.0
230
1.0
 70
     8
 71
     3
 72
    11
 73
     7
 74
     0
 42
0.0000000001
 43
0.0000000001
 40
0.0
 40
0.0
 40
0.0
 40
0.0
 40
0.1632580369825384
 40
0.5369633765782556
 40
0.9250992724447831
 40
1.0
 40
1.0
 40
1.0
 40
1.0
 10
16.42490960875768
 20
4.115996823386628
 30
0.0
 10
16.39672347278242
 20
4.090308598545457
 30
0.0
 10
16.30722024578586
 20
4.003092807454835
 30
0.0
 10
16.17072554691022
 20
3.835311191857299
 30
0.0
 10
16.07136739334606
 20
3.667560355337826
 30
0.0
 10
16.0239448572469
 20
3.571267493264961
 30
0.0
 10
16.01647812761165
 20
3.555577697676341
 30
0.0
  0
SPLINE
  5
BF6
330
A8B
100
AcDbEntity
  8
FRONT
  6
Continuous
 62
     4
100
AcDbSpline
210
0.0
220
0.0
230
1.0
 70
    24
 71
     1
 72
     4
 73
     2
 74
     0
 42
0.0000000001
 43
0.0000000001
 40
0.0
 40
0.0
 40
1.0
 40
1.0
 10
17.96624821359698
 20
4.521740220909058
 30
0.0
 10
17.94182141506172
 20
4.461266655075603
 30
0.0
  0
SPLINE
  5
BF7
330
A8B
100
AcDbEntity
  8
FRONT
  6
Continuous
 62
     4
100
AcDbSpline
210
0.0
220
0.0
230
1.0
 70
    24
 71
     1
 72
     4
 73
     2
 74
     0
 42
0.0000000001
 43
0.0000000001
 40
0.0
 40
0.0
 40
1.0
 40
1.0
 10
16.68230017246027
 20
3.52498673459668
 30
0.0
 10
16.90020018819045
 20
3.583522341348273
 30
0.0
  0
SPLINE
  5
BF8
330
A8B
100
AcDbEntity
  8
FRONT
  6
Continuous
 62
     4
100
AcDbSpline
210
0.0
220
0.0
230
1.0
 70
    24
 71
     1
 72
     4
 73
     2
 74
     0
 42
0.0000000001
 43
0.0000000001
 40
0.0
 40
0.0
 40
1.0
 40
1.0
 10
17.94182141506172
 20
4.461266655075603
 30
0.0
 10
17.90527073750188
 20
4.337218884751766
 30
0.0
  0
SPLINE
  5
BF9
330
A8B
100
AcDbEntity
  8
FRONT
  6
Continuous
 62
     4
100
AcDbSpline
210
0.0
220
0.0
230
1.0
 70
     8
 71
     3
 72
    11
 73
     7
 74
     0
 42
0.0000000001
 43
0.0000000001
 40
0.0
 40
0.0
 40
0.0
 40
0.0
 40
0.3061272518132776
 40
0.6075448394179293
 40
0.8160124276962045
 40
1.0
 40
1.0
 40
1.0
 40
1.0
 10
16.39885559067653
 20
4.600607322599127
 30
0.0
 10
16.39520629565713
 20
4.65475168102716
 30
0.0
 10
16.37252336682536
 20
4.755034069650047
 30
0.0
 10
16.30304229067195
 20
4.879805706769668
 30
0.0
 10
16.21150627020276
 20
4.959021904353886
 30
0.0
 10
16.15015294733186
 20
4.986161952864643
 30
0.0
 10
16.11893736108915
 20
4.995457742129388
 30
0.0
  0
SPLINE
  5
BFA
330
A8B
100
AcDbEntity
  8
FRONT
  6
Continuous
 62
     4
100
AcDbSpline
210
0.0
220
0.0
230
1.0
 70
     8
 71
     3
 72
    11
 73
     7
 74
     0
 42
0.0000000001
 43
0.0000000001
 40
0.0
 40
0.0
 40
0.0
 40
0.0
 40
0.3213498426608153
 40
0.6577811939102688
 40
0.999882732977116
 40
1.0
 40
1.0
 40
1.0
 40
1.0
 10
16.55766717029036
 20
3.62753152931504
 30
0.0
 10
16.53240165908376
 20
3.676733510899357
 30
0.0
 10
16.48805584972428
 20
3.779569485735088
 30
0.0
 10
16.44656881178055
 20
3.945054769776882
 30
0.0
 10
16.43037839129144
 20
4.058494031060566
 30
0.0
 10
16.42502061513865
 20
4.11569740707443
 30
0.0
 10
16.42501128976365
 20
4.115796971311895
 30
0.0
  0
SPLINE
  5
BFB
330
A8B
100
AcDbEntity
  8
FRONT
  6
Continuous
 62
     4
100
AcDbSpline
210
0.0
220
0.0
230
1.0
 70
     8
 71
     2
 72
     6
 73
     3
 74
     0
 42
0.0000000001
 43
0.0000000001
 40
0.0
 40
0.0
 40
0.0
 40
1.0
 40
1.0
 40
1.0
 10
17.77370085353426
 20
5.412603271966885
 30
0.0
 10
17.88564682468245
 20
5.494754377154666
 30
0.0
 10
17.9986026430253
 20
5.57741094424067
 30
0.0
  0
SPLINE
  5
BFC
330
A8B
100
AcDbEntity
  8
FRONT
  6
Continuous
 62
     4
100
AcDbSpline
210
0.0
220
0.0
230
1.0
 70
    24
 71
     1
 72
     4
 73
     2
 74
     0
 42
0.0000000001
 43
0.0000000001
 40
0.0
 40
0.0
 40
1.0
 40
1.0
 10
16.49474485326082
 20
5.475120305234273
 30
0.0
 10
16.49595979536792
 20
5.475686399041637
 30
0.0
  0
SPLINE
  5
BFD
330
A8B
100
AcDbEntity
  8
FRONT
  6
Continuous
 62
     4
100
AcDbSpline
210
0.0
220
0.0
230
1.0
 70
    24
 71
     1
 72
     4
 73
     2
 74
     0
 42
0.0000000001
 43
0.0000000001
 40
0.0
 40
0.0
 40
1.0
 40
1.0
 10
16.71081487216573
 20
4.613866942044376
 30
0.0
 10
16.946116364331
 20
4.794203885304683
 30
0.0
  0
SPLINE
  5
BFE
330
A8B
100
AcDbEntity
  8
FRONT
  6
Continuous
 62
     4
100
AcDbSpline
210
0.0
220
0.0
230
1.0
 70
     8
 71
     2
 72
     6
 73
     3
 74
     0
 42
0.0000000001
 43
0.0000000001
 40
0.0
 40
0.0
 40
0.0
 40
1.0
 40
1.0
 40
1.0
 10
16.11893379407845
 20
4.995443832534546
 30
0.0
 10
16.16268975661965
 20
5.166852128994873
 30
0.0
 10
16.19668973819385
 20
5.335334408581799
 30
0.0
  0
SPLINE
  5
BFF
330
A8B
100
AcDbEntity
  8
FRONT
  6
Continuous
 62
     4
100
AcDbSpline
210
0.0
220
0.0
230
1.0
 70
     8
 71
     3
 72
    11
 73
     7
 74
     0
 42
0.0000000001
 43
0.0000000001
 40
0.0
 40
0.0
 40
0.0
 40
0.0
 40
0.2797385983135212
 40
0.5594467342961896
 40
0.779715829487904
 40
1.0
 40
1.0
 40
1.0
 40
1.0
 10
17.5948987190443
 20
5.975264142050701
 30
0.0
 10
17.65745563319629
 20
5.974483801919762
 30
0.0
 10
17.77036020044778
 20
5.950887920362918
 30
0.0
 10
17.90567908297141
 20
5.85040117171442
 30
0.0
 10
17.98283180302257
 20
5.717078973008209
 30
0.0
 10
17.99830296929956
 20
5.626215792883588
 30
0.0
 10
17.99860264302532
 20
5.577410944240644
 30
0.0
  0
ELLIPSE
  5
C00
330
A8B
100
AcDbEntity
  8
FRONT
  6
Continuous
 62
     4
100
AcDbEllipse
 10
177.0605964205228
 20
-0.0000000000000062
 30
-0.000000000000001
 11
328.7085881680908
 21
-5.639364115381655
 31
0.9119127835859078
210
-0.0173763522628257
220
-0.9870276605374339
230
0.1596072044615736
 40
0.0173763522628256
 41
2.090738282879778
 42
2.09261634979419
  0
ENDBLK
  5
C02
330
A8B
100
AcDbEntity
  8
0
100
AcDbBlockEnd
  0
BLOCK
  5
C05
330
C03
100
AcDbEntity
  8
0
100
AcDbBlockBegin
  2
ROFFE
 70
     0
 10
0.0
 20
0.0
 30
0.0
  3
ROFFE
  1

  0
INSERT
  5
C04
330
C03
100
AcDbEntity
  8
0
  6
Continuous
100
AcDbBlockReference
  2
2D00035417
 10
0.0
 20
0.0
 30
0.0
  0
ENDBLK
  5
C06
330
C03
100
AcDbEntity
  8
0
100
AcDbBlockEnd
  0
BLOCK
  5
12E0
330
12DF
100
AcDbEntity
  8
0
100
AcDbBlockBegin
  2
*D2
 70
     1
 10
0.0
 20
0.0
 30
0.0
  3
*D2
  1

  0
LINE
  5
12E1
330
12DF
100
AcDbEntity
  8
0
  6
ByBlock
 62
     0
100
AcDbLine
 10
112.552137
 20
41.57999799999998
 30
0.0
 11
133.519557
 21
41.57999799999998
 31
0.0
  0
LINE
  5
12E2
330
12DF
100
AcDbEntity
  8
0
  6
ByBlock
 62
     0
100
AcDbLine
 10
112.552137
 20
-38.420003
 30
0.0
 11
133.519557
 21
-38.420003
 31
0.0
  0
LINE
  5
12E3
330
12DF
100
AcDbEntity
  8
0
  6
ByBlock
 62
     0
100
AcDbLine
 10
132.519557
 20
36.57999799999999
 30
0.0
 11
132.519557
 21
-33.420003
 31
0.0
  0
SOLID
  5
12E4
330
12DF
100
AcDbEntity
  8
0
  6
ByBlock
 62
     0
100
AcDbTrace
 10
131.686224
 20
36.57999799999999
 30
0.0
 11
133.35289
 21
36.57999799999999
 31
0.0
 12
132.519557
 22
41.57999799999998
 32
0.0
 13
132.519557
 23
41.57999799999998
 33
0.0
  0
SOLID
  5
12E5
330
12DF
100
AcDbEntity
  8
0
  6
ByBlock
 62
     0
100
AcDbTrace
 10
131.686224
 20
-33.420003
 30
0.0
 11
133.35289
 21
-33.420003
 31
0.0
 12
132.519557
 22
-38.420003
 32
0.0
 13
132.519557
 23
-38.420003
 33
0.0
  0
MTEXT
  5
12E6
102
{ACAD_XDICTIONARY
360
1A9C
102
}
330
12DF
100
AcDbEntity
  8
0
  6
ByBlock
 62
     0
100
AcDbMText
 10
128.519557
 20
1.579996999999999
 30
0.0
 40
6.0
 41
0.0
 71
     5
 72
     5
  1
\A1;{\U+220580}
 11
0.0
 21
1.0
 31
0.0
 73
     1
 44
1.0
1001
ACAD
1000
MTEXTBEGIN
1070
    73
1070
     1
1070
    44
1040
1.0
1070
    74
1070
     0
1000
MTEXTEND
  0
POINT
  5
12E7
330
12DF
100
AcDbEntity
  8
DEFPOINTS
  6
ByBlock
 62
     0
100
AcDbPoint
 10
111.552137
 20
41.57999799999998
 30
0.0
  0
POINT
  5
12E8
330
12DF
100
AcDbEntity
  8
DEFPOINTS
  6
ByBlock
 62
     0
100
AcDbPoint
 10
111.552137
 20
-38.420003
 30
0.0
  0
POINT
  5
12E9
330
12DF
100
AcDbEntity
  8
DEFPOINTS
  6
ByBlock
 62
     0
100
AcDbPoint
 10
132.519557
 20
-38.420003
 30
0.0
  0
ENDBLK
  5
12EA
330
12DF
100
AcDbEntity
  8
0
100
AcDbBlockEnd
  0
BLOCK
  5
12EC
330
12EB
100
AcDbEntity
  8
0
100
AcDbBlockBegin
  2
*D3
 70
     1
 10
0.0
 20
0.0
 30
0.0
  3
*D3
  1

  0
LINE
  5
12ED
330
12EB
100
AcDbEntity
  8
0
  6
ByBlock
 62
     0
100
AcDbLine
 10
-101.4197809999999
 20
23.521239
 30
0.0
 11
-101.4197809999999
 21
81.54511600000002
 31
0.0
  0
LINE
  5
12EE
330
12EB
100
AcDbEntity
  8
0
  6
ByBlock
 62
     0
100
AcDbLine
 10
116.5802189999999
 20
35.521239
 30
0.0
 11
116.5802189999999
 21
81.54511600000002
 31
0.0
  0
LINE
  5
12EF
330
12EB
100
AcDbEntity
  8
0
  6
ByBlock
 62
     0
100
AcDbLine
 10
-96.41978100000001
 20
80.54511600000003
 30
0.0
 11
111.5802189999999
 21
80.54511600000003
 31
0.0
  0
SOLID
  5
12F0
330
12EB
100
AcDbEntity
  8
0
  6
ByBlock
 62
     0
100
AcDbTrace
 10
-96.41978100000001
 20
81.37845
 30
0.0
 11
-96.41978100000001
 21
79.711783
 31
0.0
 12
-101.4197809999999
 22
80.54511600000003
 32
0.0
 13
-101.4197809999999
 23
80.54511600000003
 33
0.0
  0
SOLID
  5
12F1
330
12EB
100
AcDbEntity
  8
0
  6
ByBlock
 62
     0
100
AcDbTrace
 10
111.5802189999999
 20
81.37845
 30
0.0
 11
111.5802189999999
 21
79.711783
 31
0.0
 12
116.5802189999999
 22
80.54511600000003
 32
0.0
 13
116.5802189999999
 23
80.54511600000003
 33
0.0
  0
MTEXT
  5
12F2
330
12EB
100
AcDbEntity
  8
0
  6
ByBlock
 62
     0
100
AcDbMText
 10
7.580219
 20
84.54511600000001
 30
0.0
 40
6.0
 41
0.0
 71
     5
 72
     5
  1
\A1;218
 73
     1
 44
1.0
1001
ACAD
1000
MTEXTBEGIN
1070
    73
1070
     1
1070
    44
1040
1.0
1070
    74
1070
     0
1000
MTEXTEND
  0
POINT
  5
12F3
330
12EB
100
AcDbEntity
  8
DEFPOINTS
  6
ByBlock
 62
     0
100
AcDbPoint
 10
-101.4197809999999
 20
22.521239
 30
0.0
  0
POINT
  5
12F4
330
12EB
100
AcDbEntity
  8
DEFPOINTS
  6
ByBlock
 62
     0
100
AcDbPoint
 10
116.5802189999999
 20
34.521239
 30
0.0
  0
POINT
  5
12F5
330
12EB
100
AcDbEntity
  8
DEFPOINTS
  6
ByBlock
 62
     0
100
AcDbPoint
 10
116.5802189999999
 20
80.54511600000003
 30
0.0
  0
ENDBLK
  5
12F6
330
12EB
100
AcDbEntity
  8
0
100
AcDbBlockEnd
  0
BLOCK
  5
12F8
330
12F7
100
AcDbEntity
  8
0
100
AcDbBlockBegin
  2
*D4
 70
     1
 10
0.0
 20
0.0
 30
0.0
  3
*D4
  1

  0
LINE
  5
12F9
330
12F7
100
AcDbEntity
  8
0
  6
ByBlock
 62
     0
100
AcDbLine
 10
116.5802189999999
 20
36.521239
 30
0.0
 11
116.5802189999999
 21
55.204442
 31
0.0
  0
LINE
  5
12FA
330
12F7
100
AcDbEntity
  8
0
  6
ByBlock
 62
     0
100
AcDbLine
 10
55.58021899999999
 20
46.521239
 30
0.0
 11
55.58021899999999
 21
55.204442
 31
0.0
  0
LINE
  5
12FB
330
12F7
100
AcDbEntity
  8
0
  6
ByBlock
 62
     0
100
AcDbLine
 10
111.5802189999999
 20
54.20444200000001
 30
0.0
 11
60.58021899999999
 21
54.20444200000001
 31
0.0
  0
SOLID
  5
12FC
330
12F7
100
AcDbEntity
  8
0
  6
ByBlock
 62
     0
100
AcDbTrace
 10
111.5802189999999
 20
55.037776
 30
0.0
 11
111.5802189999999
 21
53.37110899999998
 31
0.0
 12
116.5802189999999
 22
54.20444200000001
 32
0.0
 13
116.5802189999999
 23
54.20444200000001
 33
0.0
  0
SOLID
  5
12FD
330
12F7
100
AcDbEntity
  8
0
  6
ByBlock
 62
     0
100
AcDbTrace
 10
60.58021899999999
 20
55.037776
 30
0.0
 11
60.58021899999999
 21
53.37110899999998
 31
0.0
 12
55.58021899999999
 22
54.20444200000001
 32
0.0
 13
55.58021899999999
 23
54.20444200000001
 33
0.0
  0
MTEXT
  5
12FE
330
12F7
100
AcDbEntity
  8
0
  6
ByBlock
 62
     0
100
AcDbMText
 10
86.080219
 20
58.204442
 30
0.0
 40
6.0
 41
0.0
 71
     5
 72
     5
  1
\A1;61
 73
     1
 44
1.0
1001
ACAD
1000
MTEXTBEGIN
1070
    73
1070
     1
1070
    44
1040
1.0
1070
    74
1070
     0
1000
MTEXTEND
  0
POINT
  5
12FF
330
12F7
100
AcDbEntity
  8
DEFPOINTS
  6
ByBlock
 62
     0
100
AcDbPoint
 10
116.5802189999999
 20
35.521239
 30
0.0
  0
POINT
  5
1300
330
12F7
100
AcDbEntity
  8
DEFPOINTS
  6
ByBlock
 62
     0
100
AcDbPoint
 10
55.58021899999999
 20
45.521239
 30
0.0
  0
POINT
  5
1301
330
12F7
100
AcDbEntity
  8
DEFPOINTS
  6
ByBlock
 62
     0
100
AcDbPoint
 10
55.58021899999999
 20
54.20444200000001
 30
0.0
  0
ENDBLK
  5
1302
330
12F7
100
AcDbEntity
  8
0
100
AcDbBlockEnd
  0
BLOCK
  5
1304
330
1303
100
AcDbEntity
  8
0
100
AcDbBlockBegin
  2
*D5
 70
     1
 10
0.0
 20
0.0
 30
0.0
  3
*D5
  1

  0
LINE
  5
1305
330
1303
100
AcDbEntity
  8
0
  6
ByBlock
 62
     0
100
AcDbLine
 10
116.5802189999999
 20
37.521239
 30
0.0
 11
116.5802189999999
 21
67.76388799999999
 31
0.0
  0
LINE
  5
1306
330
1303
100
AcDbEntity
  8
0
  6
ByBlock
 62
     0
100
AcDbLine
 10
0.280219
 20
37.521239
 30
0.0
 11
0.280219
 21
67.76388799999999
 31
0.0
  0
LINE
  5
1307
330
1303
100
AcDbEntity
  8
0
  6
ByBlock
 62
     0
100
AcDbLine
 10
111.5802189999999
 20
66.76388799999999
 30
0.0
 11
5.280219
 21
66.76388799999999
 31
0.0
  0
SOLID
  5
1308
330
1303
100
AcDbEntity
  8
0
  6
ByBlock
 62
     0
100
AcDbTrace
 10
111.5802189999999
 20
67.59722099999999
 30
0.0
 11
111.5802189999999
 21
65.930555
 31
0.0
 12
116.5802189999999
 22
66.76388799999999
 32
0.0
 13
116.5802189999999
 23
66.76388799999999
 33
0.0
  0
SOLID
  5
1309
330
1303
100
AcDbEntity
  8
0
  6
ByBlock
 62
     0
100
AcDbTrace
 10
5.280219
 20
67.59722099999999
 30
0.0
 11
5.280219
 21
65.930555
 31
0.0
 12
0.280219
 22
66.76388799999999
 32
0.0
 13
0.280219
 23
66.76388799999999
 33
0.0
  0
MTEXT
  5
130A
330
1303
100
AcDbEntity
  8
0
  6
ByBlock
 62
     0
100
AcDbMText
 10
58.430219
 20
70.763888
 30
0.0
 40
6.0
 41
0.0
 71
     5
 72
     5
  1
\A1;116.3
 73
     1
 44
1.0
1001
ACAD
1000
MTEXTBEGIN
1070
    73
1070
     1
1070
    44
1040
1.0
1070
    74
1070
     0
1000
MTEXTEND
  0
POINT
  5
130B
330
1303
100
AcDbEntity
  8
DEFPOINTS
  6
ByBlock
 62
     0
100
AcDbPoint
 10
116.5802189999999
 20
36.521239
 30
0.0
  0
POINT
  5
130C
330
1303
100
AcDbEntity
  8
DEFPOINTS
  6
ByBlock
 62
     0
100
AcDbPoint
 10
0.280219
 20
36.521239
 30
0.0
  0
POINT
  5
130D
330
1303
100
AcDbEntity
  8
DEFPOINTS
  6
ByBlock
 62
     0
100
AcDbPoint
 10
0.280219
 20
66.76388799999999
 30
0.0
  0
ENDBLK
  5
130E
330
1303
100
AcDbEntity
  8
0
100
AcDbBlockEnd
  0
BLOCK
  5
189F
330
189E
100
AcDbEntity
  8
0
100
AcDbBlockBegin
  2
*D6
 70
     1
 10
0.0
 20
0.0
 30
0.0
  3
*D6
  1

  0
LINE
  5
1A20
330
189E
100
AcDbEntity
  8
2
 62
     0
370
    -2
100
AcDbLine
 10
206.7341546603168
 20
171.1314651112843
 30
0.0
 11
234.419343636529
 21
171.1314651112843
 31
0.0
  0
LINE
  5
1A21
330
189E
100
AcDbEntity
  8
2
 62
     0
370
    -2
100
AcDbLine
 10
206.7341546603168
 20
91.13146411128427
 30
0.0
 11
234.419343636529
 21
91.13146411128427
 31
0.0
  0
LINE
  5
1A22
330
189E
100
AcDbEntity
  8
2
 62
     0
370
    -2
100
AcDbLine
 10
233.419343636529
 20
166.1314651112843
 30
0.0
 11
233.419343636529
 21
96.13146411128427
 31
0.0
  0
SOLID
  5
1A23
330
189E
100
AcDbEntity
  8
2
 62
     0
100
AcDbTrace
 10
232.5860103031957
 20
166.1314651112843
 30
0.0
 11
234.2526769698624
 21
166.1314651112843
 31
0.0
 12
233.419343636529
 22
171.1314651112843
 32
0.0
 13
233.419343636529
 23
171.1314651112843
 33
0.0
  0
SOLID
  5
1A24
330
189E
100
AcDbEntity
  8
2
 62
     0
100
AcDbTrace
 10
232.5860103031957
 20
96.13146411128427
 30
0.0
 11
234.2526769698624
 21
96.13146411128427
 31
0.0
 12
233.419343636529
 22
91.13146411128427
 32
0.0
 13
233.419343636529
 23
91.13146411128427
 33
0.0
  0
MTEXT
  5
1A25
330
189E
100
AcDbEntity
  8
2
 62
     0
100
AcDbMText
 10
229.919343636529
 20
131.1314646112843
 30
0.0
 40
5.0
 41
0.0
 71
     5
 72
     1
  1
\A1;%%C80
 11
0.0000000000000001
 21
1.0
 31
0.0
 73
     1
 44
1.0
1001
ACAD
1000
MTEXTBEGIN
1070
    73
1070
     1
1070
    44
1040
1.0
1070
    74
1070
     0
1000
MTEXTEND
  0
POINT
  5
1A26
330
189E
100
AcDbEntity
  8
DEFPOINTS
 62
     0
100
AcDbPoint
 10
205.7341546603168
 20
171.1314651112843
 30
0.0
  0
POINT
  5
1A27
330
189E
100
AcDbEntity
  8
DEFPOINTS
 62
     0
100
AcDbPoint
 10
205.7341546603168
 20
91.13146411128427
 30
0.0
  0
POINT
  5
1A28
330
189E
100
AcDbEntity
  8
DEFPOINTS
 62
     0
100
AcDbPoint
 10
233.419343636529
 20
91.13146411128427
 30
0.0
  0
ENDBLK
  5
18A0
330
189E
100
AcDbEntity
  8
0
100
AcDbBlockEnd
  0
BLOCK
  5
18AB
330
18AA
100
AcDbEntity
  8
0
100
AcDbBlockBegin
  2
*D7
 70
     1
 10
0.0
 20
0.0
 30
0.0
  3
*D7
  1

  0
LINE
  5
1A29
330
18AA
100
AcDbEntity
  8
SK2
 62
     0
370
    -2
100
AcDbLine
 10
-7.237763339683127
 20
153.0727061112843
 30
0.0
 11
-7.237763339683121
 21
242.0637630960216
 31
0.0
  0
LINE
  5
1A2A
330
18AA
100
AcDbEntity
  8
SK2
 62
     0
370
    -2
100
AcDbLine
 10
210.7622366603167
 20
170.8696938938088
 30
0.0
 11
210.7622366603167
 21
242.0637630960216
 31
0.0
  0
LINE
  5
1A2B
330
18AA
100
AcDbEntity
  8
SK2
 62
     0
370
    -2
100
AcDbLine
 10
-2.237763339683121
 20
241.0637630960216
 30
0.0
 11
205.7622366603167
 21
241.0637630960216
 31
0.0
  0
SOLID
  5
1A2C
330
18AA
100
AcDbEntity
  8
SK2
 62
     0
100
AcDbTrace
 10
-2.237763339683121
 20
241.8970964293549
 30
0.0
 11
-2.237763339683121
 21
240.2304297626883
 31
0.0
 12
-7.237763339683121
 22
241.0637630960216
 32
0.0
 13
-7.237763339683121
 23
241.0637630960216
 33
0.0
  0
SOLID
  5
1A2D
330
18AA
100
AcDbEntity
  8
SK2
 62
     0
100
AcDbTrace
 10
205.7622366603167
 20
241.8970964293549
 30
0.0
 11
205.7622366603167
 21
240.2304297626883
 31
0.0
 12
210.7622366603167
 22
241.0637630960216
 32
0.0
 13
210.7622366603167
 23
241.0637630960216
 33
0.0
  0
MTEXT
  5
1A2E
330
18AA
100
AcDbEntity
  8
SK2
 62
     0
100
AcDbMText
 10
101.7622366603168
 20
244.5637630960216
 30
0.0
 40
5.0
 41
0.0
 71
     5
 72
     1
  1
\A1;218
 73
     1
 44
1.0
1001
ACAD
1000
MTEXTBEGIN
1070
    73
1070
     1
1070
    44
1040
1.0
1070
    74
1070
     0
1000
MTEXTEND
  0
POINT
  5
1A2F
330
18AA
100
AcDbEntity
  8
DEFPOINTS
 62
     0
100
AcDbPoint
 10
-7.237763339683127
 20
152.0727061112843
 30
0.0
  0
POINT
  5
1A30
330
18AA
100
AcDbEntity
  8
DEFPOINTS
 62
     0
100
AcDbPoint
 10
210.7622366603167
 20
169.8696938938088
 30
0.0
  0
POINT
  5
1A31
330
18AA
100
AcDbEntity
  8
DEFPOINTS
 62
     0
100
AcDbPoint
 10
210.7622366603167
 20
241.0637630960216
 30
0.0
  0
ENDBLK
  5
18AC
330
18AA
100
AcDbEntity
  8
0
100
AcDbBlockEnd
  0
BLOCK
  5
18B7
330
18B6
100
AcDbEntity
  8
0
100
AcDbBlockBegin
  2
*D8
 70
     1
 10
0.0
 20
0.0
 30
0.0
  3
*D8
  1

  0
LINE
  5
1A17
330
18B6
100
AcDbEntity
  8
2
 62
     0
370
    -2
100
AcDbLine
 10
210.7622366603167
 20
170.8696938938088
 30
0.0
 11
210.7622366603167
 21
196.3619297547545
 31
0.0
  0
LINE
  5
1A18
330
18B6
100
AcDbEntity
  8
2
 62
     0
370
    -2
100
AcDbLine
 10
139.4622366603167
 20
169.2357281112843
 30
0.0
 11
139.4622366603167
 21
196.3619297547545
 31
0.0
  0
LINE
  5
1A19
330
18B6
100
AcDbEntity
  8
2
 62
     0
370
    -2
100
AcDbLine
 10
205.7622366603167
 20
195.3619297547545
 30
0.0
 11
144.4622366603167
 21
195.3619297547545
 31
0.0
  0
SOLID
  5
1A1A
330
18B6
100
AcDbEntity
  8
2
 62
     0
100
AcDbTrace
 10
205.7622366603167
 20
196.1952630880879
 30
0.0
 11
205.7622366603167
 21
194.5285964214212
 31
0.0
 12
210.7622366603167
 22
195.3619297547545
 32
0.0
 13
210.7622366603167
 23
195.3619297547545
 33
0.0
  0
SOLID
  5
1A1B
330
18B6
100
AcDbEntity
  8
2
 62
     0
100
AcDbTrace
 10
144.4622366603167
 20
196.1952630880879
 30
0.0
 11
144.4622366603167
 21
194.5285964214212
 31
0.0
 12
139.4622366603167
 22
195.3619297547545
 32
0.0
 13
139.4622366603167
 23
195.3619297547545
 33
0.0
  0
MTEXT
  5
1A1C
330
18B6
100
AcDbEntity
  8
2
 62
     0
100
AcDbMText
 10
175.1122366603167
 20
198.8619297547545
 30
0.0
 40
5.0
 41
0.0
 71
     5
 72
     1
  1
\A1;71.3
 73
     1
 44
1.0
1001
ACAD
1000
MTEXTBEGIN
1070
    73
1070
     1
1070
    44
1040
1.0
1070
    74
1070
     0
1000
MTEXTEND
  0
POINT
  5
1A1D
330
18B6
100
AcDbEntity
  8
DEFPOINTS
 62
     0
100
AcDbPoint
 10
210.7622366603167
 20
169.8696938938088
 30
0.0
  0
POINT
  5
1A1E
330
18B6
100
AcDbEntity
  8
DEFPOINTS
 62
     0
100
AcDbPoint
 10
139.4622366603167
 20
168.2357281112843
 30
0.0
  0
POINT
  5
1A1F
330
18B6
100
AcDbEntity
  8
DEFPOINTS
 62
     0
100
AcDbPoint
 10
139.4622366603167
 20
195.3619297547545
 30
0.0
  0
ENDBLK
  5
18B8
330
18B6
100
AcDbEntity
  8
0
100
AcDbBlockEnd
  0
BLOCK
  5
18C3
330
18C2
100
AcDbEntity
  8
0
100
AcDbBlockBegin
  2
*D9
 70
     1
 10
0.0
 20
0.0
 30
0.0
  3
*D9
  1

  0
LINE
  5
1A0E
330
18C2
100
AcDbEntity
  8
2
 62
     0
370
    -2
100
AcDbLine
 10
210.7622366603167
 20
170.8696938938088
 30
0.0
 11
210.7622366603167
 21
225.7002249924142
 31
0.0
  0
LINE
  5
1A0F
330
18C2
100
AcDbEntity
  8
2
 62
     0
370
    -2
100
AcDbLine
 10
94.46223666031677
 20
169.2531146112843
 30
0.0
 11
94.46223666031677
 21
225.7002249924142
 31
0.0
  0
LINE
  5
1A10
330
18C2
100
AcDbEntity
  8
2
 62
     0
370
    -2
100
AcDbLine
 10
205.7622366603167
 20
224.7002249924142
 30
0.0
 11
99.46223666031677
 21
224.7002249924142
 31
0.0
  0
SOLID
  5
1A11
330
18C2
100
AcDbEntity
  8
2
 62
     0
100
AcDbTrace
 10
205.7622366603167
 20
225.5335583257475
 30
0.0
 11
205.7622366603167
 21
223.8668916590808
 31
0.0
 12
210.7622366603167
 22
224.7002249924142
 32
0.0
 13
210.7622366603167
 23
224.7002249924142
 33
0.0
  0
SOLID
  5
1A12
330
18C2
100
AcDbEntity
  8
2
 62
     0
100
AcDbTrace
 10
99.46223666031677
 20
225.5335583257475
 30
0.0
 11
99.46223666031677
 21
223.8668916590808
 31
0.0
 12
94.46223666031677
 22
224.7002249924142
 32
0.0
 13
94.46223666031677
 23
224.7002249924142
 33
0.0
  0
MTEXT
  5
1A13
330
18C2
100
AcDbEntity
  8
2
 62
     0
100
AcDbMText
 10
152.6122366603167
 20
228.2002249924142
 30
0.0
 40
5.0
 41
0.0
 71
     5
 72
     1
  1
\A1;116.3
 73
     1
 44
1.0
1001
ACAD
1000
MTEXTBEGIN
1070
    73
1070
     1
1070
    44
1040
1.0
1070
    74
1070
     0
1000
MTEXTEND
  0
POINT
  5
1A14
330
18C2
100
AcDbEntity
  8
DEFPOINTS
 62
     0
100
AcDbPoint
 10
210.7622366603167
 20
169.8696938938088
 30
0.0
  0
POINT
  5
1A15
330
18C2
100
AcDbEntity
  8
DEFPOINTS
 62
     0
100
AcDbPoint
 10
94.46223666031677
 20
168.2531146112843
 30
0.0
  0
POINT
  5
1A16
330
18C2
100
AcDbEntity
  8
DEFPOINTS
 62
     0
100
AcDbPoint
 10
94.46223666031677
 20
224.7002249924142
 30
0.0
  0
ENDBLK
  5
18C4
330
18C2
100
AcDbEntity
  8
0
100
AcDbBlockEnd
  0
BLOCK
  5
1973
330
1972
100
AcDbEntity
  8
0
100
AcDbBlockBegin
  2
*D10
 70
     1
 10
0.0
 20
0.0
 30
0.0
  3
*D10
  1

  0
LINE
  5
1A05
330
1972
100
AcDbEntity
  8
2
 62
     0
370
    -2
100
AcDbLine
 10
210.7622366603167
 20
170.8696938938088
 30
0.0
 11
210.7622366603167
 21
211.885184465608
 31
0.0
  0
LINE
  5
1A06
330
1972
100
AcDbEntity
  8
2
 62
     0
370
    -2
100
AcDbLine
 10
130.7622366603166
 20
169.2357281112843
 30
0.0
 11
130.7622366603166
 21
211.885184465608
 31
0.0
  0
LINE
  5
1A07
330
1972
100
AcDbEntity
  8
2
 62
     0
370
    -2
100
AcDbLine
 10
205.7622366603167
 20
210.8851844656081
 30
0.0
 11
135.7622366603166
 21
210.8851844656081
 31
0.0
  0
SOLID
  5
1A08
330
1972
100
AcDbEntity
  8
2
 62
     0
100
AcDbTrace
 10
205.7622366603167
 20
211.7185177989414
 30
0.0
 11
205.7622366603167
 21
210.0518511322747
 31
0.0
 12
210.7622366603167
 22
210.8851844656081
 32
0.0
 13
210.7622366603167
 23
210.8851844656081
 33
0.0
  0
SOLID
  5
1A09
330
1972
100
AcDbEntity
  8
2
 62
     0
100
AcDbTrace
 10
135.7622366603166
 20
211.7185177989414
 30
0.0
 11
135.7622366603166
 21
210.0518511322747
 31
0.0
 12
130.7622366603166
 22
210.8851844656081
 32
0.0
 13
130.7622366603166
 23
210.8851844656081
 33
0.0
  0
MTEXT
  5
1A0A
330
1972
100
AcDbEntity
  8
2
 62
     0
100
AcDbMText
 10
170.7622366603166
 20
214.3851844656081
 30
0.0
 40
5.0
 41
0.0
 71
     5
 72
     1
  1
\A1;80
 73
     1
 44
1.0
1001
ACAD
1000
MTEXTBEGIN
1070
    73
1070
     1
1070
    44
1040
1.0
1070
    74
1070
     0
1000
MTEXTEND
  0
POINT
  5
1A0B
330
1972
100
AcDbEntity
  8
DEFPOINTS
 62
     0
100
AcDbPoint
 10
210.7622366603167
 20
169.8696938938088
 30
0.0
  0
POINT
  5
1A0C
330
1972
100
AcDbEntity
  8
DEFPOINTS
 62
     0
100
AcDbPoint
 10
130.7622366603166
 20
168.2357281112843
 30
0.0
  0
POINT
  5
1A0D
330
1972
100
AcDbEntity
  8
DEFPOINTS
 62
     0
100
AcDbPoint
 10
130.7622366603166
 20
210.8851844656081
 30
0.0
  0
ENDBLK
  5
1974
330
1972
100
AcDbEntity
  8
0
100
AcDbBlockEnd
  0
ENDSEC
  0
SECTION
  2
ENTITIES
  0
LINE
  5
15D9
330
19
100
AcDbEntity
  8
1
100
AcDbLine
 10
205.7341546603168
 20
150.6877161112843
 30
0.0
 11
205.7341546603168
 21
91.0886161112843
 31
0.0
  0
LINE
  5
15DA
330
19
100
AcDbEntity
  8
1
100
AcDbLine
 10
165.0263566603167
 20
95.2449281112843
 30
0.0
 11
165.0263566603167
 21
94.88982811128428
 31
0.0
  0
LINE
  5
15DB
330
19
100
AcDbEntity
  8
1
100
AcDbLine
 10
165.0263566603167
 20
94.88982811128428
 30
0.0
 11
165.0263566603167
 21
94.61660511128426
 31
0.0
  0
LINE
  5
15DC
330
19
100
AcDbEntity
  8
1
100
AcDbLine
 10
165.0263566603167
 20
94.61660511128426
 30
0.0
 11
165.0263566603167
 21
94.50731511128427
 31
0.0
  0
LINE
  5
15DD
330
19
100
AcDbEntity
  8
1
100
AcDbLine
 10
165.0263566603167
 20
94.50731511128427
 30
0.0
 11
164.9237416603168
 21
94.4116961112843
 31
0.0
  0
LINE
  5
15DE
330
19
100
AcDbEntity
  8
1
100
AcDbLine
 10
164.9237416603168
 20
94.4116961112843
 30
0.0
 11
164.7331406603168
 21
94.23416311128427
 31
0.0
  0
LINE
  5
15DF
330
19
100
AcDbEntity
  8
1
100
AcDbLine
 10
164.7331406603168
 20
94.23416311128427
 30
0.0
 11
164.6304866603167
 21
94.1385801112843
 31
0.0
  0
LINE
  5
15E0
330
19
100
AcDbEntity
  8
1
100
AcDbLine
 10
163.4431466603167
 20
98.19560211128433
 30
0.0
 11
165.0263566603167
 21
95.2449281112843
 31
0.0
  0
LINE
  5
15E1
330
19
100
AcDbEntity
  8
1
100
AcDbLine
 10
162.2556896603167
 20
98.56437411128432
 30
0.0
 11
162.6367726603167
 21
98.7283081112843
 31
0.0
  0
LINE
  5
15E2
330
19
100
AcDbEntity
  8
1
100
AcDbLine
 10
162.6367726603167
 20
98.7283081112843
 30
0.0
 11
162.9299896603168
 21
98.64632311128431
 31
0.0
  0
LINE
  5
15E3
330
19
100
AcDbEntity
  8
1
100
AcDbLine
 10
162.9299896603168
 20
98.64632311128431
 30
0.0
 11
163.0472756603167
 21
98.56437411128432
 31
0.0
  0
LINE
  5
15E4
330
19
100
AcDbEntity
  8
1
100
AcDbLine
 10
163.0472756603167
 20
98.56437411128432
 30
0.0
 11
163.1499296603168
 21
98.46875411128428
 31
0.0
  0
LINE
  5
15E5
330
19
100
AcDbEntity
  8
1
100
AcDbLine
 10
163.1499296603168
 20
98.46875411128428
 30
0.0
 11
163.3405296603168
 21
98.29122311128429
 31
0.0
  0
LINE
  5
15E6
330
19
100
AcDbEntity
  8
1
100
AcDbLine
 10
163.3405296603168
 20
98.29122311128429
 30
0.0
 11
163.4431466603167
 21
98.19560211128433
 31
0.0
  0
LINE
  5
15E7
330
19
100
AcDbEntity
  8
1
100
AcDbLine
 10
153.8263226603167
 20
96.3378251112843
 30
0.0
 11
153.9435706603167
 21
96.3514591112843
 31
0.0
  0
LINE
  5
15E8
330
19
100
AcDbEntity
  8
1
100
AcDbLine
 10
153.1519846603167
 20
95.88706911128427
 30
0.0
 11
153.1519846603167
 21
95.98272411128432
 31
0.0
  0
LINE
  5
15E9
330
19
100
AcDbEntity
  8
1
100
AcDbLine
 10
153.1519846603167
 20
95.61384411128431
 30
0.0
 11
153.1519846603167
 21
95.70946311128428
 31
0.0
  0
LINE
  5
15EA
330
19
100
AcDbEntity
  8
1
100
AcDbLine
 10
153.1519846603167
 20
95.70946311128428
 30
0.0
 11
153.1519846603167
 21
95.88706911128427
 31
0.0
  0
LINE
  5
15EB
330
19
100
AcDbEntity
  8
1
100
AcDbLine
 10
153.1519846603167
 20
95.98272411128432
 30
0.0
 11
153.5331466603168
 21
96.24220611128428
 31
0.0
  0
LINE
  5
15EC
330
19
100
AcDbEntity
  8
1
100
AcDbLine
 10
153.5331466603168
 20
96.24220611128428
 30
0.0
 11
153.8263226603167
 21
96.3378251112843
 31
0.0
  0
LINE
  5
15ED
330
19
100
AcDbEntity
  8
1
100
AcDbLine
 10
153.9435706603167
 20
96.3514591112843
 30
0.0
 11
162.2556896603167
 21
98.56437411128432
 31
0.0
  0
LINE
  5
15EE
330
19
100
AcDbEntity
  8
1
100
AcDbLine
 10
153.9435706603167
 20
91.9255211112843
 30
0.0
 11
153.9289386603167
 21
91.93919011128427
 31
0.0
  0
LINE
  5
15EF
330
19
100
AcDbEntity
  8
1
100
AcDbLine
 10
153.9289386603167
 20
91.93919011128427
 30
0.0
 11
153.8263226603167
 21
92.03481011128427
 31
0.0
  0
LINE
  5
15F0
330
19
100
AcDbEntity
  8
1
100
AcDbLine
 10
154.6179086603168
 20
91.84357211128427
 30
0.0
 11
154.3247716603167
 21
91.76162211128431
 31
0.0
  0
LINE
  5
15F1
330
19
100
AcDbEntity
  8
1
100
AcDbLine
 10
154.7351946603168
 20
91.9255211112843
 30
0.0
 11
154.6179086603168
 21
91.84357211128427
 31
0.0
  0
LINE
  5
15F2
330
19
100
AcDbEntity
  8
1
100
AcDbLine
 10
154.3247716603167
 20
91.76162211128431
 30
0.0
 11
153.9435706603167
 21
91.9255211112843
 31
0.0
  0
LINE
  5
15F3
330
19
100
AcDbEntity
  8
1
100
AcDbLine
 10
153.8263226603167
 20
92.03481011128427
 30
0.0
 11
153.5478556603167
 21
92.29439911128428
 31
0.0
  0
LINE
  5
15F4
330
19
100
AcDbEntity
  8
1
100
AcDbLine
 10
164.6304866603167
 20
94.1385801112843
 30
0.0
 11
154.7351946603168
 21
91.9255211112843
 31
0.0
  0
LINE
  5
15F5
330
19
100
AcDbEntity
  8
1
100
AcDbLine
 10
153.5478556603167
 20
92.29439911128428
 30
0.0
 11
153.1519846603167
 21
95.61384411128431
 31
0.0
  0
LINE
  5
15F6
330
19
100
AcDbEntity
  8
1
100
AcDbLine
 10
204.1186306603167
 20
111.7715961112843
 30
0.0
 11
205.7341546603168
 21
112.0101641112843
 31
0.0
  0
LINE
  5
15F7
330
19
100
AcDbEntity
  8
1
100
AcDbLine
 10
116.6666046603167
 20
184.2164881112843
 30
0.0
 11
118.1657586603168
 21
184.2164881112843
 31
0.0
  0
LINE
  5
15F8
330
19
100
AcDbEntity
  8
1
100
AcDbLine
 10
100.6554156603167
 20
184.4561891112843
 30
0.0
 11
102.5366916603168
 21
184.4561891112843
 31
0.0
  0
LINE
  5
15F9
330
19
100
AcDbEntity
  8
1
100
AcDbLine
 10
208.8682626603167
 20
168.6182781112843
 30
0.0
 11
208.8682626603167
 21
168.6046081112842
 31
0.0
  0
LINE
  5
15FA
330
19
100
AcDbEntity
  8
1
100
AcDbLine
 10
208.8682626603167
 20
168.7138601112843
 30
0.0
 11
208.8682626603167
 21
168.6182781112843
 31
0.0
  0
LINE
  5
15FB
330
19
100
AcDbEntity
  8
1
100
AcDbLine
 10
208.8682626603167
 20
168.9733781112843
 30
0.0
 11
208.8682626603167
 21
168.7138601112843
 31
0.0
  0
LINE
  5
15FC
330
19
100
AcDbEntity
  8
1
100
AcDbLine
 10
208.4871406603167
 20
168.9733781112843
 30
0.0
 11
208.8682626603167
 21
168.9733781112843
 31
0.0
  0
LINE
  5
15FD
330
19
100
AcDbEntity
  8
1
100
AcDbLine
 10
208.1939246603168
 20
168.9733781112843
 30
0.0
 11
208.4871406603167
 21
168.9733781112843
 31
0.0
  0
LINE
  5
15FE
330
19
100
AcDbEntity
  8
1
100
AcDbLine
 10
208.0766376603167
 20
168.9733781112843
 30
0.0
 11
208.1939246603168
 21
168.9733781112843
 31
0.0
  0
LINE
  5
15FF
330
19
100
AcDbEntity
  8
1
100
AcDbLine
 10
210.8473446603168
 20
169.7109941112843
 30
0.0
 11
210.8473446603168
 21
169.6154101112843
 31
0.0
  0
LINE
  5
1600
330
19
100
AcDbEntity
  8
1
100
AcDbLine
 10
210.8473446603168
 20
169.4378431112843
 30
0.0
 11
210.8473446603168
 21
169.3422601112843
 31
0.0
  0
LINE
  5
1601
330
19
100
AcDbEntity
  8
1
100
AcDbLine
 10
210.8473446603168
 20
169.6154101112843
 30
0.0
 11
210.8473446603168
 21
169.4378431112843
 31
0.0
  0
LINE
  5
1602
330
19
100
AcDbEntity
  8
1
100
AcDbLine
 10
210.7447676603168
 20
169.9022681112843
 30
0.0
 11
210.8473446603168
 21
169.7109941112843
 31
0.0
  0
LINE
  5
1603
330
19
100
AcDbEntity
  8
1
100
AcDbLine
 10
210.5542056603167
 20
170.2575151112843
 30
0.0
 11
210.7447676603168
 21
169.9022681112843
 31
0.0
  0
LINE
  5
1604
330
19
100
AcDbEntity
  8
1
100
AcDbLine
 10
210.4516286603168
 20
170.4487881112843
 30
0.0
 11
210.5542056603167
 21
170.2575151112843
 31
0.0
  0
LINE
  5
1605
330
19
100
AcDbEntity
  8
1
100
AcDbLine
 10
208.9708786603168
 20
159.8484601112843
 30
0.0
 11
208.7656466603168
 21
159.6572581112843
 31
0.0
  0
LINE
  5
1606
330
19
100
AcDbEntity
  8
1
100
AcDbLine
 10
208.7656466603168
 20
159.6572581112843
 30
0.0
 11
208.4725076603167
 21
159.3839961112843
 31
0.0
  0
LINE
  5
1607
330
19
100
AcDbEntity
  8
1
100
AcDbLine
 10
209.2641326603167
 20
160.1216111112843
 30
0.0
 11
208.9708786603168
 21
159.8484601112843
 31
0.0
  0
LINE
  5
1608
330
19
100
AcDbEntity
  8
1
100
AcDbLine
 10
209.2641326603167
 20
160.4768191112843
 30
0.0
 11
209.2641326603167
 21
160.1216111112843
 31
0.0
  0
LINE
  5
1609
330
19
100
AcDbEntity
  8
1
100
AcDbLine
 10
209.2641326603167
 20
160.7500081112843
 30
0.0
 11
209.2641326603167
 21
160.4768191112843
 31
0.0
  0
LINE
  5
160A
330
19
100
AcDbEntity
  8
1
100
AcDbLine
 10
209.2641326603167
 20
160.8592601112843
 30
0.0
 11
209.2641326603167
 21
160.7500081112843
 31
0.0
  0
LINE
  5
160B
330
19
100
AcDbEntity
  8
1
100
AcDbLine
 10
207.5782676603167
 20
160.5997801112843
 30
0.0
 11
207.3876686603167
 21
160.5041601112843
 31
0.0
  0
LINE
  5
160C
330
19
100
AcDbEntity
  8
1
100
AcDbLine
 10
207.6809226603168
 20
160.8592601112843
 30
0.0
 11
207.5782676603167
 21
160.5997801112843
 31
0.0
  0
LINE
  5
160D
330
19
100
AcDbEntity
  8
1
100
AcDbLine
 10
207.7834986603168
 20
160.9548811112843
 30
0.0
 11
207.6809226603168
 21
160.8592601112843
 31
0.0
  0
LINE
  5
160E
330
19
100
AcDbEntity
  8
1
100
AcDbLine
 10
207.9740616603167
 20
161.1325231112843
 30
0.0
 11
207.7834986603168
 21
160.9548811112843
 31
0.0
  0
LINE
  5
160F
330
19
100
AcDbEntity
  8
1
100
AcDbLine
 10
208.0766376603167
 20
161.2281401112843
 30
0.0
 11
207.9740616603167
 21
161.1325231112843
 31
0.0
  0
LINE
  5
1610
330
19
100
AcDbEntity
  8
1
100
AcDbLine
 10
210.8473446603168
 20
169.3422601112843
 30
0.0
 11
209.2641326603167
 21
160.8592601112843
 31
0.0
  0
LINE
  5
1611
330
19
100
AcDbEntity
  8
1
100
AcDbLine
 10
208.8682626603167
 20
168.6046081112842
 30
0.0
 11
208.0766376603167
 21
161.2281401112843
 31
0.0
  0
LINE
  5
1612
330
19
100
AcDbEntity
  8
1
100
AcDbLine
 10
203.2536926603168
 20
166.1594791112843
 30
0.0
 11
204.1186306603167
 21
166.3917301112843
 31
0.0
  0
LINE
  5
1613
330
19
100
AcDbEntity
  8
1
100
AcDbLine
 10
201.4358296603168
 20
171.1864021112843
 30
0.0
 11
204.4264386603168
 21
171.1864021112843
 31
0.0
  0
LINE
  5
1614
330
19
100
AcDbEntity
  8
1
100
AcDbLine
 10
202.4766996603168
 20
165.5174131112843
 30
0.0
 11
203.2536926603168
 21
166.1594791112843
 31
0.0
  0
LINE
  5
1615
330
19
100
AcDbEntity
  8
1
100
AcDbLine
 10
202.1395096603167
 20
164.5475851112843
 30
0.0
 11
202.4766996603168
 21
165.5174131112843
 31
0.0
  0
LINE
  5
1616
330
19
100
AcDbEntity
  8
1
100
AcDbLine
 10
200.9373836603167
 20
168.2220591112843
 30
0.0
 11
200.9520536603168
 21
168.2357281112843
 31
0.0
  0
LINE
  5
1617
330
19
100
AcDbEntity
  8
1
100
AcDbLine
 10
200.8348056603167
 20
168.1264751112843
 30
0.0
 11
200.9373836603167
 21
168.2220591112843
 31
0.0
  0
LINE
  5
1618
330
19
100
AcDbEntity
  8
1
100
AcDbLine
 10
200.5562996603168
 20
167.8669941112843
 30
0.0
 11
200.8348056603167
 21
168.1264751112843
 31
0.0
  0
LINE
  5
1619
330
19
100
AcDbEntity
  8
1
100
AcDbLine
 10
200.5562996603168
 20
167.7713391112843
 30
0.0
 11
200.5562996603168
 21
167.8669941112843
 31
0.0
  0
LINE
  5
161A
330
19
100
AcDbEntity
  8
1
100
AcDbLine
 10
200.5562996603168
 20
167.5937341112843
 30
0.0
 11
200.5562996603168
 21
167.7713391112843
 31
0.0
  0
LINE
  5
161B
330
19
100
AcDbEntity
  8
1
100
AcDbLine
 10
200.5562996603168
 20
167.4981151112842
 30
0.0
 11
200.5562996603168
 21
167.5937341112843
 31
0.0
  0
LINE
  5
161C
330
19
100
AcDbEntity
  8
1
100
AcDbLine
 10
200.1751386603168
 20
169.3285891112843
 30
0.0
 11
200.5562996603168
 21
169.3422601112843
 31
0.0
  0
LINE
  5
161D
330
19
100
AcDbEntity
  8
1
100
AcDbLine
 10
204.1186306603167
 20
166.3917301112843
 30
0.0
 11
205.2619986603168
 21
166.1594791112843
 31
0.0
  0
LINE
  5
161E
330
19
100
AcDbEntity
  8
1
100
AcDbLine
 10
206.1416066603168
 20
165.5174131112843
 30
0.0
 11
206.4934266603168
 21
164.5475851112843
 31
0.0
  0
LINE
  5
161F
330
19
100
AcDbEntity
  8
1
100
AcDbLine
 10
205.2619986603168
 20
166.1594791112843
 30
0.0
 11
206.1416066603168
 21
165.5174131112843
 31
0.0
  0
LINE
  5
1620
330
19
100
AcDbEntity
  8
1
100
AcDbLine
 10
199.3688426603167
 20
168.9733781112843
 30
0.0
 11
199.3688426603167
 21
170.8175231112843
 31
0.0
  0
LINE
  5
1621
330
19
100
AcDbEntity
  8
1
100
AcDbLine
 10
199.7647136603168
 20
168.9733781112843
 30
0.0
 11
199.8819616603167
 21
169.2329691112843
 31
0.0
  0
LINE
  5
1622
330
19
100
AcDbEntity
  8
1
100
AcDbLine
 10
196.2024216603167
 20
167.4981151112842
 30
0.0
 11
196.5981756603167
 21
167.7713391112843
 31
0.0
  0
LINE
  5
1623
330
19
100
AcDbEntity
  8
1
100
AcDbLine
 10
195.4107966603167
 20
166.2140891112843
 30
0.0
 11
195.4107966603167
 21
166.5692271112843
 31
0.0
  0
LINE
  5
1624
330
19
100
AcDbEntity
  8
1
100
AcDbLine
 10
193.1384606603168
 20
166.6648821112843
 30
0.0
 11
193.3290596603167
 21
166.4873141112843
 31
0.0
  0
LINE
  5
1625
330
19
100
AcDbEntity
  8
1
100
AcDbLine
 10
195.4107966603167
 20
166.0228491112843
 30
0.0
 11
195.4107966603167
 21
166.2140891112843
 31
0.0
  0
LINE
  5
1626
330
19
100
AcDbEntity
  8
1
100
AcDbLine
 10
193.3290596603167
 20
166.4873141112843
 30
0.0
 11
193.4317156603168
 21
166.3917301112843
 31
0.0
  0
LINE
  5
1627
330
19
100
AcDbEntity
  8
1
100
AcDbLine
 10
195.4107966603167
 20
166.5692271112843
 30
0.0
 11
195.4107966603167
 21
166.7604641112843
 31
0.0
  0
LINE
  5
1628
330
19
100
AcDbEntity
  8
1
100
AcDbLine
 10
195.9091666603166
 20
167.2249641112843
 30
0.0
 11
196.2024216603167
 21
167.4981151112842
 31
0.0
  0
LINE
  5
1629
330
19
100
AcDbEntity
  8
1
100
AcDbLine
 10
195.7039336603168
 20
167.0337251112843
 30
0.0
 11
195.9091666603166
 21
167.2249641112843
 31
0.0
  0
LINE
  5
162A
330
19
100
AcDbEntity
  8
1
100
AcDbLine
 10
195.4107966603167
 20
166.7604641112843
 30
0.0
 11
195.7039336603168
 21
167.0337251112843
 31
0.0
  0
LINE
  5
162B
330
19
100
AcDbEntity
  8
1
100
AcDbLine
 10
193.0358446603167
 20
166.7604641112843
 30
0.0
 11
193.1384606603168
 21
166.6648821112843
 31
0.0
  0
LINE
  5
162C
330
19
100
AcDbEntity
  8
1
100
AcDbLine
 10
193.0211736603168
 20
166.7604641112843
 30
0.0
 11
193.0358446603167
 21
166.7604641112843
 31
0.0
  0
LINE
  5
162D
330
19
100
AcDbEntity
  8
1
100
AcDbLine
 10
192.9185576603167
 20
166.7604641112843
 30
0.0
 11
193.0211736603168
 21
166.7604641112843
 31
0.0
  0
LINE
  5
162E
330
19
100
AcDbEntity
  8
1
100
AcDbLine
 10
192.6400906603168
 20
166.7604641112843
 30
0.0
 11
192.9185576603167
 21
166.7604641112843
 31
0.0
  0
LINE
  5
162F
330
19
100
AcDbEntity
  8
1
100
AcDbLine
 10
198.0640986603168
 20
168.3313841112841
 30
0.0
 11
198.5625476603168
 21
168.5089891112843
 31
0.0
  0
LINE
  5
1630
330
19
100
AcDbEntity
  8
1
100
AcDbLine
 10
198.5625476603168
 20
168.5089891112843
 30
0.0
 11
198.9730886603167
 21
168.6046081112842
 31
0.0
  0
LINE
  5
1631
330
19
100
AcDbEntity
  8
1
100
AcDbLine
 10
199.3835136603166
 20
168.9597101112843
 30
0.0
 11
199.7647136603168
 21
168.9733781112843
 31
0.0
  0
LINE
  5
1632
330
19
100
AcDbEntity
  8
1
100
AcDbLine
 10
199.0903746603168
 20
168.8640911112843
 30
0.0
 11
199.3835136603166
 21
168.9597101112843
 31
0.0
  0
LINE
  5
1633
330
19
100
AcDbEntity
  8
1
100
AcDbLine
 10
198.9730886603167
 20
168.6046081112842
 30
0.0
 11
199.0903746603168
 21
168.8640911112843
 31
0.0
  0
LINE
  5
1634
330
19
100
AcDbEntity
  8
1
100
AcDbLine
 10
196.9939676603168
 20
167.9625781112843
 30
0.0
 11
197.3897216603168
 21
168.2357281112843
 31
0.0
  0
LINE
  5
1635
330
19
100
AcDbEntity
  8
1
100
AcDbLine
 10
196.5981756603167
 20
167.7713391112843
 30
0.0
 11
196.9939676603168
 21
167.9625781112843
 31
0.0
  0
LINE
  5
1636
330
19
100
AcDbEntity
  8
1
100
AcDbLine
 10
197.3897216603168
 20
168.2357281112843
 30
0.0
 11
198.0640986603168
 21
168.3313841112841
 31
0.0
  0
LINE
  5
1637
330
19
100
AcDbEntity
  8
1
100
AcDbLine
 10
194.6994506603167
 20
171.1230211112843
 30
0.0
 11
198.1813466603167
 21
171.1864021112843
 31
0.0
  0
LINE
  5
1638
330
19
100
AcDbEntity
  8
1
100
AcDbLine
 10
198.1813466603167
 20
171.1864021112843
 30
0.0
 11
201.4358296603168
 21
171.1864021112843
 31
0.0
  0
LINE
  5
1639
330
19
100
AcDbEntity
  8
1
100
AcDbLine
 10
199.8819616603167
 20
169.2329691112843
 30
0.0
 11
200.1751386603168
 21
169.3285891112843
 31
0.0
  0
LINE
  5
163A
330
19
100
AcDbEntity
  8
1
100
AcDbLine
 10
204.1186306603167
 20
162.3345261112843
 30
0.0
 11
203.2536926603168
 21
162.6623941112843
 31
0.0
  0
LINE
  5
163B
330
19
100
AcDbEntity
  8
1
100
AcDbLine
 10
203.2536926603168
 20
162.6623941112843
 30
0.0
 11
202.4766996603168
 21
163.4820301112843
 31
0.0
  0
LINE
  5
163C
330
19
100
AcDbEntity
  8
1
100
AcDbLine
 10
205.2619986603168
 20
162.6623941112843
 30
0.0
 11
204.1186306603167
 21
162.3345261112843
 31
0.0
  0
LINE
  5
163D
330
19
100
AcDbEntity
  8
1
100
AcDbLine
 10
206.1416066603168
 20
163.4820301112843
 30
0.0
 11
205.2619986603168
 21
162.6623941112843
 31
0.0
  0
LINE
  5
163E
330
19
100
AcDbEntity
  8
1
100
AcDbLine
 10
196.4516256603167
 20
159.1381131112843
 30
0.0
 11
195.5573846603167
 21
159.8757631112843
 31
0.0
  0
LINE
  5
163F
330
19
100
AcDbEntity
  8
1
100
AcDbLine
 10
193.8274306603168
 20
159.0151171112843
 30
0.0
 11
193.6955116603167
 21
159.9986871112843
 31
0.0
  0
LINE
  5
1640
330
19
100
AcDbEntity
  8
1
100
AcDbLine
 10
193.5928956603167
 20
158.3048081112842
 30
0.0
 11
193.8274306603168
 21
159.0151171112843
 31
0.0
  0
LINE
  5
1641
330
19
100
AcDbEntity
  8
1
100
AcDbLine
 10
193.0065026603167
 20
157.7583951112843
 30
0.0
 11
193.5928956603167
 21
158.3048081112842
 31
0.0
  0
LINE
  5
1642
330
19
100
AcDbEntity
  8
1
100
AcDbLine
 10
197.7856316603167
 20
158.6463461112843
 30
0.0
 11
196.4516256603167
 21
159.1381131112843
 31
0.0
  0
LINE
  5
1643
330
19
100
AcDbEntity
  8
1
100
AcDbLine
 10
197.4043926603165
 20
159.2883411112843
 30
0.0
 11
197.3897216603168
 21
159.3839961112843
 31
0.0
  0
LINE
  5
1644
330
19
100
AcDbEntity
  8
1
100
AcDbLine
 10
197.5070476603167
 20
159.1107361112843
 30
0.0
 11
197.4043926603165
 21
159.2883411112843
 31
0.0
  0
LINE
  5
1645
330
19
100
AcDbEntity
  8
1
100
AcDbLine
 10
197.7856316603167
 20
159.0151171112843
 30
0.0
 11
197.5070476603167
 21
159.1107361112843
 31
0.0
  0
LINE
  5
1646
330
19
100
AcDbEntity
  8
1
100
AcDbLine
 10
197.8882086603167
 20
158.7556361112843
 30
0.0
 11
197.7856316603167
 21
159.0151171112843
 31
0.0
  0
LINE
  5
1647
330
19
100
AcDbEntity
  8
1
100
AcDbLine
 10
198.0787296603167
 20
158.6600171112843
 30
0.0
 11
197.8882086603167
 21
158.7556361112843
 31
0.0
  0
LINE
  5
1648
330
19
100
AcDbEntity
  8
1
100
AcDbLine
 10
198.1813466603167
 20
158.6463461112843
 30
0.0
 11
198.0787296603167
 21
158.6600171112843
 31
0.0
  0
LINE
  5
1649
330
19
100
AcDbEntity
  8
1
100
AcDbLine
 10
195.4840326603167
 20
162.2799171112843
 30
0.0
 11
196.6567796603168
 21
163.3727771112843
 31
0.0
  0
LINE
  5
164A
330
19
100
AcDbEntity
  8
1
100
AcDbLine
 10
195.5573846603167
 20
159.8757631112843
 30
0.0
 11
195.0149256603167
 21
160.8592601112843
 31
0.0
  0
LINE
  5
164B
330
19
100
AcDbEntity
  8
1
100
AcDbLine
 10
193.6955116603167
 20
159.9986871112843
 30
0.0
 11
193.2997566603168
 21
160.7363371112843
 31
0.0
  0
LINE
  5
164C
330
19
100
AcDbEntity
  8
1
100
AcDbLine
 10
195.0149256603167
 20
160.8592601112843
 30
0.0
 11
195.4840326603167
 21
162.2799171112843
 31
0.0
  0
LINE
  5
164D
330
19
100
AcDbEntity
  8
1
100
AcDbLine
 10
193.2997566603168
 20
160.7363371112843
 30
0.0
 11
192.6400906603168
 21
161.2281401112843
 31
0.0
  0
LINE
  5
164E
330
19
100
AcDbEntity
  8
1
100
AcDbLine
 10
199.3688426603167
 20
160.4768571112843
 30
0.0
 11
199.3688426603167
 21
160.4905251112843
 31
0.0
  0
LINE
  5
164F
330
19
100
AcDbEntity
  8
1
100
AcDbLine
 10
199.3688426603167
 20
160.3812011112843
 30
0.0
 11
199.3688426603167
 21
160.4768571112843
 31
0.0
  0
LINE
  5
1650
330
19
100
AcDbEntity
  8
1
100
AcDbLine
 10
199.3688426603167
 20
160.1216111112843
 30
0.0
 11
199.3688426603167
 21
160.3812011112843
 31
0.0
  0
LINE
  5
1651
330
19
100
AcDbEntity
  8
1
100
AcDbLine
 10
199.4714586603167
 20
160.1216111112843
 30
0.0
 11
199.3688426603167
 21
160.1216111112843
 31
0.0
  0
LINE
  5
1652
330
19
100
AcDbEntity
  8
1
100
AcDbLine
 10
199.6620576603167
 20
160.1216111112843
 30
0.0
 11
199.4714586603167
 21
160.1216111112843
 31
0.0
  0
LINE
  5
1653
330
19
100
AcDbEntity
  8
1
100
AcDbLine
 10
199.7647136603168
 20
160.1216111112843
 30
0.0
 11
199.6620576603167
 21
160.1216111112843
 31
0.0
  0
LINE
  5
1654
330
19
100
AcDbEntity
  8
1
100
AcDbLine
 10
196.6567796603168
 20
163.3727771112843
 30
0.0
 11
198.1813466603167
 21
163.8099351112843
 31
0.0
  0
LINE
  5
1655
330
19
100
AcDbEntity
  8
1
100
AcDbLine
 10
207.2850526603168
 20
160.4905251112843
 30
0.0
 11
199.7647136603168
 21
160.1216111112843
 31
0.0
  0
LINE
  5
1656
330
19
100
AcDbEntity
  8
1
100
AcDbLine
 10
197.3897216603168
 20
159.3839961112843
 30
0.0
 11
198.9730886603167
 21
168.6046081112842
 31
0.0
  0
LINE
  5
1657
330
19
100
AcDbEntity
  8
1
100
AcDbLine
 10
195.0149256603167
 20
161.9657901112843
 30
0.0
 11
195.4107966603167
 21
166.0228491112843
 31
0.0
  0
LINE
  5
1658
330
19
100
AcDbEntity
  8
1
100
AcDbLine
 10
199.3688426603167
 20
160.4905251112843
 30
0.0
 11
200.5562996603168
 21
167.4981151112842
 31
0.0
  0
LINE
  5
1659
330
19
100
AcDbEntity
  8
1
100
AcDbLine
 10
202.4766996603168
 20
163.4820301112843
 30
0.0
 11
202.1395096603167
 21
164.5475851112843
 31
0.0
  0
LINE
  5
165A
330
19
100
AcDbEntity
  8
1
100
AcDbLine
 10
206.4934266603168
 20
164.5475851112843
 30
0.0
 11
206.1416066603168
 21
163.4820301112843
 31
0.0
  0
LINE
  5
165B
330
19
100
AcDbEntity
  8
1
100
AcDbLine
 10
200.5562996603168
 20
169.3422601112843
 30
0.0
 11
210.4516286603168
 21
170.4487881112843
 31
0.0
  0
LINE
  5
165C
330
19
100
AcDbEntity
  8
1
100
AcDbLine
 10
208.4725076603167
 20
159.3839961112843
 30
0.0
 11
198.1813466603167
 21
158.6463461112843
 31
0.0
  0
LINE
  5
165D
330
19
100
AcDbEntity
  8
1
100
AcDbLine
 10
200.9520536603168
 20
168.2357281112843
 30
0.0
 11
208.0766376603167
 21
168.9733781112843
 31
0.0
  0
LINE
  5
165E
330
19
100
AcDbEntity
  8
1
100
AcDbLine
 10
207.3876686603167
 20
160.5041601112843
 30
0.0
 11
207.2850526603168
 21
160.4905251112843
 31
0.0
  0
LINE
  5
165F
330
19
100
AcDbEntity
  8
1
100
AcDbLine
 10
204.4264386603168
 20
171.1864021112843
 30
0.0
 11
205.7341546603168
 21
171.1864021112843
 31
0.0
  0
LINE
  5
1660
330
19
100
AcDbEntity
  8
1
100
AcDbLine
 10
201.8749436603167
 20
150.4391951112842
 30
0.0
 11
205.7341546603168
 21
151.4003561112843
 31
0.0
  0
LINE
  5
1661
330
19
100
AcDbEntity
  8
1
100
AcDbLine
 10
203.4442526603168
 20
111.6623421112843
 30
0.0
 11
203.7374306603167
 21
111.7579261112843
 31
0.0
  0
LINE
  5
1662
330
19
100
AcDbEntity
  8
1
100
AcDbLine
 10
202.5353026603168
 20
111.0202751112843
 30
0.0
 11
202.9311346603168
 21
111.2935351112843
 31
0.0
  0
LINE
  5
1663
330
19
100
AcDbEntity
  8
1
100
AcDbLine
 10
202.1395096603167
 20
110.6650661112843
 30
0.0
 11
202.5353026603168
 21
111.0202751112843
 31
0.0
  0
LINE
  5
1664
330
19
100
AcDbEntity
  8
1
100
AcDbLine
 10
201.8316236603167
 20
110.2826251112843
 30
0.0
 11
202.1395096603167
 21
110.6650661112843
 31
0.0
  0
LINE
  5
1665
330
19
100
AcDbEntity
  8
1
100
AcDbLine
 10
202.9311346603168
 20
111.2935351112843
 30
0.0
 11
203.3270046603168
 21
111.4028251112843
 31
0.0
  0
LINE
  5
1666
330
19
100
AcDbEntity
  8
1
100
AcDbLine
 10
203.3270046603168
 20
111.4028251112843
 30
0.0
 11
203.4442526603168
 21
111.6623421112843
 31
0.0
  0
LINE
  5
1667
330
19
100
AcDbEntity
  8
1
100
AcDbLine
 10
203.7374306603167
 20
111.7579261112843
 30
0.0
 11
204.1186306603167
 21
111.7715961112843
 31
0.0
  0
LINE
  5
1668
330
19
100
AcDbEntity
  8
1
100
AcDbLine
 10
198.1666776603167
 20
110.7606841112843
 30
0.0
 11
198.1813466603167
 21
110.6650661112843
 31
0.0
  0
LINE
  5
1669
330
19
100
AcDbEntity
  8
1
100
AcDbLine
 10
198.0640986603168
 20
110.9383251112843
 30
0.0
 11
198.1666776603167
 21
110.7606841112843
 31
0.0
  0
LINE
  5
166A
330
19
100
AcDbEntity
  8
1
100
AcDbLine
 10
197.7856316603167
 20
111.0339441112843
 30
0.0
 11
198.0640986603168
 21
110.9383251112843
 31
0.0
  0
LINE
  5
166B
330
19
100
AcDbEntity
  8
1
100
AcDbLine
 10
197.6829766603168
 20
111.0339441112843
 30
0.0
 11
197.7856316603167
 21
111.0339441112843
 31
0.0
  0
LINE
  5
166C
330
19
100
AcDbEntity
  8
1
100
AcDbLine
 10
197.4923766603166
 20
111.0339441112843
 30
0.0
 11
197.6829766603168
 21
111.0339441112843
 31
0.0
  0
LINE
  5
166D
330
19
100
AcDbEntity
  8
1
100
AcDbLine
 10
197.3897216603168
 20
111.0339441112843
 30
0.0
 11
197.4923766603166
 21
111.0339441112843
 31
0.0
  0
LINE
  5
166E
330
19
100
AcDbEntity
  8
1
100
AcDbLine
 10
200.5416286603168
 20
108.8073591112843
 30
0.0
 11
200.9520536603168
 21
109.1898021112843
 31
0.0
  0
LINE
  5
166F
330
19
100
AcDbEntity
  8
1
100
AcDbLine
 10
200.0431806603167
 20
108.3428961112843
 30
0.0
 11
200.5416286603168
 21
108.8073591112843
 31
0.0
  0
LINE
  5
1670
330
19
100
AcDbEntity
  8
1
100
AcDbLine
 10
200.9520536603168
 20
109.1898021112843
 30
0.0
 11
201.5237756603168
 21
109.8181611112843
 31
0.0
  0
LINE
  5
1671
330
19
100
AcDbEntity
  8
1
100
AcDbLine
 10
199.4714586603167
 20
105.8840261112843
 30
0.0
 11
199.3688426603167
 21
105.8703921112843
 31
0.0
  0
LINE
  5
1672
330
19
100
AcDbEntity
  8
1
100
AcDbLine
 10
199.6620576603167
 20
105.9796821112843
 30
0.0
 11
199.4714586603167
 21
105.8840261112843
 31
0.0
  0
LINE
  5
1673
330
19
100
AcDbEntity
  8
1
100
AcDbLine
 10
199.7647136603168
 20
106.2392721112843
 30
0.0
 11
199.6620576603167
 21
105.9796821112843
 31
0.0
  0
LINE
  5
1674
330
19
100
AcDbEntity
  8
1
100
AcDbLine
 10
199.7647136603168
 20
106.3485261112843
 30
0.0
 11
199.7647136603168
 21
106.2392721112843
 31
0.0
  0
LINE
  5
1675
330
19
100
AcDbEntity
  8
1
100
AcDbLine
 10
199.7647136603168
 20
106.6217131112843
 30
0.0
 11
199.7647136603168
 21
106.3485261112843
 31
0.0
  0
LINE
  5
1676
330
19
100
AcDbEntity
  8
1
100
AcDbLine
 10
199.7647136603168
 20
106.9768861112843
 30
0.0
 11
199.7647136603168
 21
106.6217131112843
 31
0.0
  0
LINE
  5
1677
330
19
100
AcDbEntity
  8
1
100
AcDbLine
 10
199.3688426603167
 20
107.7145361112843
 30
0.0
 11
200.0431806603167
 21
108.3428961112843
 31
0.0
  0
LINE
  5
1678
330
19
100
AcDbEntity
  8
1
100
AcDbLine
 10
198.1813466603167
 20
110.6650661112843
 30
0.0
 11
199.7647136603168
 21
106.9768861112843
 31
0.0
  0
LINE
  5
1679
330
19
100
AcDbEntity
  8
1
100
AcDbLine
 10
201.5237756603168
 20
109.8181611112843
 30
0.0
 11
201.8316236603167
 21
110.2826251112843
 31
0.0
  0
LINE
  5
167A
330
19
100
AcDbEntity
  8
1
100
AcDbLine
 10
191.8485036603168
 20
165.0119391112843
 30
0.0
 11
191.8485036603168
 21
164.9163201112843
 31
0.0
  0
LINE
  5
167B
330
19
100
AcDbEntity
  8
1
100
AcDbLine
 10
191.8485036603168
 20
165.1895801112843
 30
0.0
 11
191.8485036603168
 21
165.0119391112843
 31
0.0
  0
LINE
  5
167C
330
19
100
AcDbEntity
  8
1
100
AcDbLine
 10
191.8485036603168
 20
165.2851991112843
 30
0.0
 11
191.8485036603168
 21
165.1895801112843
 31
0.0
  0
LINE
  5
167D
330
19
100
AcDbEntity
  8
1
100
AcDbLine
 10
191.4672646603168
 20
165.2851991112843
 30
0.0
 11
191.8485036603168
 21
165.2851991112843
 31
0.0
  0
LINE
  5
167E
330
19
100
AcDbEntity
  8
1
100
AcDbLine
 10
191.1740496603167
 20
165.2851991112843
 30
0.0
 11
191.4672646603168
 21
165.2851991112843
 31
0.0
  0
LINE
  5
167F
330
19
100
AcDbEntity
  8
1
100
AcDbLine
 10
191.0567236603167
 20
165.2851991112843
 30
0.0
 11
191.1740496603167
 21
165.2851991112843
 31
0.0
  0
LINE
  5
1680
330
19
100
AcDbEntity
  8
1
100
AcDbLine
 10
190.9541466603167
 20
168.6046081112842
 30
0.0
 11
191.0567236603167
 21
168.6046081112842
 31
0.0
  0
LINE
  5
1681
330
19
100
AcDbEntity
  8
1
100
AcDbLine
 10
190.7635846603167
 20
168.6046081112842
 30
0.0
 11
190.9541466603167
 21
168.6046081112842
 31
0.0
  0
LINE
  5
1682
330
19
100
AcDbEntity
  8
1
100
AcDbLine
 10
190.6610086603168
 20
168.6046081112842
 30
0.0
 11
190.7635846603167
 21
168.6046081112842
 31
0.0
  0
LINE
  5
1683
330
19
100
AcDbEntity
  8
1
100
AcDbLine
 10
191.4672646603168
 20
168.4953191112843
 30
0.0
 11
191.8485036603168
 21
168.2357281112843
 31
0.0
  0
LINE
  5
1684
330
19
100
AcDbEntity
  8
1
100
AcDbLine
 10
191.1740496603167
 20
168.5909751112843
 30
0.0
 11
191.4672646603168
 21
168.4953191112843
 31
0.0
  0
LINE
  5
1685
330
19
100
AcDbEntity
  8
1
100
AcDbLine
 10
191.0567236603167
 20
168.6046081112842
 30
0.0
 11
191.1740496603167
 21
168.5909751112843
 31
0.0
  0
LINE
  5
1686
330
19
100
AcDbEntity
  8
1
100
AcDbLine
 10
188.7746976603168
 20
170.7195831112843
 30
0.0
 11
191.6999696603167
 21
170.9558571112841
 31
0.0
  0
LINE
  5
1687
330
19
100
AcDbEntity
  8
1
100
AcDbLine
 10
185.5155056603167
 20
170.4487881112843
 30
0.0
 11
188.7746976603168
 21
170.7195831112843
 31
0.0
  0
LINE
  5
1688
330
19
100
AcDbEntity
  8
1
100
AcDbLine
 10
182.3489276603168
 20
165.6539331112843
 30
0.0
 11
181.1615896603167
 21
167.4981151112842
 31
0.0
  0
LINE
  5
1689
330
19
100
AcDbEntity
  8
1
100
AcDbLine
 10
181.2641656603168
 20
164.5475851112843
 30
0.0
 11
181.9531746603167
 21
164.5475851112843
 31
0.0
  0
LINE
  5
168A
330
19
100
AcDbEntity
  8
1
100
AcDbLine
 10
181.2641656603168
 20
167.8669941112843
 30
0.0
 11
181.4547256603167
 21
167.8669941112843
 31
0.0
  0
LINE
  5
168B
330
19
100
AcDbEntity
  8
1
100
AcDbLine
 10
179.5782616603167
 20
164.2743251112843
 30
0.0
 11
179.9740926603168
 21
164.5475851112843
 31
0.0
  0
LINE
  5
168C
330
19
100
AcDbEntity
  8
1
100
AcDbLine
 10
179.1824286603167
 20
164.0830871112843
 30
0.0
 11
179.5782616603167
 21
164.2743251112843
 31
0.0
  0
LINE
  5
168D
330
19
100
AcDbEntity
  8
1
100
AcDbLine
 10
180.6631006603168
 20
164.5475851112843
 30
0.0
 11
181.2641656603168
 21
164.5475851112843
 31
0.0
  0
LINE
  5
168E
330
19
100
AcDbEntity
  8
1
100
AcDbLine
 10
179.9740926603168
 20
164.5475851112843
 30
0.0
 11
180.6631006603168
 21
164.5475851112843
 31
0.0
  0
LINE
  5
168F
330
19
100
AcDbEntity
  8
1
100
AcDbLine
 10
181.1615896603167
 20
167.7713391112843
 30
0.0
 11
181.1615896603167
 21
167.8669941112843
 31
0.0
  0
LINE
  5
1690
330
19
100
AcDbEntity
  8
1
100
AcDbLine
 10
181.1615896603167
 20
167.5937341112843
 30
0.0
 11
181.1615896603167
 21
167.7713391112843
 31
0.0
  0
LINE
  5
1691
330
19
100
AcDbEntity
  8
1
100
AcDbLine
 10
181.1615896603167
 20
167.4981151112842
 30
0.0
 11
181.1615896603167
 21
167.5937341112843
 31
0.0
  0
LINE
  5
1692
330
19
100
AcDbEntity
  8
1
100
AcDbLine
 10
181.1615896603167
 20
167.8669941112843
 30
0.0
 11
181.2641656603168
 21
167.8669941112843
 31
0.0
  0
LINE
  5
1693
330
19
100
AcDbEntity
  8
1
100
AcDbLine
 10
182.6421436603167
 20
165.6403001112843
 30
0.0
 11
182.7447996603168
 21
165.6539331112843
 31
0.0
  0
LINE
  5
1694
330
19
100
AcDbEntity
  8
1
100
AcDbLine
 10
182.4515436603167
 20
165.5446801112843
 30
0.0
 11
182.6421436603167
 21
165.6403001112843
 31
0.0
  0
LINE
  5
1695
330
19
100
AcDbEntity
  8
1
100
AcDbLine
 10
182.3489276603168
 20
165.2851991112843
 30
0.0
 11
182.4515436603167
 21
165.5446801112843
 31
0.0
  0
LINE
  5
1696
330
19
100
AcDbEntity
  8
1
100
AcDbLine
 10
182.3489276603168
 20
165.1895801112843
 30
0.0
 11
182.3489276603168
 21
165.2851991112843
 31
0.0
  0
LINE
  5
1697
330
19
100
AcDbEntity
  8
1
100
AcDbLine
 10
182.3489276603168
 20
165.0119391112843
 30
0.0
 11
182.3489276603168
 21
165.1895801112843
 31
0.0
  0
LINE
  5
1698
330
19
100
AcDbEntity
  8
1
100
AcDbLine
 10
182.3489276603168
 20
164.9163201112843
 30
0.0
 11
182.3489276603168
 21
165.0119391112843
 31
0.0
  0
LINE
  5
1699
330
19
100
AcDbEntity
  8
1
100
AcDbLine
 10
183.4337686603168
 20
164.8207011112843
 30
0.0
 11
183.5363856603168
 21
164.9163201112843
 31
0.0
  0
LINE
  5
169A
330
19
100
AcDbEntity
  8
1
100
AcDbLine
 10
183.2431686603167
 20
164.6431701112843
 30
0.0
 11
183.4337686603168
 21
164.8207011112843
 31
0.0
  0
LINE
  5
169B
330
19
100
AcDbEntity
  8
1
100
AcDbLine
 10
183.1405146603167
 20
164.5475851112843
 30
0.0
 11
183.2431686603167
 21
164.6431701112843
 31
0.0
  0
LINE
  5
169C
330
19
100
AcDbEntity
  8
1
100
AcDbLine
 10
183.1405146603167
 20
164.4519311112843
 30
0.0
 11
183.1405146603167
 21
164.5475851112843
 31
0.0
  0
LINE
  5
169D
330
19
100
AcDbEntity
  8
1
100
AcDbLine
 10
183.1405146603167
 20
164.2743251112843
 30
0.0
 11
183.1405146603167
 21
164.4519311112843
 31
0.0
  0
LINE
  5
169E
330
19
100
AcDbEntity
  8
1
100
AcDbLine
 10
183.1405146603167
 20
164.1786691112843
 30
0.0
 11
183.1405146603167
 21
164.2743251112843
 31
0.0
  0
LINE
  5
169F
330
19
100
AcDbEntity
  8
1
100
AcDbLine
 10
181.4547256603167
 20
167.8669941112843
 30
0.0
 11
181.5573046603168
 21
167.8669941112843
 31
0.0
  0
LINE
  5
16A0
330
19
100
AcDbEntity
  8
1
100
AcDbLine
 10
178.9845916603167
 20
169.8493631112843
 30
0.0
 11
182.0274226603167
 21
170.1663541112843
 31
0.0
  0
LINE
  5
16A1
330
19
100
AcDbEntity
  8
1
100
AcDbLine
 10
183.5363856603168
 20
164.9163201112843
 30
0.0
 11
191.0567236603167
 21
165.2851991112843
 31
0.0
  0
LINE
  5
16A2
330
19
100
AcDbEntity
  8
1
100
AcDbLine
 10
181.5573046603168
 20
167.8669941112843
 30
0.0
 11
190.6610086603168
 21
168.6046081112842
 31
0.0
  0
LINE
  5
16A3
330
19
100
AcDbEntity
  8
1
100
AcDbLine
 10
182.0274226603167
 20
170.1663541112843
 30
0.0
 11
185.5155056603167
 21
170.4487881112843
 31
0.0
  0
LINE
  5
16A4
330
19
100
AcDbEntity
  8
1
100
AcDbLine
 10
188.8285936603167
 20
160.8865651112843
 30
0.0
 11
188.1395846603167
 21
160.3401911112843
 31
0.0
  0
LINE
  5
16A5
330
19
100
AcDbEntity
  8
1
100
AcDbLine
 10
188.1395846603167
 20
162.8537051112843
 30
0.0
 11
188.8285936603167
 21
162.3072581112841
 31
0.0
  0
LINE
  5
16A6
330
19
100
AcDbEntity
  8
1
100
AcDbLine
 10
185.3688386603168
 20
162.3072581112841
 30
0.0
 11
186.0578476603168
 21
162.8537051112843
 31
0.0
  0
LINE
  5
16A7
330
19
100
AcDbEntity
  8
1
100
AcDbLine
 10
186.0578476603168
 20
160.3401911112843
 30
0.0
 11
185.3688386603168
 21
160.8865651112843
 31
0.0
  0
LINE
  5
16A8
330
19
100
AcDbEntity
  8
1
100
AcDbLine
 10
188.1395846603167
 20
160.3401911112843
 30
0.0
 11
187.0987166603167
 21
160.1216111112843
 31
0.0
  0
LINE
  5
16A9
330
19
100
AcDbEntity
  8
1
100
AcDbLine
 10
187.0987166603167
 20
163.0722861112843
 30
0.0
 11
188.1395846603167
 21
162.8537051112843
 31
0.0
  0
LINE
  5
16AA
330
19
100
AcDbEntity
  8
1
100
AcDbLine
 10
186.0578476603168
 20
162.8537051112843
 30
0.0
 11
187.0987166603167
 21
163.0722861112843
 31
0.0
  0
LINE
  5
16AB
330
19
100
AcDbEntity
  8
1
100
AcDbLine
 10
187.0987166603167
 20
160.1216111112843
 30
0.0
 11
186.0578476603168
 21
160.3401911112843
 31
0.0
  0
LINE
  5
16AC
330
19
100
AcDbEntity
  8
1
100
AcDbLine
 10
191.8485036603168
 20
157.1710811112843
 30
0.0
 11
191.4672646603168
 21
156.9114931112843
 31
0.0
  0
LINE
  5
16AD
330
19
100
AcDbEntity
  8
1
100
AcDbLine
 10
191.1740496603167
 20
156.8158731112843
 30
0.0
 11
191.0567236603167
 21
156.8022021112843
 31
0.0
  0
LINE
  5
16AE
330
19
100
AcDbEntity
  8
1
100
AcDbLine
 10
191.4672646603168
 20
156.9114931112843
 30
0.0
 11
191.1740496603167
 21
156.8158731112843
 31
0.0
  0
LINE
  5
16AF
330
19
100
AcDbEntity
  8
1
100
AcDbLine
 10
191.8485036603168
 20
157.2667021112843
 30
0.0
 11
191.8485036603168
 21
157.1710811112843
 31
0.0
  0
LINE
  5
16B0
330
19
100
AcDbEntity
  8
1
100
AcDbLine
 10
191.8485036603168
 20
157.4442331112843
 30
0.0
 11
191.8485036603168
 21
157.2667021112843
 31
0.0
  0
LINE
  5
16B1
330
19
100
AcDbEntity
  8
1
100
AcDbLine
 10
191.8485036603168
 20
157.5398511112843
 30
0.0
 11
191.8485036603168
 21
157.4442331112843
 31
0.0
  0
LINE
  5
16B2
330
19
100
AcDbEntity
  8
1
100
AcDbLine
 10
190.2798086603167
 20
157.6354711112843
 30
0.0
 11
190.2651386603167
 21
157.5398511112843
 31
0.0
  0
LINE
  5
16B3
330
19
100
AcDbEntity
  8
1
100
AcDbLine
 10
190.3824236603167
 20
157.8130771112843
 30
0.0
 11
190.2798086603167
 21
157.6354711112843
 31
0.0
  0
LINE
  5
16B4
330
19
100
AcDbEntity
  8
1
100
AcDbLine
 10
190.6610086603168
 20
157.9087311112843
 30
0.0
 11
190.3824236603167
 21
157.8130771112843
 31
0.0
  0
LINE
  5
16B5
330
19
100
AcDbEntity
  8
1
100
AcDbLine
 10
190.6610086603168
 20
158.0043151112843
 30
0.0
 11
190.6610086603168
 21
157.9087311112843
 31
0.0
  0
LINE
  5
16B6
330
19
100
AcDbEntity
  8
1
100
AcDbLine
 10
190.6610086603168
 20
158.1818831112843
 30
0.0
 11
190.6610086603168
 21
158.0043151112843
 31
0.0
  0
LINE
  5
16B7
330
19
100
AcDbEntity
  8
1
100
AcDbLine
 10
190.6610086603168
 20
158.2774681112843
 30
0.0
 11
190.6610086603168
 21
158.1818831112843
 31
0.0
  0
LINE
  5
16B8
330
19
100
AcDbEntity
  8
1
100
AcDbLine
 10
189.0777976603168
 20
161.5968761112843
 30
0.0
 11
188.8285936603167
 21
160.8865651112843
 31
0.0
  0
LINE
  5
16B9
330
19
100
AcDbEntity
  8
1
100
AcDbLine
 10
188.8285936603167
 20
162.3072581112841
 30
0.0
 11
189.0777976603168
 21
161.5968761112843
 31
0.0
  0
LINE
  5
16BA
330
19
100
AcDbEntity
  8
1
100
AcDbLine
 10
179.1825076603168
 20
159.3839961112843
 30
0.0
 11
179.5929306603167
 21
160.0123571112843
 31
0.0
  0
LINE
  5
16BB
330
19
100
AcDbEntity
  8
1
100
AcDbLine
 10
181.5573046603168
 20
154.9580571112843
 30
0.0
 11
180.8830046603167
 21
154.9717281112843
 31
0.0
  0
LINE
  5
16BC
330
19
100
AcDbEntity
  8
1
100
AcDbLine
 10
179.0945226603168
 20
155.9006171112843
 30
0.0
 11
178.7865976603167
 21
156.4334671112843
 31
0.0
  0
LINE
  5
16BD
330
19
100
AcDbEntity
  8
1
100
AcDbLine
 10
179.9740926603168
 20
156.8022021112843
 30
0.0
 11
179.3290566603167
 21
157.5534861112843
 31
0.0
  0
LINE
  5
16BE
330
19
100
AcDbEntity
  8
1
100
AcDbLine
 10
179.4023706603167
 20
155.6137591112843
 30
0.0
 11
179.0945226603168
 21
155.9006171112843
 31
0.0
  0
LINE
  5
16BF
330
19
100
AcDbEntity
  8
1
100
AcDbLine
 10
179.9740926603168
 20
155.3269381112843
 30
0.0
 11
179.4023706603167
 21
155.6137591112843
 31
0.0
  0
LINE
  5
16C0
330
19
100
AcDbEntity
  8
1
100
AcDbLine
 10
180.3845946603168
 20
155.0673471112842
 30
0.0
 11
179.9740926603168
 21
155.3269381112843
 31
0.0
  0
LINE
  5
16C1
330
19
100
AcDbEntity
  8
1
100
AcDbLine
 10
180.8830046603167
 20
154.9717281112843
 30
0.0
 11
180.3845946603168
 21
155.0673471112842
 31
0.0
  0
LINE
  5
16C2
330
19
100
AcDbEntity
  8
1
100
AcDbLine
 10
179.9887636603167
 20
156.7066191112843
 30
0.0
 11
179.9740926603168
 21
156.8022021112843
 31
0.0
  0
LINE
  5
16C3
330
19
100
AcDbEntity
  8
1
100
AcDbLine
 10
180.0913796603167
 20
156.5290501112843
 30
0.0
 11
179.9887636603167
 21
156.7066191112843
 31
0.0
  0
LINE
  5
16C4
330
19
100
AcDbEntity
  8
1
100
AcDbLine
 10
180.3699646603168
 20
156.4334671112843
 30
0.0
 11
180.0913796603167
 21
156.5290501112843
 31
0.0
  0
LINE
  5
16C5
330
19
100
AcDbEntity
  8
1
100
AcDbLine
 10
180.4725796603167
 20
156.0782221112843
 30
0.0
 11
180.3699646603168
 21
156.4334671112843
 31
0.0
  0
LINE
  5
16C6
330
19
100
AcDbEntity
  8
1
100
AcDbLine
 10
180.6631006603168
 20
155.8049971112843
 30
0.0
 11
180.4725796603167
 21
156.0782221112843
 31
0.0
  0
LINE
  5
16C7
330
19
100
AcDbEntity
  8
1
100
AcDbLine
 10
180.7657166603167
 20
155.6956731112843
 30
0.0
 11
180.6631006603168
 21
155.8049971112843
 31
0.0
  0
LINE
  5
16C8
330
19
100
AcDbEntity
  8
1
100
AcDbLine
 10
179.0358406603167
 20
158.3867571112843
 30
0.0
 11
179.1825076603168
 21
159.3839961112843
 31
0.0
  0
LINE
  5
16C9
330
19
100
AcDbEntity
  8
1
100
AcDbLine
 10
179.3290566603167
 20
157.5534861112843
 30
0.0
 11
179.0358406603167
 21
158.3867571112843
 31
0.0
  0
LINE
  5
16CA
330
19
100
AcDbEntity
  8
1
100
AcDbLine
 10
178.7865976603167
 20
156.4334671112843
 30
0.0
 11
178.2295446603168
 21
157.0891331112843
 31
0.0
  0
LINE
  5
16CB
330
19
100
AcDbEntity
  8
1
100
AcDbLine
 10
178.0243136603167
 20
157.7447621112843
 30
0.0
 11
177.9950106603167
 21
158.6463461112843
 31
0.0
  0
LINE
  5
16CC
330
19
100
AcDbEntity
  8
1
100
AcDbLine
 10
178.2295446603168
 20
157.0891331112843
 30
0.0
 11
178.0243136603167
 21
157.7447621112843
 31
0.0
  0
LINE
  5
16CD
330
19
100
AcDbEntity
  8
1
100
AcDbLine
 10
183.0085966603168
 20
155.0810181112843
 30
0.0
 11
181.5573046603168
 21
154.9580571112843
 31
0.0
  0
LINE
  5
16CE
330
19
100
AcDbEntity
  8
1
100
AcDbLine
 10
184.1960526603167
 20
155.4498601112843
 30
0.0
 11
183.0085966603168
 21
155.0810181112843
 31
0.0
  0
LINE
  5
16CF
330
19
100
AcDbEntity
  8
1
100
AcDbLine
 10
185.1195956603167
 20
156.0645891112843
 30
0.0
 11
184.1960526603167
 21
155.4498601112843
 31
0.0
  0
LINE
  5
16D0
330
19
100
AcDbEntity
  8
1
100
AcDbLine
 10
181.9531746603167
 20
157.4442331112843
 30
0.0
 11
181.9531746603167
 21
157.5398511112843
 31
0.0
  0
LINE
  5
16D1
330
19
100
AcDbEntity
  8
1
100
AcDbLine
 10
181.9531746603167
 20
157.2667021112843
 30
0.0
 11
181.9531746603167
 21
157.4442331112843
 31
0.0
  0
LINE
  5
16D2
330
19
100
AcDbEntity
  8
1
100
AcDbLine
 10
181.9531746603167
 20
157.1710811112843
 30
0.0
 11
181.9531746603167
 21
157.2667021112843
 31
0.0
  0
LINE
  5
16D3
330
19
100
AcDbEntity
  8
1
100
AcDbLine
 10
182.1584056603167
 20
157.1710811112843
 30
0.0
 11
181.9531746603167
 21
157.1710811112843
 31
0.0
  0
LINE
  5
16D4
330
19
100
AcDbEntity
  8
1
100
AcDbLine
 10
182.5395676603168
 20
157.1710811112843
 30
0.0
 11
182.1584056603167
 21
157.1710811112843
 31
0.0
  0
LINE
  5
16D5
330
19
100
AcDbEntity
  8
1
100
AcDbLine
 10
182.7447996603168
 20
157.1710811112843
 30
0.0
 11
182.5395676603168
 21
157.1710811112843
 31
0.0
  0
LINE
  5
16D6
330
19
100
AcDbEntity
  8
1
100
AcDbLine
 10
179.5929306603167
 20
160.0123571112843
 30
0.0
 11
180.0913396603168
 21
160.4768191112843
 31
0.0
  0
LINE
  5
16D7
330
19
100
AcDbEntity
  8
1
100
AcDbLine
 10
180.0913396603168
 20
160.4768191112843
 30
0.0
 11
180.7657166603167
 21
160.8592601112843
 31
0.0
  0
LINE
  5
16D8
330
19
100
AcDbEntity
  8
1
100
AcDbLine
 10
177.9950106603167
 20
163.0722861112843
 30
0.0
 11
178.2882276603167
 21
163.4274221112842
 31
0.0
  0
LINE
  5
16D9
330
19
100
AcDbEntity
  8
1
100
AcDbLine
 10
177.8923946603167
 20
162.7170751112843
 30
0.0
 11
177.9950106603167
 21
163.0722861112843
 31
0.0
  0
LINE
  5
16DA
330
19
100
AcDbEntity
  8
1
100
AcDbLine
 10
178.4934586603168
 20
163.7006451112843
 30
0.0
 11
178.7865976603167
 21
163.8099351112843
 31
0.0
  0
LINE
  5
16DB
330
19
100
AcDbEntity
  8
1
100
AcDbLine
 10
178.2882276603167
 20
163.4274221112842
 30
0.0
 11
178.4934586603168
 21
163.7006451112843
 31
0.0
  0
LINE
  5
16DC
330
19
100
AcDbEntity
  8
1
100
AcDbLine
 10
191.0567236603167
 20
156.8022021112843
 30
0.0
 11
180.7657166603167
 21
155.6956731112843
 31
0.0
  0
LINE
  5
16DD
330
19
100
AcDbEntity
  8
1
100
AcDbLine
 10
190.2651386603167
 20
157.5398511112843
 30
0.0
 11
182.7447996603168
 21
157.1710811112843
 31
0.0
  0
LINE
  5
16DE
330
19
100
AcDbEntity
  8
1
100
AcDbLine
 10
185.1195956603167
 20
161.5968761112843
 30
0.0
 11
185.3688386603168
 21
162.3072581112841
 31
0.0
  0
LINE
  5
16DF
330
19
100
AcDbEntity
  8
1
100
AcDbLine
 10
185.3688386603168
 20
160.8865651112843
 30
0.0
 11
185.1195956603167
 21
161.5968761112843
 31
0.0
  0
LINE
  5
16E0
330
19
100
AcDbEntity
  8
1
100
AcDbLine
 10
179.9740926603168
 20
156.8022021112843
 30
0.0
 11
182.3489276603168
 21
164.9163201112843
 31
0.0
  0
LINE
  5
16E1
330
19
100
AcDbEntity
  8
1
100
AcDbLine
 10
181.9531746603167
 20
157.5398511112843
 30
0.0
 11
183.1405146603167
 21
164.1786691112843
 31
0.0
  0
LINE
  5
16E2
330
19
100
AcDbEntity
  8
1
100
AcDbLine
 10
178.7865976603167
 20
163.8099351112843
 30
0.0
 11
179.1824286603167
 21
164.0830871112843
 31
0.0
  0
LINE
  5
16E3
330
19
100
AcDbEntity
  8
1
100
AcDbLine
 10
191.8485036603168
 20
164.9163201112843
 30
0.0
 11
190.6610086603168
 21
158.2774681112843
 31
0.0
  0
LINE
  5
16E4
330
19
100
AcDbEntity
  8
1
100
AcDbLine
 10
173.9343496603167
 20
165.2851991112843
 30
0.0
 11
174.0369646603167
 21
165.2851991112843
 31
0.0
  0
LINE
  5
16E5
330
19
100
AcDbEntity
  8
1
100
AcDbLine
 10
172.4535996603167
 20
168.9733781112843
 30
0.0
 11
175.9417606603168
 21
169.4632251112843
 31
0.0
  0
LINE
  5
16E6
330
19
100
AcDbEntity
  8
1
100
AcDbLine
 10
173.5384776603168
 20
165.2851991112843
 30
0.0
 11
173.6410946603168
 21
165.2851991112843
 31
0.0
  0
LINE
  5
16E7
330
19
100
AcDbEntity
  8
1
100
AcDbLine
 10
173.3479556603167
 20
165.2851991112843
 30
0.0
 11
173.5384776603168
 21
165.2851991112843
 31
0.0
  0
LINE
  5
16E8
330
19
100
AcDbEntity
  8
1
100
AcDbLine
 10
173.2453796603167
 20
165.2851991112843
 30
0.0
 11
173.3479556603167
 21
165.2851991112843
 31
0.0
  0
LINE
  5
16E9
330
19
100
AcDbEntity
  8
1
100
AcDbLine
 10
173.7437106603167
 20
165.2851991112843
 30
0.0
 11
173.9343496603167
 21
165.2851991112843
 31
0.0
  0
LINE
  5
16EA
330
19
100
AcDbEntity
  8
1
100
AcDbLine
 10
173.6410946603168
 20
165.2851991112843
 30
0.0
 11
173.7437106603167
 21
165.2851991112843
 31
0.0
  0
LINE
  5
16EB
330
19
100
AcDbEntity
  8
1
100
AcDbLine
 10
171.4714516603168
 20
168.7138601112843
 30
0.0
 11
172.4535996603167
 21
168.9733781112843
 31
0.0
  0
LINE
  5
16EC
330
19
100
AcDbEntity
  8
1
100
AcDbLine
 10
170.6651956603168
 20
168.6182781112843
 30
0.0
 11
171.4714516603168
 21
168.7138601112843
 31
0.0
  0
LINE
  5
16ED
330
19
100
AcDbEntity
  8
1
100
AcDbLine
 10
169.2725456603167
 20
168.6046081112842
 30
0.0
 11
166.6613566603167
 21
168.2357281112843
 31
0.0
  0
LINE
  5
16EE
330
19
100
AcDbEntity
  8
1
100
AcDbLine
 10
169.2725456603167
 20
168.6046081112842
 30
0.0
 11
169.6830486603167
 21
168.6046081112842
 31
0.0
  0
LINE
  5
16EF
330
19
100
AcDbEntity
  8
1
100
AcDbLine
 10
169.6830486603167
 20
168.6046081112842
 30
0.0
 11
170.6651956603168
 21
168.6182781112843
 31
0.0
  0
LINE
  5
16F0
330
19
100
AcDbEntity
  8
1
100
AcDbLine
 10
174.8285886603167
 20
160.4905251112843
 30
0.0
 11
173.6410946603168
 21
154.9580571112843
 31
0.0
  0
LINE
  5
16F1
330
19
100
AcDbEntity
  8
1
100
AcDbLine
 10
173.6264226603168
 20
154.8624381112843
 30
0.0
 11
173.5238466603168
 21
154.6849061112843
 31
0.0
  0
LINE
  5
16F2
330
19
100
AcDbEntity
  8
1
100
AcDbLine
 10
173.6410946603168
 20
154.9580571112843
 30
0.0
 11
173.6264226603168
 21
154.8624381112843
 31
0.0
  0
LINE
  5
16F3
330
19
100
AcDbEntity
  8
1
100
AcDbLine
 10
171.3248626603166
 20
157.4169311112843
 30
0.0
 11
171.6620126603167
 21
156.8022021112843
 31
0.0
  0
LINE
  5
16F4
330
19
100
AcDbEntity
  8
1
100
AcDbLine
 10
171.3248626603166
 20
156.3514451112843
 30
0.0
 11
170.5479476603168
 21
155.9006171112843
 31
0.0
  0
LINE
  5
16F5
330
19
100
AcDbEntity
  8
1
100
AcDbLine
 10
171.6620126603167
 20
156.8022021112843
 30
0.0
 11
171.3248626603166
 21
156.3514451112843
 31
0.0
  0
LINE
  5
16F6
330
19
100
AcDbEntity
  8
1
100
AcDbLine
 10
170.5479476603168
 20
157.7857721112843
 30
0.0
 11
171.3248626603166
 21
157.4169311112843
 31
0.0
  0
LINE
  5
16F7
330
19
100
AcDbEntity
  8
1
100
AcDbLine
 10
176.6757146603167
 20
156.4197601112843
 30
0.0
 11
176.2798826603167
 21
157.0617921112843
 31
0.0
  0
LINE
  5
16F8
330
19
100
AcDbEntity
  8
1
100
AcDbLine
 10
176.8076716603166
 20
155.6956731112843
 30
0.0
 11
176.6757146603167
 21
156.4197601112843
 31
0.0
  0
LINE
  5
16F9
330
19
100
AcDbEntity
  8
1
100
AcDbLine
 10
176.2798826603167
 20
154.7122101112843
 30
0.0
 11
176.8076716603166
 21
155.6956731112843
 31
0.0
  0
LINE
  5
16FA
330
19
100
AcDbEntity
  8
1
100
AcDbLine
 10
176.2798826603167
 20
157.0617921112843
 30
0.0
 11
175.6201766603167
 21
157.5398511112843
 31
0.0
  0
LINE
  5
16FB
330
19
100
AcDbEntity
  8
1
100
AcDbLine
 10
177.5992576603168
 20
162.3345261112843
 30
0.0
 11
177.7018736603167
 21
162.4438151112843
 31
0.0
  0
LINE
  5
16FC
330
19
100
AcDbEntity
  8
1
100
AcDbLine
 10
176.4118016603168
 20
161.9657901112843
 30
0.0
 11
177.5992576603168
 21
162.3345261112843
 31
0.0
  0
LINE
  5
16FD
330
19
100
AcDbEntity
  8
1
100
AcDbLine
 10
176.4118016603168
 20
161.0505001112843
 30
0.0
 11
176.4118016603168
 21
160.8592601112843
 31
0.0
  0
LINE
  5
16FE
330
19
100
AcDbEntity
  8
1
100
AcDbLine
 10
176.4118016603168
 20
161.4056721112843
 30
0.0
 11
176.4118016603168
 21
161.0505001112843
 31
0.0
  0
LINE
  5
16FF
330
19
100
AcDbEntity
  8
1
100
AcDbLine
 10
176.4118016603168
 20
161.5968761112843
 30
0.0
 11
176.4118016603168
 21
161.4056721112843
 31
0.0
  0
LINE
  5
1700
330
19
100
AcDbEntity
  8
1
100
AcDbLine
 10
176.3971296603167
 20
161.6925321112843
 30
0.0
 11
176.4118016603168
 21
161.5968761112843
 31
0.0
  0
LINE
  5
1701
330
19
100
AcDbEntity
  8
1
100
AcDbLine
 10
176.2944756603167
 20
161.8701351112843
 30
0.0
 11
176.3971296603167
 21
161.6925321112843
 31
0.0
  0
LINE
  5
1702
330
19
100
AcDbEntity
  8
1
100
AcDbLine
 10
176.0158916603167
 20
161.9657901112843
 30
0.0
 11
176.2944756603167
 21
161.8701351112843
 31
0.0
  0
LINE
  5
1703
330
19
100
AcDbEntity
  8
1
100
AcDbLine
 10
175.9133146603167
 20
162.2252731112843
 30
0.0
 11
176.0158916603167
 21
161.9657901112843
 31
0.0
  0
LINE
  5
1704
330
19
100
AcDbEntity
  8
1
100
AcDbLine
 10
175.7227916603167
 20
162.3208551112843
 30
0.0
 11
175.9133146603167
 21
162.2252731112843
 31
0.0
  0
LINE
  5
1705
330
19
100
AcDbEntity
  8
1
100
AcDbLine
 10
175.6201766603167
 20
162.3345261112843
 30
0.0
 11
175.7227916603167
 21
162.3208551112843
 31
0.0
  0
LINE
  5
1706
330
19
100
AcDbEntity
  8
1
100
AcDbLine
 10
175.5175606603168
 20
162.3345261112843
 30
0.0
 11
175.6201766603167
 21
162.3345261112843
 31
0.0
  0
LINE
  5
1707
330
19
100
AcDbEntity
  8
1
100
AcDbLine
 10
175.3269216603167
 20
162.3345261112843
 30
0.0
 11
175.5175606603168
 21
162.3345261112843
 31
0.0
  0
LINE
  5
1708
330
19
100
AcDbEntity
  8
1
100
AcDbLine
 10
175.2243066603167
 20
162.3345261112843
 30
0.0
 11
175.3269216603167
 21
162.3345261112843
 31
0.0
  0
LINE
  5
1709
330
19
100
AcDbEntity
  8
1
100
AcDbLine
 10
174.8285886603167
 20
160.5861101112843
 30
0.0
 11
174.8285886603167
 21
160.4905251112843
 31
0.0
  0
LINE
  5
170A
330
19
100
AcDbEntity
  8
1
100
AcDbLine
 10
174.8285886603167
 20
160.7636411112843
 30
0.0
 11
174.8285886603167
 21
160.5861101112843
 31
0.0
  0
LINE
  5
170B
330
19
100
AcDbEntity
  8
1
100
AcDbLine
 10
174.8285886603167
 20
160.8592601112843
 30
0.0
 11
174.8285886603167
 21
160.7636411112843
 31
0.0
  0
LINE
  5
170C
330
19
100
AcDbEntity
  8
1
100
AcDbLine
 10
174.7259356603168
 20
160.9548811112843
 30
0.0
 11
174.8285886603167
 21
160.8592601112843
 31
0.0
  0
LINE
  5
170D
330
19
100
AcDbEntity
  8
1
100
AcDbLine
 10
174.5353346603168
 20
161.1325231112843
 30
0.0
 11
174.7259356603168
 21
160.9548811112843
 31
0.0
  0
LINE
  5
170E
330
19
100
AcDbEntity
  8
1
100
AcDbLine
 10
174.4326806603168
 20
161.2281401112843
 30
0.0
 11
174.5353346603168
 21
161.1325231112843
 31
0.0
  0
LINE
  5
170F
330
19
100
AcDbEntity
  8
1
100
AcDbLine
 10
166.5164716603167
 20
159.7528751112843
 30
0.0
 11
166.6191256603167
 21
159.7528751112843
 31
0.0
  0
LINE
  5
1710
330
19
100
AcDbEntity
  8
1
100
AcDbLine
 10
166.4138936603167
 20
159.6572581112843
 30
0.0
 11
166.5164716603167
 21
159.7528751112843
 31
0.0
  0
LINE
  5
1711
330
19
100
AcDbEntity
  8
1
100
AcDbLine
 10
166.2233726603168
 20
159.4796161112843
 30
0.0
 11
166.4138936603167
 21
159.6572581112843
 31
0.0
  0
LINE
  5
1712
330
19
100
AcDbEntity
  8
1
100
AcDbLine
 10
166.1207566603168
 20
159.3839961112843
 30
0.0
 11
166.2233726603168
 21
159.4796161112843
 31
0.0
  0
LINE
  5
1713
330
19
100
AcDbEntity
  8
1
100
AcDbLine
 10
167.7039666603167
 20
156.8022021112843
 30
0.0
 11
167.9531706603167
 21
157.4169311112843
 31
0.0
  0
LINE
  5
1714
330
19
100
AcDbEntity
  8
1
100
AcDbLine
 10
167.9531706603167
 20
156.3514451112843
 30
0.0
 11
167.7039666603167
 21
156.8022021112843
 31
0.0
  0
LINE
  5
1715
330
19
100
AcDbEntity
  8
1
100
AcDbLine
 10
168.6421816603168
 20
155.9006171112843
 30
0.0
 11
167.9531706603167
 21
156.3514451112843
 31
0.0
  0
LINE
  5
1716
330
19
100
AcDbEntity
  8
1
100
AcDbLine
 10
169.6830486603167
 20
155.6956731112843
 30
0.0
 11
168.6421816603168
 21
155.9006171112843
 31
0.0
  0
LINE
  5
1717
330
19
100
AcDbEntity
  8
1
100
AcDbLine
 10
168.6421816603168
 20
157.7857721112843
 30
0.0
 11
169.6830486603167
 21
157.9087311112843
 31
0.0
  0
LINE
  5
1718
330
19
100
AcDbEntity
  8
1
100
AcDbLine
 10
167.9531706603167
 20
157.4169311112843
 30
0.0
 11
168.6421816603168
 21
157.7857721112843
 31
0.0
  0
LINE
  5
1719
330
19
100
AcDbEntity
  8
1
100
AcDbLine
 10
166.8097266603167
 20
159.7528751112843
 30
0.0
 11
166.9123816603167
 21
159.7528751112843
 31
0.0
  0
LINE
  5
171A
330
19
100
AcDbEntity
  8
1
100
AcDbLine
 10
166.6191256603167
 20
159.7528751112843
 30
0.0
 11
166.8097266603167
 21
159.7528751112843
 31
0.0
  0
LINE
  5
171B
330
19
100
AcDbEntity
  8
1
100
AcDbLine
 10
165.6222686603167
 20
160.4905251112843
 30
0.0
 11
165.7248846603168
 21
160.4905251112843
 31
0.0
  0
LINE
  5
171C
330
19
100
AcDbEntity
  8
1
100
AcDbLine
 10
164.1416756603167
 20
163.1679061112843
 30
0.0
 11
164.1416756603167
 21
163.3454361112843
 31
0.0
  0
LINE
  5
171D
330
19
100
AcDbEntity
  8
1
100
AcDbLine
 10
164.9332606603167
 20
160.4905251112843
 30
0.0
 11
164.1416756603167
 21
163.0722861112843
 31
0.0
  0
LINE
  5
171E
330
19
100
AcDbEntity
  8
1
100
AcDbLine
 10
164.1416756603167
 20
163.0722861112843
 30
0.0
 11
164.1416756603167
 21
163.1679061112843
 31
0.0
  0
LINE
  5
171F
330
19
100
AcDbEntity
  8
1
100
AcDbLine
 10
165.4317466603167
 20
160.4905251112843
 30
0.0
 11
165.6222686603167
 21
160.4905251112843
 31
0.0
  0
LINE
  5
1720
330
19
100
AcDbEntity
  8
1
100
AcDbLine
 10
165.3291696603168
 20
160.4905251112843
 30
0.0
 11
165.4317466603167
 21
160.4905251112843
 31
0.0
  0
LINE
  5
1721
330
19
100
AcDbEntity
  8
1
100
AcDbLine
 10
165.0505866603167
 20
160.2309361112841
 30
0.0
 11
165.3291696603168
 21
160.4905251112843
 31
0.0
  0
LINE
  5
1722
330
19
100
AcDbEntity
  8
1
100
AcDbLine
 10
164.9479316603167
 20
160.1352821112843
 30
0.0
 11
165.0505866603167
 21
160.2309361112841
 31
0.0
  0
LINE
  5
1723
330
19
100
AcDbEntity
  8
1
100
AcDbLine
 10
164.9332606603167
 20
160.1216111112843
 30
0.0
 11
164.9479316603167
 21
160.1352821112843
 31
0.0
  0
LINE
  5
1724
330
19
100
AcDbEntity
  8
1
100
AcDbLine
 10
164.1416756603167
 20
163.3454361112843
 30
0.0
 11
164.1416756603167
 21
163.4410541112843
 31
0.0
  0
LINE
  5
1725
330
19
100
AcDbEntity
  8
1
100
AcDbLine
 10
164.4348136603167
 20
163.7142801112843
 30
0.0
 11
164.5373896603167
 21
163.8099351112843
 31
0.0
  0
LINE
  5
1726
330
19
100
AcDbEntity
  8
1
100
AcDbLine
 10
164.2442516603168
 20
163.5366751112843
 30
0.0
 11
164.4348136603167
 21
163.7142801112843
 31
0.0
  0
LINE
  5
1727
330
19
100
AcDbEntity
  8
1
100
AcDbLine
 10
164.1416756603167
 20
163.4410541112843
 30
0.0
 11
164.2442516603168
 21
163.5366751112843
 31
0.0
  0
LINE
  5
1728
330
19
100
AcDbEntity
  8
1
100
AcDbLine
 10
166.9123816603167
 20
159.7528751112843
 30
0.0
 11
174.4326806603168
 21
161.2281401112843
 31
0.0
  0
LINE
  5
1729
330
19
100
AcDbEntity
  8
1
100
AcDbLine
 10
165.7248846603168
 20
160.4905251112843
 30
0.0
 11
175.2243066603167
 21
162.3345261112843
 31
0.0
  0
LINE
  5
172A
330
19
100
AcDbEntity
  8
1
100
AcDbLine
 10
170.5479476603168
 20
155.9006171112843
 30
0.0
 11
169.6830486603167
 21
155.6956731112843
 31
0.0
  0
LINE
  5
172B
330
19
100
AcDbEntity
  8
1
100
AcDbLine
 10
169.6830486603167
 20
157.9087311112843
 30
0.0
 11
170.5479476603168
 21
157.7857721112843
 31
0.0
  0
LINE
  5
172C
330
19
100
AcDbEntity
  8
1
100
AcDbLine
 10
164.5373896603167
 20
163.8099351112843
 30
0.0
 11
173.2453796603167
 21
165.2851991112843
 31
0.0
  0
LINE
  5
172D
330
19
100
AcDbEntity
  8
1
100
AcDbLine
 10
174.0369646603167
 20
165.2851991112843
 30
0.0
 11
176.0158916603167
 21
162.3345261112843
 31
0.0
  0
LINE
  5
172E
330
19
100
AcDbEntity
  8
1
100
AcDbLine
 10
177.9950106603167
 20
158.6463461112843
 30
0.0
 11
177.5992576603168
 21
162.3345261112843
 31
0.0
  0
LINE
  5
172F
330
19
100
AcDbEntity
  8
1
100
AcDbLine
 10
177.7018736603167
 20
162.4438151112843
 30
0.0
 11
177.8923946603167
 21
162.7170751112843
 31
0.0
  0
LINE
  5
1730
330
19
100
AcDbEntity
  8
1
100
AcDbLine
 10
175.9417606603168
 20
169.4632251112843
 30
0.0
 11
178.9845916603167
 21
169.8493631112843
 31
0.0
  0
LINE
  5
1731
330
19
100
AcDbEntity
  8
1
100
AcDbLine
 10
158.4549016603167
 20
156.9102691112843
 30
0.0
 11
159.6423596603167
 21
157.2236941112843
 31
0.0
  0
LINE
  5
1732
330
19
100
AcDbEntity
  8
1
100
AcDbLine
 10
157.9564156603168
 20
157.1308261112843
 30
0.0
 11
158.0589936603168
 21
156.9102691112843
 31
0.0
  0
LINE
  5
1733
330
19
100
AcDbEntity
  8
1
100
AcDbLine
 10
156.4757826603168
 20
156.2832651112843
 30
0.0
 11
156.5784356603168
 21
156.2019911112843
 31
0.0
  0
LINE
  5
1734
330
19
100
AcDbEntity
  8
1
100
AcDbLine
 10
156.5784356603168
 20
156.2019911112843
 30
0.0
 11
156.7690376603168
 21
156.0509951112843
 31
0.0
  0
LINE
  5
1735
330
19
100
AcDbEntity
  8
1
100
AcDbLine
 10
156.7690376603168
 20
156.0509951112843
 30
0.0
 11
156.8716926603167
 21
155.9697171112843
 31
0.0
  0
LINE
  5
1736
330
19
100
AcDbEntity
  8
1
100
AcDbLine
 10
156.8716926603167
 20
155.9697171112843
 30
0.0
 11
156.8716926603167
 21
155.8884411112843
 31
0.0
  0
LINE
  5
1737
330
19
100
AcDbEntity
  8
1
100
AcDbLine
 10
156.8716926603167
 20
155.8884411112843
 30
0.0
 11
156.8716926603167
 21
155.7375381112843
 31
0.0
  0
LINE
  5
1738
330
19
100
AcDbEntity
  8
1
100
AcDbLine
 10
156.8716926603167
 20
155.7375381112843
 30
0.0
 11
156.8716926603167
 21
155.6562931112843
 31
0.0
  0
LINE
  5
1739
330
19
100
AcDbEntity
  8
1
100
AcDbLine
 10
158.0589936603168
 20
156.9102691112843
 30
0.0
 11
158.3375776603167
 21
156.8289621112843
 31
0.0
  0
LINE
  5
173A
330
19
100
AcDbEntity
  8
1
100
AcDbLine
 10
158.3375776603167
 20
156.8289621112843
 30
0.0
 11
158.4402326603168
 21
156.6779961112843
 31
0.0
  0
LINE
  5
173B
330
19
100
AcDbEntity
  8
1
100
AcDbLine
 10
158.4402326603168
 20
156.6779961112843
 30
0.0
 11
158.4549016603167
 21
156.5966891112843
 31
0.0
  0
LINE
  5
173C
330
19
100
AcDbEntity
  8
1
100
AcDbLine
 10
158.4549016603167
 20
156.5966891112843
 30
0.0
 11
158.4549016603167
 21
156.4341681112843
 31
0.0
  0
LINE
  5
173D
330
19
100
AcDbEntity
  8
1
100
AcDbLine
 10
158.4549016603167
 20
156.4341681112843
 30
0.0
 11
158.4549016603167
 21
156.1322701112843
 31
0.0
  0
LINE
  5
173E
330
19
100
AcDbEntity
  8
1
100
AcDbLine
 10
158.4549016603167
 20
156.1322701112843
 30
0.0
 11
158.4549016603167
 21
155.9697171112843
 31
0.0
  0
LINE
  5
173F
330
19
100
AcDbEntity
  8
1
100
AcDbLine
 10
155.6841956603168
 20
159.7317641112843
 30
0.0
 11
155.7868116603168
 21
159.7317641112843
 31
0.0
  0
LINE
  5
1740
330
19
100
AcDbEntity
  8
1
100
AcDbLine
 10
155.7868116603168
 20
159.7317641112843
 30
0.0
 11
155.9774496603168
 21
159.7317641112843
 31
0.0
  0
LINE
  5
1741
330
19
100
AcDbEntity
  8
1
100
AcDbLine
 10
155.9774496603168
 20
159.7317641112843
 30
0.0
 11
156.0800676603167
 21
159.7317641112843
 31
0.0
  0
LINE
  5
1742
330
19
100
AcDbEntity
  8
1
100
AcDbLine
 10
155.5815796603168
 20
159.7317641112843
 30
0.0
 11
155.6841956603168
 21
159.7317641112843
 31
0.0
  0
LINE
  5
1743
330
19
100
AcDbEntity
  8
1
100
AcDbLine
 10
157.2674066603167
 20
157.2236941112843
 30
0.0
 11
157.3700226603168
 21
157.2236941112843
 31
0.0
  0
LINE
  5
1744
330
19
100
AcDbEntity
  8
1
100
AcDbLine
 10
157.3700226603168
 20
157.2236941112843
 30
0.0
 11
157.5606626603168
 21
157.2236941112843
 31
0.0
  0
LINE
  5
1745
330
19
100
AcDbEntity
  8
1
100
AcDbLine
 10
157.5606626603168
 20
157.2236941112843
 30
0.0
 11
157.6632776603167
 21
157.2236941112843
 31
0.0
  0
LINE
  5
1746
330
19
100
AcDbEntity
  8
1
100
AcDbLine
 10
157.6632776603167
 20
157.2236941112843
 30
0.0
 11
157.7658936603168
 21
157.2120721112843
 31
0.0
  0
LINE
  5
1747
330
19
100
AcDbEntity
  8
1
100
AcDbLine
 10
157.7658936603168
 20
157.2120721112843
 30
0.0
 11
157.9564156603168
 21
157.1308261112843
 31
0.0
  0
LINE
  5
1748
330
19
100
AcDbEntity
  8
1
100
AcDbLine
 10
156.0800676603167
 20
159.7317641112843
 30
0.0
 11
158.0589936603168
 21
157.2236941112843
 31
0.0
  0
LINE
  5
1749
330
19
100
AcDbEntity
  8
1
100
AcDbLine
 10
148.1638586603168
 20
154.7157441112843
 30
0.0
 11
148.2664746603167
 21
154.7970191112842
 31
0.0
  0
LINE
  5
174A
330
19
100
AcDbEntity
  8
1
100
AcDbLine
 10
148.2664746603167
 20
154.7970191112842
 30
0.0
 11
148.4569966603167
 21
154.9480141112843
 31
0.0
  0
LINE
  5
174B
330
19
100
AcDbEntity
  8
1
100
AcDbLine
 10
148.4569966603167
 20
154.9480141112843
 30
0.0
 11
148.5595736603167
 21
155.0292901112843
 31
0.0
  0
LINE
  5
174C
330
19
100
AcDbEntity
  8
1
100
AcDbLine
 10
148.5595736603167
 20
155.0292901112843
 30
0.0
 11
148.6622276603168
 21
155.0292901112843
 31
0.0
  0
LINE
  5
174D
330
19
100
AcDbEntity
  8
1
100
AcDbLine
 10
148.6622276603168
 20
155.0292901112843
 30
0.0
 11
148.8528276603167
 21
155.0292901112843
 31
0.0
  0
LINE
  5
174E
330
19
100
AcDbEntity
  8
1
100
AcDbLine
 10
148.8528276603167
 20
155.0292901112843
 30
0.0
 11
148.9554826603168
 21
155.0292901112843
 31
0.0
  0
LINE
  5
174F
330
19
100
AcDbEntity
  8
1
100
AcDbLine
 10
155.2884806603167
 20
159.7317641112843
 30
0.0
 11
155.3910576603168
 21
159.7317641112843
 31
0.0
  0
LINE
  5
1750
330
19
100
AcDbEntity
  8
1
100
AcDbLine
 10
148.9554826603168
 20
155.0292901112843
 30
0.0
 11
156.4757826603168
 21
156.2832651112843
 31
0.0
  0
LINE
  5
1751
330
19
100
AcDbEntity
  8
1
100
AcDbLine
 10
155.3910576603168
 20
159.7317641112843
 30
0.0
 11
155.5815796603168
 21
159.7317641112843
 31
0.0
  0
LINE
  5
1752
330
19
100
AcDbEntity
  8
1
100
AcDbLine
 10
146.9763616603168
 20
155.6562931112843
 30
0.0
 11
146.1847756603168
 21
157.8507871112843
 31
0.0
  0
LINE
  5
1753
330
19
100
AcDbEntity
  8
1
100
AcDbLine
 10
146.9763616603168
 20
155.3427161112843
 30
0.0
 11
146.9910326603167
 21
155.3543351112843
 31
0.0
  0
LINE
  5
1754
330
19
100
AcDbEntity
  8
1
100
AcDbLine
 10
146.9910326603167
 20
155.3543351112843
 30
0.0
 11
147.0936876603167
 21
155.4356421112843
 31
0.0
  0
LINE
  5
1755
330
19
100
AcDbEntity
  8
1
100
AcDbLine
 10
147.0936876603167
 20
155.4356421112843
 30
0.0
 11
147.3722706603168
 21
155.6562931112843
 31
0.0
  0
LINE
  5
1756
330
19
100
AcDbEntity
  8
1
100
AcDbLine
 10
147.3722706603168
 20
155.6562931112843
 30
0.0
 11
147.4748496603167
 21
155.6562931112843
 31
0.0
  0
LINE
  5
1757
330
19
100
AcDbEntity
  8
1
100
AcDbLine
 10
147.4748496603167
 20
155.6562931112843
 30
0.0
 11
147.6653706603167
 21
155.6562931112843
 31
0.0
  0
LINE
  5
1758
330
19
100
AcDbEntity
  8
1
100
AcDbLine
 10
147.6653706603167
 20
155.6562931112843
 30
0.0
 11
147.7679856603168
 21
155.6562931112843
 31
0.0
  0
LINE
  5
1759
330
19
100
AcDbEntity
  8
1
100
AcDbLine
 10
146.1847756603168
 20
158.1642421112843
 30
0.0
 11
146.2873526603168
 21
158.2455201112843
 31
0.0
  0
LINE
  5
175A
330
19
100
AcDbEntity
  8
1
100
AcDbLine
 10
146.2873526603168
 20
158.2455201112843
 30
0.0
 11
146.4779146603166
 21
158.3964841112843
 31
0.0
  0
LINE
  5
175B
330
19
100
AcDbEntity
  8
1
100
AcDbLine
 10
146.4779146603166
 20
158.3964841112843
 30
0.0
 11
146.5804906603167
 21
158.4777911112843
 31
0.0
  0
LINE
  5
175C
330
19
100
AcDbEntity
  8
1
100
AcDbLine
 10
146.1847756603168
 20
157.8507871112843
 30
0.0
 11
146.1847756603168
 21
157.9320641112843
 31
0.0
  0
LINE
  5
175D
330
19
100
AcDbEntity
  8
1
100
AcDbLine
 10
146.1847756603168
 20
157.9320641112843
 30
0.0
 11
146.1847756603168
 21
158.0829661112843
 31
0.0
  0
LINE
  5
175E
330
19
100
AcDbEntity
  8
1
100
AcDbLine
 10
146.1847756603168
 20
158.0829661112843
 30
0.0
 11
146.1847756603168
 21
158.1642421112843
 31
0.0
  0
LINE
  5
175F
330
19
100
AcDbEntity
  8
1
100
AcDbLine
 10
147.7679856603168
 20
155.6562931112843
 30
0.0
 11
157.2674066603167
 21
157.2236941112843
 31
0.0
  0
LINE
  5
1760
330
19
100
AcDbEntity
  8
1
100
AcDbLine
 10
146.5804906603167
 20
158.4777911112843
 30
0.0
 11
155.2884806603167
 21
159.7317641112843
 31
0.0
  0
LINE
  5
1761
330
19
100
AcDbEntity
  8
1
100
AcDbLine
 10
159.7281496603168
 20
157.3156551112843
 30
0.0
 11
164.5198876603167
 21
158.1387631112843
 31
0.0
  0
LINE
  5
1762
330
19
100
AcDbEntity
  8
1
100
AcDbLine
 10
185.4192226603167
 20
144.9472071112841
 30
0.0
 11
189.7863896603167
 21
146.6047891112843
 31
0.0
210
0.0
220
0.0
230
-1.0
1001
ACAD
1000
R13OBJECT
1002
{
1005
0
1002
}
  0
LINE
  5
1763
330
19
100
AcDbEntity
  8
1
100
AcDbLine
 10
172.9521246603168
 20
154.2340771112843
 30
0.0
 11
172.8494696603168
 21
154.2204071112843
 31
0.0
  0
LINE
  5
1764
330
19
100
AcDbEntity
  8
1
100
AcDbLine
 10
173.1427246603168
 20
154.3297331112843
 30
0.0
 11
172.9521246603168
 21
154.2340771112843
 31
0.0
  0
LINE
  5
1765
330
19
100
AcDbEntity
  8
1
100
AcDbLine
 10
173.2453796603167
 20
154.5893221112843
 30
0.0
 11
173.1427246603168
 21
154.3297331112843
 31
0.0
  0
LINE
  5
1766
330
19
100
AcDbEntity
  8
1
100
AcDbLine
 10
174.8285886603167
 20
153.8516731112843
 30
0.0
 11
174.4473906603167
 21
153.5920831112843
 31
0.0
  0
LINE
  5
1767
330
19
100
AcDbEntity
  8
1
100
AcDbLine
 10
174.4326806603168
 20
153.4827941112843
 30
0.0
 11
175.4882186603167
 21
153.9745961112843
 31
0.0
  0
LINE
  5
1768
330
19
100
AcDbEntity
  8
1
100
AcDbLine
 10
174.1542116603167
 20
153.4964631112843
 30
0.0
 11
174.0369646603167
 21
153.4827941112843
 31
0.0
  0
LINE
  5
1769
330
19
100
AcDbEntity
  8
1
100
AcDbLine
 10
174.4473906603167
 20
153.5920831112843
 30
0.0
 11
174.1542116603167
 21
153.4964631112843
 31
0.0
  0
LINE
  5
176A
330
19
100
AcDbEntity
  8
1
100
AcDbLine
 10
174.8285886603167
 20
153.9472931112843
 30
0.0
 11
174.8285886603167
 21
153.8516731112843
 31
0.0
  0
LINE
  5
176B
330
19
100
AcDbEntity
  8
1
100
AcDbLine
 10
174.8285886603167
 20
154.1248241112843
 30
0.0
 11
174.8285886603167
 21
153.9472931112843
 31
0.0
  0
LINE
  5
176C
330
19
100
AcDbEntity
  8
1
100
AcDbLine
 10
174.8285886603167
 20
154.2204071112843
 30
0.0
 11
174.8285886603167
 21
154.1248241112843
 31
0.0
  0
LINE
  5
176D
330
19
100
AcDbEntity
  8
1
100
AcDbLine
 10
165.3291696603168
 20
150.5322641112843
 30
0.0
 11
167.1175736603168
 21
151.2698781112843
 31
0.0
  0
LINE
  5
176E
330
19
100
AcDbEntity
  8
1
100
AcDbLine
 10
164.5374286603168
 20
150.2726741112843
 30
0.0
 11
165.3291696603168
 21
150.5322641112843
 31
0.0
  0
LINE
  5
176F
330
19
100
AcDbEntity
  8
1
100
AcDbLine
 10
163.7458026603168
 20
150.1770181112843
 30
0.0
 11
164.5374286603168
 21
150.2726741112843
 31
0.0
  0
LINE
  5
1770
330
19
100
AcDbEntity
  8
1
100
AcDbLine
 10
162.9541776603167
 20
150.1633831112843
 30
0.0
 11
163.7458026603168
 21
150.1770181112843
 31
0.0
  0
LINE
  5
1771
330
19
100
AcDbEntity
  8
1
100
AcDbLine
 10
165.7248846603168
 20
153.4827941112843
 30
0.0
 11
165.6222686603167
 21
153.4827941112843
 31
0.0
  0
LINE
  5
1772
330
19
100
AcDbEntity
  8
1
100
AcDbLine
 10
162.9541776603167
 20
152.4719921112843
 30
0.0
 11
162.9541776603167
 21
152.7451431112843
 31
0.0
  0
LINE
  5
1773
330
19
100
AcDbEntity
  8
1
100
AcDbLine
 10
162.9541776603167
 20
152.2807541112843
 30
0.0
 11
162.9541776603167
 21
152.4719921112843
 31
0.0
  0
LINE
  5
1774
330
19
100
AcDbEntity
  8
1
100
AcDbLine
 10
162.9541776603167
 20
152.0075281112843
 30
0.0
 11
162.9541776603167
 21
152.2807541112843
 31
0.0
  0
LINE
  5
1775
330
19
100
AcDbEntity
  8
1
100
AcDbLine
 10
163.3353396603167
 20
152.0075281112843
 30
0.0
 11
162.9541776603167
 21
152.0075281112843
 31
0.0
  0
LINE
  5
1776
330
19
100
AcDbEntity
  8
1
100
AcDbLine
 10
163.6285176603168
 20
152.0075281112843
 30
0.0
 11
163.3353396603167
 21
152.0075281112843
 31
0.0
  0
LINE
  5
1777
330
19
100
AcDbEntity
  8
1
100
AcDbLine
 10
163.7458026603168
 20
152.0075281112843
 30
0.0
 11
163.6285176603168
 21
152.0075281112843
 31
0.0
  0
LINE
  5
1778
330
19
100
AcDbEntity
  8
1
100
AcDbLine
 10
165.0359146603168
 20
153.4827941112843
 30
0.0
 11
164.9332606603167
 21
153.4827941112843
 31
0.0
  0
LINE
  5
1779
330
19
100
AcDbEntity
  8
1
100
AcDbLine
 10
165.2265146603167
 20
153.4827941112843
 30
0.0
 11
165.0359146603168
 21
153.4827941112843
 31
0.0
  0
LINE
  5
177A
330
19
100
AcDbEntity
  8
1
100
AcDbLine
 10
165.3291696603168
 20
153.4827941112843
 30
0.0
 11
165.2265146603167
 21
153.4827941112843
 31
0.0
  0
LINE
  5
177B
330
19
100
AcDbEntity
  8
1
100
AcDbLine
 10
165.4317466603167
 20
153.4827941112843
 30
0.0
 11
165.3291696603168
 21
153.4827941112843
 31
0.0
  0
LINE
  5
177C
330
19
100
AcDbEntity
  8
1
100
AcDbLine
 10
165.6222686603167
 20
153.4827941112843
 30
0.0
 11
165.4317466603167
 21
153.4827941112843
 31
0.0
  0
LINE
  5
177D
330
19
100
AcDbEntity
  8
1
100
AcDbLine
 10
167.1175736603168
 20
151.2698781112843
 30
0.0
 11
168.8180696603168
 21
152.0075281112843
 31
0.0
  0
LINE
  5
177E
330
19
100
AcDbEntity
  8
1
100
AcDbLine
 10
174.0369646603167
 20
153.4827941112843
 30
0.0
 11
163.7458026603168
 21
152.0075281112843
 31
0.0
  0
LINE
  5
177F
330
19
100
AcDbEntity
  8
1
100
AcDbLine
 10
172.8494696603168
 20
154.2204071112843
 30
0.0
 11
165.7248846603168
 21
153.4827941112843
 31
0.0
  0
LINE
  5
1780
330
19
100
AcDbEntity
  8
1
100
AcDbLine
 10
168.8180696603168
 20
152.0075281112843
 30
0.0
 11
170.8703886603167
 21
152.7451431112843
 31
0.0
  0
LINE
  5
1781
330
19
100
AcDbEntity
  8
1
100
AcDbLine
 10
188.9605126603168
 20
103.6574771112843
 30
0.0
 11
188.6672946603168
 21
103.6574771112843
 31
0.0
  0
LINE
  5
1782
330
19
100
AcDbEntity
  8
1
100
AcDbLine
 10
187.8903026603167
 20
104.0263571112843
 30
0.0
 11
187.4944326603167
 21
108.8210661112843
 31
0.0
  0
LINE
  5
1783
330
19
100
AcDbEntity
  8
1
100
AcDbLine
 10
185.3394976603168
 20
103.7530971112843
 30
0.0
 11
185.9112206603167
 21
104.0263571112843
 31
0.0
  0
LINE
  5
1784
330
19
100
AcDbEntity
  8
1
100
AcDbLine
 10
187.1133486603167
 20
104.3814581112843
 30
0.0
 11
187.8903026603167
 21
104.3951281112843
 31
0.0
  0
LINE
  5
1785
330
19
100
AcDbEntity
  8
1
100
AcDbLine
 10
186.4243376603167
 20
104.2858381112843
 30
0.0
 11
187.1133486603167
 21
104.3814581112843
 31
0.0
  0
LINE
  5
1786
330
19
100
AcDbEntity
  8
1
100
AcDbLine
 10
185.9112206603167
 20
104.0263571112843
 30
0.0
 11
186.4243376603167
 21
104.2858381112843
 31
0.0
  0
LINE
  5
1787
330
19
100
AcDbEntity
  8
1
100
AcDbLine
 10
187.9929566603168
 20
103.9307381112843
 30
0.0
 11
187.8903026603167
 21
104.0263571112843
 31
0.0
  0
LINE
  5
1788
330
19
100
AcDbEntity
  8
1
100
AcDbLine
 10
188.1835566603167
 20
103.7530971112843
 30
0.0
 11
187.9929566603168
 21
103.9307381112843
 31
0.0
  0
LINE
  5
1789
330
19
100
AcDbEntity
  8
1
100
AcDbLine
 10
188.2861726603167
 20
103.6574771112843
 30
0.0
 11
188.1835566603167
 21
103.7530971112843
 31
0.0
  0
LINE
  5
178A
330
19
100
AcDbEntity
  8
1
100
AcDbLine
 10
188.6672946603168
 20
103.6574771112843
 30
0.0
 11
188.2861726603167
 21
103.6574771112843
 31
0.0
  0
LINE
  5
178B
330
19
100
AcDbEntity
  8
1
100
AcDbLine
 10
188.1835566603167
 20
109.4630621112843
 30
0.0
 11
188.2861726603167
 21
109.5586801112843
 31
0.0
  0
LINE
  5
178C
330
19
100
AcDbEntity
  8
1
100
AcDbLine
 10
187.9929566603168
 20
109.2854201112843
 30
0.0
 11
188.1835566603167
 21
109.4630621112843
 31
0.0
  0
LINE
  5
178D
330
19
100
AcDbEntity
  8
1
100
AcDbLine
 10
187.8903026603167
 20
109.1898021112843
 30
0.0
 11
187.9929566603168
 21
109.2854201112843
 31
0.0
  0
LINE
  5
178E
330
19
100
AcDbEntity
  8
1
100
AcDbLine
 10
187.7876866603167
 20
109.0941821112843
 30
0.0
 11
187.8903026603167
 21
109.1898021112843
 31
0.0
  0
LINE
  5
178F
330
19
100
AcDbEntity
  8
1
100
AcDbLine
 10
187.5970476603168
 20
108.9166501112843
 30
0.0
 11
187.7876866603167
 21
109.0941821112843
 31
0.0
  0
LINE
  5
1790
330
19
100
AcDbEntity
  8
1
100
AcDbLine
 10
187.4944326603167
 20
108.8210661112843
 30
0.0
 11
187.5970476603168
 21
108.9166501112843
 31
0.0
  0
LINE
  5
1791
330
19
100
AcDbEntity
  8
1
100
AcDbLine
 10
189.0777976603168
 20
103.6574771112843
 30
0.0
 11
188.9605126603168
 21
103.6574771112843
 31
0.0
  0
LINE
  5
1792
330
19
100
AcDbEntity
  8
1
100
AcDbLine
 10
181.1615896603167
 20
101.0756831112843
 30
0.0
 11
181.8358876603167
 21
101.0893521112843
 31
0.0
  0
LINE
  5
1793
330
19
100
AcDbEntity
  8
1
100
AcDbLine
 10
180.2673476603168
 20
103.0154471112843
 30
0.0
 11
180.3699646603168
 21
102.9198261112843
 31
0.0
  0
LINE
  5
1794
330
19
100
AcDbEntity
  8
1
100
AcDbLine
 10
180.0767476603168
 20
103.1929781112843
 30
0.0
 11
180.2673476603168
 21
103.0154471112843
 31
0.0
  0
LINE
  5
1795
330
19
100
AcDbEntity
  8
1
100
AcDbLine
 10
179.9740926603168
 20
103.2885981112843
 30
0.0
 11
180.0767476603168
 21
103.1929781112843
 31
0.0
  0
LINE
  5
1796
330
19
100
AcDbEntity
  8
1
100
AcDbLine
 10
179.8568076603167
 20
103.3705471112843
 30
0.0
 11
179.9740926603168
 21
103.2885981112843
 31
0.0
  0
LINE
  5
1797
330
19
100
AcDbEntity
  8
1
100
AcDbLine
 10
179.5635906603167
 20
103.4525321112843
 30
0.0
 11
179.8568076603167
 21
103.3705471112843
 31
0.0
  0
LINE
  5
1798
330
19
100
AcDbEntity
  8
1
100
AcDbLine
 10
179.1825076603168
 20
103.2885981112843
 30
0.0
 11
179.5635906603167
 21
103.4525321112843
 31
0.0
  0
LINE
  5
1799
330
19
100
AcDbEntity
  8
1
100
AcDbLine
 10
182.7447996603168
 20
101.4445621112843
 30
0.0
 11
183.5217536603167
 21
101.8406731112843
 31
0.0
  0
LINE
  5
179A
330
19
100
AcDbEntity
  8
1
100
AcDbLine
 10
182.3342966603168
 20
101.1849721112843
 30
0.0
 11
182.7447996603168
 21
101.4445621112843
 31
0.0
  0
LINE
  5
179B
330
19
100
AcDbEntity
  8
1
100
AcDbLine
 10
181.8358876603167
 20
101.0893521112843
 30
0.0
 11
182.3342966603168
 21
101.1849721112843
 31
0.0
  0
LINE
  5
179C
330
19
100
AcDbEntity
  8
1
100
AcDbLine
 10
184.2107626603168
 20
102.4007191112843
 30
0.0
 11
184.7238806603168
 21
103.2885981112843
 31
0.0
  0
LINE
  5
179D
330
19
100
AcDbEntity
  8
1
100
AcDbLine
 10
183.5217536603167
 20
101.8406731112843
 30
0.0
 11
184.2107626603168
 21
102.4007191112843
 31
0.0
  0
LINE
  5
179E
330
19
100
AcDbEntity
  8
1
100
AcDbLine
 10
184.7238806603168
 20
103.2885981112843
 30
0.0
 11
185.0316886603168
 21
103.5618221112843
 31
0.0
  0
LINE
  5
179F
330
19
100
AcDbEntity
  8
1
100
AcDbLine
 10
185.0316886603168
 20
103.5618221112843
 30
0.0
 11
185.3394976603168
 21
103.7530971112843
 31
0.0
  0
LINE
  5
17A0
330
19
100
AcDbEntity
  8
1
100
AcDbLine
 10
170.7531406603167
 20
101.0620491112843
 30
0.0
 11
170.8703886603167
 21
101.0756831112843
 31
0.0
  0
LINE
  5
17A1
330
19
100
AcDbEntity
  8
1
100
AcDbLine
 10
170.4599646603167
 20
100.9664291112843
 30
0.0
 11
170.7531406603167
 21
101.0620491112843
 31
0.0
  0
LINE
  5
17A2
330
19
100
AcDbEntity
  8
1
100
AcDbLine
 10
170.0788016603167
 20
100.7069481112843
 30
0.0
 11
170.4599646603167
 21
100.9664291112843
 31
0.0
  0
LINE
  5
17A3
330
19
100
AcDbEntity
  8
1
100
AcDbLine
 10
170.8703886603167
 20
101.0756831112843
 30
0.0
 11
179.1825076603168
 21
103.2885981112843
 31
0.0
  0
LINE
  5
17A4
330
19
100
AcDbEntity
  8
1
100
AcDbLine
 10
161.1950386603167
 20
150.9010361112843
 30
0.0
 11
161.7668386603167
 21
150.5322641112843
 31
0.0
  0
LINE
  5
17A5
330
19
100
AcDbEntity
  8
1
100
AcDbLine
 10
157.5313206603168
 20
150.1177531112841
 30
0.0
 11
158.3229856603167
 21
150.7447261112843
 31
0.0
  0
LINE
  5
17A6
330
19
100
AcDbEntity
  8
1
100
AcDbLine
 10
156.8716926603167
 20
150.3266931112842
 30
0.0
 11
156.8716926603167
 21
150.2454461112843
 31
0.0
  0
LINE
  5
17A7
330
19
100
AcDbEntity
  8
1
100
AcDbLine
 10
156.8716926603167
 20
150.2454461112843
 30
0.0
 11
156.8716926603167
 21
150.0945451112843
 31
0.0
  0
LINE
  5
17A8
330
19
100
AcDbEntity
  8
1
100
AcDbLine
 10
156.8716926603167
 20
150.0132671112843
 30
0.0
 11
156.4904906603167
 21
149.7926161112843
 31
0.0
  0
LINE
  5
17A9
330
19
100
AcDbEntity
  8
1
100
AcDbLine
 10
156.4904906603167
 20
149.7926161112843
 30
0.0
 11
156.1973136603168
 21
149.7113391112843
 31
0.0
  0
LINE
  5
17AA
330
19
100
AcDbEntity
  8
1
100
AcDbLine
 10
156.1973136603168
 20
149.7113391112843
 30
0.0
 11
156.0800676603167
 21
149.6997201112843
 31
0.0
  0
LINE
  5
17AB
330
19
100
AcDbEntity
  8
1
100
AcDbLine
 10
156.4757826603168
 20
149.6997201112843
 30
0.0
 11
157.5313206603168
 21
150.1177531112841
 31
0.0
  0
LINE
  5
17AC
330
19
100
AcDbEntity
  8
1
100
AcDbLine
 10
156.8716926603167
 20
150.0945451112843
 30
0.0
 11
156.8716926603167
 21
150.0132671112843
 31
0.0
  0
LINE
  5
17AD
330
19
100
AcDbEntity
  8
1
100
AcDbLine
 10
162.1626326603168
 20
150.4366091112843
 30
0.0
 11
162.5584246603168
 21
150.2590041112843
 31
0.0
  0
LINE
  5
17AE
330
19
100
AcDbEntity
  8
1
100
AcDbLine
 10
161.7668386603167
 20
150.5322641112843
 30
0.0
 11
162.1626326603168
 21
150.4366091112843
 31
0.0
  0
LINE
  5
17AF
330
19
100
AcDbEntity
  8
1
100
AcDbLine
 10
158.3229856603167
 20
150.7447261112843
 30
0.0
 11
158.8507716603167
 21
151.5806661112843
 31
0.0
  0
LINE
  5
17B0
330
19
100
AcDbEntity
  8
1
100
AcDbLine
 10
155.6841956603168
 20
150.9536941112842
 30
0.0
 11
155.6695256603167
 21
150.8724181112843
 31
0.0
  0
LINE
  5
17B1
330
19
100
AcDbEntity
  8
1
100
AcDbLine
 10
155.6695256603167
 20
150.8724181112843
 30
0.0
 11
155.5669486603167
 21
150.7215181112843
 31
0.0
  0
LINE
  5
17B2
330
19
100
AcDbEntity
  8
1
100
AcDbLine
 10
158.8507716603167
 20
151.5806661112843
 30
0.0
 11
158.7188156603168
 21
152.1961421112843
 31
0.0
  0
LINE
  5
17B3
330
19
100
AcDbEntity
  8
1
100
AcDbLine
 10
158.7188156603168
 20
152.1961421112843
 30
0.0
 11
158.3229856603167
 21
152.7418691112843
 31
0.0
  0
LINE
  5
17B4
330
19
100
AcDbEntity
  8
1
100
AcDbLine
 10
158.3229856603167
 20
152.7418691112843
 30
0.0
 11
157.6632776603167
 21
153.1482191112843
 31
0.0
  0
LINE
  5
17B5
330
19
100
AcDbEntity
  8
1
100
AcDbLine
 10
160.1834716603168
 20
154.2204071112843
 30
0.0
 11
160.0222526603167
 21
153.2233131112843
 31
0.0
  0
LINE
  5
17B6
330
19
100
AcDbEntity
  8
1
100
AcDbLine
 10
160.8871516603167
 20
151.2698411112842
 30
0.0
 11
161.1950386603167
 21
150.9010361112843
 31
0.0
  0
LINE
  5
17B7
330
19
100
AcDbEntity
  8
1
100
AcDbLine
 10
160.5793436603168
 20
151.6386491112843
 30
0.0
 11
160.8871516603167
 21
151.2698411112842
 31
0.0
  0
LINE
  5
17B8
330
19
100
AcDbEntity
  8
1
100
AcDbLine
 10
162.5730946603168
 20
152.7451781112843
 30
0.0
 11
162.6757106603168
 21
152.3763721112843
 31
0.0
  0
LINE
  5
17B9
330
19
100
AcDbEntity
  8
1
100
AcDbLine
 10
162.5584626603167
 20
153.1140591112843
 30
0.0
 11
162.5730946603168
 21
152.7451781112843
 31
0.0
  0
LINE
  5
17BA
330
19
100
AcDbEntity
  8
1
100
AcDbLine
 10
160.2128536603166
 20
152.3900071112843
 30
0.0
 11
160.5793436603168
 21
151.6386491112843
 31
0.0
  0
LINE
  5
17BB
330
19
100
AcDbEntity
  8
1
100
AcDbLine
 10
160.0222526603167
 20
153.2233131112843
 30
0.0
 11
160.2128536603166
 21
152.3900071112843
 31
0.0
  0
LINE
  5
17BC
330
19
100
AcDbEntity
  8
1
100
AcDbLine
 10
155.2884806603167
 20
150.6402711112843
 30
0.0
 11
155.1858266603167
 21
150.4196211112843
 31
0.0
  0
LINE
  5
17BD
330
19
100
AcDbEntity
  8
1
100
AcDbLine
 10
150.8611726603168
 20
148.4457451112841
 30
0.0
 11
152.9134886603167
 21
149.0727171112842
 31
0.0
  0
LINE
  5
17BE
330
19
100
AcDbEntity
  8
1
100
AcDbLine
 10
149.1606756603166
 20
147.8187421112841
 30
0.0
 11
150.8611726603168
 21
148.4457451112841
 31
0.0
  0
LINE
  5
17BF
330
19
100
AcDbEntity
  8
1
100
AcDbLine
 10
155.1858266603167
 20
150.4196211112843
 30
0.0
 11
154.9952256603168
 21
150.3383121112843
 31
0.0
  0
LINE
  5
17C0
330
19
100
AcDbEntity
  8
1
100
AcDbLine
 10
154.9952256603168
 20
150.3383121112843
 30
0.0
 11
154.8925716603168
 21
150.3266931112842
 31
0.0
  0
LINE
  5
17C1
330
19
100
AcDbEntity
  8
1
100
AcDbLine
 10
151.7261506603167
 20
153.4617671112843
 30
0.0
 11
152.5910496603168
 21
153.3572511112843
 31
0.0
  0
LINE
  5
17C2
330
19
100
AcDbEntity
  8
1
100
AcDbLine
 10
152.5910496603168
 20
151.7548701112843
 30
0.0
 11
151.7261506603167
 21
151.5806661112843
 31
0.0
  0
LINE
  5
17C3
330
19
100
AcDbEntity
  8
1
100
AcDbLine
 10
151.7261506603167
 20
151.5806661112843
 30
0.0
 11
150.6852816603168
 21
151.7548701112843
 31
0.0
  0
LINE
  5
17C4
330
19
100
AcDbEntity
  8
1
100
AcDbLine
 10
150.6852816603168
 20
151.7548701112843
 30
0.0
 11
149.9962736603167
 21
152.1380751112841
 31
0.0
  0
LINE
  5
17C5
330
19
100
AcDbEntity
  8
1
100
AcDbLine
 10
149.9962736603167
 20
152.1380751112841
 30
0.0
 11
149.7470676603167
 21
152.5212181112843
 31
0.0
  0
LINE
  5
17C6
330
19
100
AcDbEntity
  8
1
100
AcDbLine
 10
149.7470676603167
 20
152.5212181112843
 30
0.0
 11
149.9962736603167
 21
153.0437361112843
 31
0.0
  0
LINE
  5
17C7
330
19
100
AcDbEntity
  8
1
100
AcDbLine
 10
149.9962736603167
 20
153.0437361112843
 30
0.0
 11
150.6852816603168
 21
153.3572511112843
 31
0.0
  0
LINE
  5
17C8
330
19
100
AcDbEntity
  8
1
100
AcDbLine
 10
150.6852816603168
 20
153.3572511112843
 30
0.0
 11
151.7261506603167
 21
153.4617671112843
 31
0.0
  0
LINE
  5
17C9
330
19
100
AcDbEntity
  8
1
100
AcDbLine
 10
153.3679646603166
 20
153.0437361112843
 30
0.0
 11
153.7051136603167
 21
152.5212181112843
 31
0.0
  0
LINE
  5
17CA
330
19
100
AcDbEntity
  8
1
100
AcDbLine
 10
153.7051136603167
 20
152.5212181112843
 30
0.0
 11
153.3679646603166
 21
152.1380751112841
 31
0.0
  0
LINE
  5
17CB
330
19
100
AcDbEntity
  8
1
100
AcDbLine
 10
152.5910496603168
 20
153.3572511112843
 30
0.0
 11
153.3679646603166
 21
153.0437361112843
 31
0.0
  0
LINE
  5
17CC
330
19
100
AcDbEntity
  8
1
100
AcDbLine
 10
153.3679646603166
 20
152.1380751112841
 30
0.0
 11
152.5910496603168
 21
151.7548701112843
 31
0.0
  0
LINE
  5
17CD
330
19
100
AcDbEntity
  8
1
100
AcDbLine
 10
155.5669486603167
 20
150.7215181112843
 30
0.0
 11
155.2884806603167
 21
150.6402711112843
 31
0.0
  0
LINE
  5
17CE
330
19
100
AcDbEntity
  8
1
100
AcDbLine
 10
144.2057336603168
 20
147.1104621112843
 30
0.0
 11
144.6015276603167
 21
146.9594991112843
 31
0.0
  0
LINE
  5
17CF
330
19
100
AcDbEntity
  8
1
100
AcDbLine
 10
144.2056546603168
 20
151.2672421112843
 30
0.0
 11
144.6015646603167
 21
149.3862951112843
 31
0.0
  0
LINE
  5
17D0
330
19
100
AcDbEntity
  8
1
100
AcDbLine
 10
143.2381396603167
 20
147.5052261112843
 30
0.0
 11
143.8099396603167
 21
147.1917701112841
 31
0.0
  0
LINE
  5
17D1
330
19
100
AcDbEntity
  8
1
100
AcDbLine
 10
143.8099396603167
 20
147.1917701112841
 30
0.0
 11
144.2057336603168
 21
147.1104621112843
 31
0.0
  0
LINE
  5
17D2
330
19
100
AcDbEntity
  8
1
100
AcDbLine
 10
142.0653536603167
 20
149.4791611112843
 30
0.0
 11
142.2559546603167
 21
148.7708501112843
 31
0.0
  0
LINE
  5
17D3
330
19
100
AcDbEntity
  8
1
100
AcDbLine
 10
142.2559546603167
 20
148.7708501112843
 30
0.0
 11
142.6224456603167
 21
148.1321981112843
 31
0.0
  0
LINE
  5
17D4
330
19
100
AcDbEntity
  8
1
100
AcDbLine
 10
142.6224456603167
 20
148.1321981112843
 30
0.0
 11
142.9302536603167
 21
147.8187121112843
 31
0.0
  0
LINE
  5
17D5
330
19
100
AcDbEntity
  8
1
100
AcDbLine
 10
142.9302536603167
 20
147.8187121112843
 30
0.0
 11
143.2381396603167
 21
147.5052261112843
 31
0.0
  0
LINE
  5
17D6
330
19
100
AcDbEntity
  8
1
100
AcDbLine
 10
142.2265746603168
 20
150.3266931112842
 30
0.0
 11
142.0653536603167
 21
149.4791611112843
 31
0.0
  0
LINE
  5
17D7
330
19
100
AcDbEntity
  8
1
100
AcDbLine
 10
145.7889056603167
 20
146.8898111112843
 30
0.0
 11
146.5805306603168
 21
146.9711181112843
 31
0.0
  0
LINE
  5
17D8
330
19
100
AcDbEntity
  8
1
100
AcDbLine
 10
146.5805306603168
 20
146.9711181112843
 30
0.0
 11
147.3722706603168
 21
147.1917701112841
 31
0.0
  0
LINE
  5
17D9
330
19
100
AcDbEntity
  8
1
100
AcDbLine
 10
144.9972806603168
 20
146.8782221112843
 30
0.0
 11
145.7889056603167
 21
146.8898111112843
 31
0.0
  0
LINE
  5
17DA
330
19
100
AcDbEntity
  8
1
100
AcDbLine
 10
144.6015276603167
 20
146.9594991112843
 30
0.0
 11
144.9972806603168
 21
146.8782221112843
 31
0.0
  0
LINE
  5
17DB
330
19
100
AcDbEntity
  8
1
100
AcDbLine
 10
147.7679856603168
 20
149.6997201112843
 30
0.0
 11
147.6653706603167
 21
149.6997201112843
 31
0.0
  0
LINE
  5
17DC
330
19
100
AcDbEntity
  8
1
100
AcDbLine
 10
147.6653706603167
 20
149.6997201112843
 30
0.0
 11
147.4748496603167
 21
149.6997201112843
 31
0.0
  0
LINE
  5
17DD
330
19
100
AcDbEntity
  8
1
100
AcDbLine
 10
147.4748496603167
 20
149.6997201112843
 30
0.0
 11
147.3722706603168
 21
149.6997201112843
 31
0.0
  0
LINE
  5
17DE
330
19
100
AcDbEntity
  8
1
100
AcDbLine
 10
147.3722706603168
 20
149.6997201112843
 30
0.0
 11
147.2696176603168
 21
149.6997201112843
 31
0.0
  0
LINE
  5
17DF
330
19
100
AcDbEntity
  8
1
100
AcDbLine
 10
147.2696176603168
 20
149.6997201112843
 30
0.0
 11
147.0790166603167
 21
149.6997201112843
 31
0.0
  0
LINE
  5
17E0
330
19
100
AcDbEntity
  8
1
100
AcDbLine
 10
147.0790166603167
 20
149.6997201112843
 30
0.0
 11
146.9763616603168
 21
149.6997201112843
 31
0.0
  0
LINE
  5
17E1
330
19
100
AcDbEntity
  8
1
100
AcDbLine
 10
145.7889056603167
 20
148.4457451112841
 30
0.0
 11
145.6716196603168
 21
148.4457451112841
 31
0.0
  0
LINE
  5
17E2
330
19
100
AcDbEntity
  8
1
100
AcDbLine
 10
145.6716196603168
 20
148.4457451112841
 30
0.0
 11
145.3784416603168
 21
148.4457451112841
 31
0.0
  0
LINE
  5
17E3
330
19
100
AcDbEntity
  8
1
100
AcDbLine
 10
145.3784416603168
 20
148.4457451112841
 30
0.0
 11
144.9972806603168
 21
148.4457451112841
 31
0.0
  0
LINE
  5
17E4
330
19
100
AcDbEntity
  8
1
100
AcDbLine
 10
144.9972806603168
 20
148.4457451112841
 30
0.0
 11
144.9972806603168
 21
148.6779861112843
 31
0.0
  0
LINE
  5
17E5
330
19
100
AcDbEntity
  8
1
100
AcDbLine
 10
144.9972806603168
 20
148.6779861112843
 30
0.0
 11
144.9972806603168
 21
148.8405381112842
 31
0.0
  0
LINE
  5
17E6
330
19
100
AcDbEntity
  8
1
100
AcDbLine
 10
144.9972806603168
 20
148.8405381112842
 30
0.0
 11
144.9972806603168
 21
149.0727171112842
 31
0.0
  0
LINE
  5
17E7
330
19
100
AcDbEntity
  8
1
100
AcDbLine
 10
144.6015646603167
 20
149.3862951112843
 30
0.0
 11
144.6161966603168
 21
149.0727481112843
 31
0.0
  0
LINE
  5
17E8
330
19
100
AcDbEntity
  8
1
100
AcDbLine
 10
144.6161966603168
 20
149.0727481112843
 30
0.0
 11
144.7188126603167
 21
148.7592621112843
 31
0.0
  0
LINE
  5
17E9
330
19
100
AcDbEntity
  8
1
100
AcDbLine
 10
144.7188126603167
 20
148.7592621112843
 30
0.0
 11
144.9972806603168
 21
148.4457451112841
 31
0.0
  0
LINE
  5
17EA
330
19
100
AcDbEntity
  8
1
100
AcDbLine
 10
133.4350256603167
 20
149.5657091112843
 30
0.0
 11
139.8792146603167
 21
151.6907751112842
 31
0.0
210
0.0
220
0.0
230
-1.0
1001
ACAD
1000
R13OBJECT
1002
{
1005
0
1002
}
  0
LINE
  5
17EB
330
19
100
AcDbEntity
  8
1
100
AcDbLine
 10
139.8792146603167
 20
151.6907751112842
 30
0.0
 11
146.4138716603168
 21
153.5606401112843
 31
0.0
210
0.0
220
0.0
230
-1.0
1001
ACAD
1000
R13OBJECT
1002
{
1005
0
1002
}
  0
LINE
  5
17EC
330
19
100
AcDbEntity
  8
1
100
AcDbLine
 10
138.9060926603167
 20
132.9323841112843
 30
0.0
 11
133.4350256603167
 21
132.4826361112843
 31
0.0
210
0.0
220
0.0
230
-1.0
1001
ACAD
1000
R13OBJECT
1002
{
1005
0
1002
}
  0
LINE
  5
17ED
330
19
100
AcDbEntity
  8
1
100
AcDbLine
 10
144.1573476603167
 20
134.4319651112843
 30
0.0
 11
138.9060926603167
 21
132.9323841112843
 31
0.0
210
0.0
220
0.0
230
-1.0
1001
ACAD
1000
R13OBJECT
1002
{
1005
0
1002
}
  0
LINE
  5
17EE
330
19
100
AcDbEntity
  8
1
100
AcDbLine
 10
144.1107886603168
 20
134.4174801112843
 30
0.0
 11
160.7203066603168
 21
139.3483421112843
 31
0.0
210
0.0
220
0.0
230
-1.0
1001
ACAD
1000
R13OBJECT
1002
{
1005
0
1002
}
  0
LINE
  5
17EF
330
19
100
AcDbEntity
  8
1
100
AcDbLine
 10
156.0800676603167
 20
149.6997201112843
 30
0.0
 11
145.7889056603167
 21
148.4457451112841
 31
0.0
  0
LINE
  5
17F0
330
19
100
AcDbEntity
  8
1
100
AcDbLine
 10
154.8925716603168
 20
150.3266931112842
 30
0.0
 11
147.7679856603168
 21
149.6997201112843
 31
0.0
  0
LINE
  5
17F1
330
19
100
AcDbEntity
  8
1
100
AcDbLine
 10
147.3722706603168
 20
147.1917701112841
 30
0.0
 11
149.1606756603166
 21
147.8187421112841
 31
0.0
  0
LINE
  5
17F2
330
19
100
AcDbEntity
  8
1
100
AcDbLine
 10
162.5584246603168
 20
150.2590041112843
 30
0.0
 11
162.9541776603167
 21
150.1633831112843
 31
0.0
  0
LINE
  5
17F3
330
19
100
AcDbEntity
  8
1
100
AcDbLine
 10
162.6757106603168
 20
152.3763721112843
 30
0.0
 11
162.9541776603167
 21
152.0075281112843
 31
0.0
  0
LINE
  5
17F4
330
19
100
AcDbEntity
  8
1
100
AcDbLine
 10
143.2028186603168
 20
152.6769711112843
 30
0.0
 11
143.2028186603168
 21
168.2357281112843
 31
0.0
  0
LINE
  5
17F5
330
19
100
AcDbEntity
  8
1
100
AcDbLine
 10
141.7508186603168
 20
152.2551691112843
 30
0.0
 11
141.7508186603168
 21
168.2357281112843
 31
0.0
  0
LINE
  5
17F6
330
19
100
AcDbEntity
  8
1
100
AcDbLine
 10
158.4549016603167
 20
155.9697171112843
 30
0.0
 11
156.8716926603167
 21
150.3266931112842
 31
0.0
  0
LINE
  5
17F7
330
19
100
AcDbEntity
  8
1
100
AcDbLine
 10
146.9763616603168
 20
149.6997201112843
 30
0.0
 11
148.1638586603168
 21
154.7157441112843
 31
0.0
  0
LINE
  5
17F8
330
19
100
AcDbEntity
  8
1
100
AcDbLine
 10
144.9972806603168
 20
149.0727171112842
 30
0.0
 11
146.9763616603168
 21
155.3427161112843
 31
0.0
  0
LINE
  5
17F9
330
19
100
AcDbEntity
  8
1
100
AcDbLine
 10
156.8716926603167
 20
155.6562931112843
 30
0.0
 11
155.6841956603168
 21
150.9536941112842
 31
0.0
  0
LINE
  5
17FA
330
19
100
AcDbEntity
  8
1
100
AcDbLine
 10
162.9541776603167
 20
152.7451431112843
 30
0.0
 11
164.9332606603167
 21
160.1216111112843
 31
0.0
  0
LINE
  5
17FB
330
19
100
AcDbEntity
  8
1
100
AcDbLine
 10
164.9332606603167
 20
153.4827941112843
 30
0.0
 11
166.1207566603168
 21
159.3839961112843
 31
0.0
  0
LINE
  5
17FC
330
19
100
AcDbEntity
  8
1
100
AcDbLine
 10
162.1625546603167
 20
155.3269381112843
 30
0.0
 11
162.5584626603167
 21
153.1140591112843
 31
0.0
  0
LINE
  5
17FD
330
19
100
AcDbEntity
  8
1
100
AcDbLine
 10
173.5238466603168
 20
154.6849061112843
 30
0.0
 11
173.2453796603167
 21
154.5893221112843
 31
0.0
  0
LINE
  5
17FE
330
19
100
AcDbEntity
  8
1
100
AcDbLine
 10
176.4118016603168
 20
160.8592601112843
 30
0.0
 11
174.8285886603167
 21
154.2204071112843
 31
0.0
  0
LINE
  5
17FF
330
19
100
AcDbEntity
  8
1
100
AcDbLine
 10
175.4882186603167
 20
153.9745961112843
 30
0.0
 11
176.2798826603167
 21
154.7122101112843
 31
0.0
  0
LINE
  5
1800
330
19
100
AcDbEntity
  8
1
100
AcDbLine
 10
188.2861726603167
 20
109.5586801112843
 30
0.0
 11
197.3897216603168
 21
111.0339441112843
 31
0.0
  0
LINE
  5
1801
330
19
100
AcDbEntity
  8
1
100
AcDbLine
 10
199.3688426603167
 20
105.8703921112843
 30
0.0
 11
189.0777976603168
 21
103.6574771112843
 31
0.0
  0
LINE
  5
1802
330
19
100
AcDbEntity
  8
1
100
AcDbLine
 10
189.7863896603167
 20
146.6047891112843
 30
0.0
 11
197.6805736603168
 21
149.2199881112843
 31
0.0
210
0.0
220
0.0
230
-1.0
1001
ACAD
1000
R13OBJECT
1002
{
1005
0
1002
}
  0
LINE
  5
1803
330
19
100
AcDbEntity
  8
1
100
AcDbLine
 10
182.7447996603168
 20
165.6539331112843
 30
0.0
 11
192.6400906603168
 21
166.7604641112843
 31
0.0
  0
LINE
  5
1804
330
19
100
AcDbEntity
  8
1
100
AcDbLine
 10
193.4317156603168
 20
166.3917301112843
 30
0.0
 11
191.8485036603168
 21
157.5398511112843
 31
0.0
  0
LINE
  5
1805
330
19
100
AcDbEntity
  8
1
100
AcDbLine
 10
192.2442186603168
 20
157.5398511112843
 30
0.0
 11
193.0065026603167
 21
157.7583951112843
 31
0.0
  0
LINE
  5
1806
330
19
100
AcDbEntity
  8
1
100
AcDbLine
 10
191.8485036603168
 20
168.2357281112843
 30
0.0
 11
193.4317156603168
 21
166.7604641112843
 31
0.0
  0
LINE
  5
1807
330
19
100
AcDbEntity
  8
1
100
AcDbLine
 10
191.6999696603167
 20
170.9558571112841
 30
0.0
 11
194.6994506603167
 21
171.1230211112843
 31
0.0
  0
LINE
  5
1808
330
19
100
AcDbEntity
  8
1
100
AcDbLine
 10
197.0875166603168
 20
90.81925011128431
 30
0.0
 11
194.3717576603168
 21
90.74864911128427
 31
0.0
  0
LINE
  5
1809
330
19
100
AcDbEntity
  8
1
100
AcDbLine
 10
199.8821546603167
 20
90.89847811128429
 30
0.0
 11
197.0875166603168
 21
90.81925011128431
 31
0.0
  0
LINE
  5
180A
330
19
100
AcDbEntity
  8
1
100
AcDbLine
 10
205.7341546603168
 20
91.0886161112843
 30
0.0
 11
199.8821546603167
 21
90.89847811128429
 31
0.0
  0
LINE
  5
180B
330
19
100
AcDbEntity
  8
1
100
AcDbLine
 10
192.7427056603167
 20
91.47263011128428
 30
0.0
 11
193.0358446603167
 21
91.11742011128432
 31
0.0
  0
LINE
  5
180C
330
19
100
AcDbEntity
  8
1
100
AcDbLine
 10
188.6819276603167
 20
92.2239501112843
 30
0.0
 11
189.2682816603167
 21
92.48343211128432
 31
0.0
  0
LINE
  5
180D
330
19
100
AcDbEntity
  8
1
100
AcDbLine
 10
187.8903026603167
 20
91.85507111128428
 30
0.0
 11
188.1835566603167
 21
92.11466111128428
 31
0.0
  0
LINE
  5
180E
330
19
100
AcDbEntity
  8
1
100
AcDbLine
 10
187.6263886603167
 20
91.48626311128428
 30
0.0
 11
187.8903026603167
 21
91.85507111128428
 31
0.0
  0
LINE
  5
180F
330
19
100
AcDbEntity
  8
1
100
AcDbLine
 10
188.3887886603168
 20
92.21028111128431
 30
0.0
 11
188.6819276603167
 21
92.2239501112843
 31
0.0
  0
LINE
  5
1810
330
19
100
AcDbEntity
  8
1
100
AcDbLine
 10
188.1835566603167
 20
92.11466111128428
 30
0.0
 11
188.3887886603168
 21
92.21028111128431
 31
0.0
  0
LINE
  5
1811
330
19
100
AcDbEntity
  8
1
100
AcDbLine
 10
192.2295496603167
 20
92.1282961112843
 30
0.0
 11
192.2442186603168
 21
91.85507111128428
 31
0.0
  0
LINE
  5
1812
330
19
100
AcDbEntity
  8
1
100
AcDbLine
 10
192.2442186603168
 20
91.85507111128428
 30
0.0
 11
192.5374746603168
 21
91.7458171112843
 31
0.0
  0
LINE
  5
1813
330
19
100
AcDbEntity
  8
1
100
AcDbLine
 10
191.8485036603168
 20
92.59268411128427
 30
0.0
 11
192.1269726603167
 21
92.31953411128428
 31
0.0
  0
LINE
  5
1814
330
19
100
AcDbEntity
  8
1
100
AcDbLine
 10
192.1269726603167
 20
92.31953411128428
 30
0.0
 11
192.2295496603167
 21
92.1282961112843
 31
0.0
  0
LINE
  5
1815
330
19
100
AcDbEntity
  8
1
100
AcDbLine
 10
189.6787446603168
 20
92.57905211128427
 30
0.0
 11
190.2651386603167
 21
92.59268411128427
 31
0.0
  0
LINE
  5
1816
330
19
100
AcDbEntity
  8
1
100
AcDbLine
 10
189.2682816603167
 20
92.48343211128432
 30
0.0
 11
189.6787446603168
 21
92.57905211128427
 31
0.0
  0
LINE
  5
1817
330
19
100
AcDbEntity
  8
1
100
AcDbLine
 10
191.1740876603168
 20
92.59268411128427
 30
0.0
 11
191.8485036603168
 21
92.59268411128427
 31
0.0
  0
LINE
  5
1818
330
19
100
AcDbEntity
  8
1
100
AcDbLine
 10
190.6756396603168
 20
92.59268411128427
 30
0.0
 11
191.1740876603168
 21
92.59268411128427
 31
0.0
  0
LINE
  5
1819
330
19
100
AcDbEntity
  8
1
100
AcDbLine
 10
190.2651386603167
 20
92.59268411128427
 30
0.0
 11
190.6756396603168
 21
92.59268411128427
 31
0.0
  0
LINE
  5
181A
330
19
100
AcDbEntity
  8
1
100
AcDbLine
 10
181.6599586603167
 20
98.9583871112843
 30
0.0
 11
181.5573046603168
 21
98.8628041112843
 31
0.0
  0
LINE
  5
181B
330
19
100
AcDbEntity
  8
1
100
AcDbLine
 10
181.8505586603168
 20
99.13591911128428
 30
0.0
 11
181.6599586603167
 21
98.9583871112843
 31
0.0
  0
LINE
  5
181C
330
19
100
AcDbEntity
  8
1
100
AcDbLine
 10
181.9531746603167
 20
99.2315391112843
 30
0.0
 11
181.8505586603168
 21
99.13591911128428
 31
0.0
  0
LINE
  5
181D
330
19
100
AcDbEntity
  8
1
100
AcDbLine
 10
181.9531746603167
 20
99.34082911128427
 30
0.0
 11
181.9531746603167
 21
99.2315391112843
 31
0.0
  0
LINE
  5
181E
330
19
100
AcDbEntity
  8
1
100
AcDbLine
 10
181.9531746603167
 20
99.61405211128429
 30
0.0
 11
181.9531746603167
 21
99.34082911128427
 31
0.0
  0
LINE
  5
181F
330
19
100
AcDbEntity
  8
1
100
AcDbLine
 10
181.9531746603167
 20
99.96915211128431
 30
0.0
 11
181.9531746603167
 21
99.61405211128429
 31
0.0
  0
LINE
  5
1820
330
19
100
AcDbEntity
  8
1
100
AcDbLine
 10
191.6373966603168
 20
90.6780871112843
 30
0.0
 11
188.7870716603167
 21
90.59882111128429
 31
0.0
  0
LINE
  5
1821
330
19
100
AcDbEntity
  8
1
100
AcDbLine
 10
187.8903026603167
 20
90.74868611128428
 30
0.0
 11
187.6263886603167
 21
91.11745711128428
 31
0.0
  0
LINE
  5
1822
330
19
100
AcDbEntity
  8
1
100
AcDbLine
 10
188.7870716603167
 20
90.59882111128429
 30
0.0
 11
185.7233836603167
 21
90.50229611128427
 31
0.0
  0
LINE
  5
1823
330
19
100
AcDbEntity
  8
1
100
AcDbLine
 10
182.3489276603168
 20
90.37980711128431
 30
0.0
 11
178.5640106603168
 21
90.6622041112843
 31
0.0
  0
LINE
  5
1824
330
19
100
AcDbEntity
  8
1
100
AcDbLine
 10
185.7233836603167
 20
90.50229611128427
 30
0.0
 11
182.3489276603168
 21
90.37980711128431
 31
0.0
  0
LINE
  5
1825
330
19
100
AcDbEntity
  8
1
100
AcDbLine
 10
187.6263886603167
 20
91.11745711128428
 30
0.0
 11
187.6263886603167
 21
91.48626311128428
 31
0.0
  0
LINE
  5
1826
330
19
100
AcDbEntity
  8
1
100
AcDbLine
 10
171.2515886603168
 20
96.48584611128432
 30
0.0
 11
170.8703886603167
 21
96.64974511128427
 31
0.0
  0
LINE
  5
1827
330
19
100
AcDbEntity
  8
1
100
AcDbLine
 10
171.6620126603167
 20
96.64974511128427
 30
0.0
 11
171.5447256603168
 21
96.56779611128428
 31
0.0
  0
LINE
  5
1828
330
19
100
AcDbEntity
  8
1
100
AcDbLine
 10
173.6410946603168
 20
93.33048011128427
 30
0.0
 11
174.3154326603168
 21
93.2348251112843
 31
0.0
  0
LINE
  5
1829
330
19
100
AcDbEntity
  8
1
100
AcDbLine
 10
170.4746736603168
 20
91.85507111128428
 30
0.0
 11
170.7678116603167
 21
92.38781211128427
 31
0.0
  0
LINE
  5
182A
330
19
100
AcDbEntity
  8
1
100
AcDbLine
 10
172.0578446603168
 20
93.3168091112843
 30
0.0
 11
172.4535996603167
 21
93.33048011128427
 31
0.0
  0
LINE
  5
182B
330
19
100
AcDbEntity
  8
1
100
AcDbLine
 10
173.2453006603168
 20
93.33048011128427
 30
0.0
 11
173.6410946603168
 21
93.33048011128427
 31
0.0
  0
LINE
  5
182C
330
19
100
AcDbEntity
  8
1
100
AcDbLine
 10
172.8494696603168
 20
93.33048011128427
 30
0.0
 11
173.2453006603168
 21
93.33048011128427
 31
0.0
  0
LINE
  5
182D
330
19
100
AcDbEntity
  8
1
100
AcDbLine
 10
172.4535996603167
 20
93.33048011128427
 30
0.0
 11
172.8494696603168
 21
93.33048011128427
 31
0.0
  0
LINE
  5
182E
330
19
100
AcDbEntity
  8
1
100
AcDbLine
 10
171.6620516603167
 20
93.22115511128428
 30
0.0
 11
172.0578446603168
 21
93.3168091112843
 31
0.0
  0
LINE
  5
182F
330
19
100
AcDbEntity
  8
1
100
AcDbLine
 10
171.2662586603168
 20
92.96160211128428
 30
0.0
 11
171.6620516603167
 21
93.22115511128428
 31
0.0
  0
LINE
  5
1830
330
19
100
AcDbEntity
  8
1
100
AcDbLine
 10
170.9730426603167
 20
92.67467011128431
 30
0.0
 11
171.2662586603168
 21
92.96160211128428
 31
0.0
  0
LINE
  5
1831
330
19
100
AcDbEntity
  8
1
100
AcDbLine
 10
170.7678116603167
 20
92.38781211128427
 30
0.0
 11
170.9730426603167
 21
92.67467011128431
 31
0.0
  0
LINE
  5
1832
330
19
100
AcDbEntity
  8
1
100
AcDbLine
 10
171.5447256603168
 20
96.56779611128428
 30
0.0
 11
171.2515886603168
 21
96.48584611128432
 31
0.0
  0
LINE
  5
1833
330
19
100
AcDbEntity
  8
1
100
AcDbLine
 10
175.8840116603167
 20
92.11466111128428
 30
0.0
 11
175.8840116603167
 21
91.84143711128431
 31
0.0
  0
LINE
  5
1834
330
19
100
AcDbEntity
  8
1
100
AcDbLine
 10
175.8840116603167
 20
91.84143711128431
 30
0.0
 11
175.6201766603167
 21
91.48633611128428
 31
0.0
  0
LINE
  5
1835
330
19
100
AcDbEntity
  8
1
100
AcDbLine
 10
174.8138806603167
 20
93.05722011128429
 30
0.0
 11
175.2243066603167
 21
92.96160211128428
 31
0.0
  0
LINE
  5
1836
330
19
100
AcDbEntity
  8
1
100
AcDbLine
 10
174.3154326603168
 20
93.2348251112843
 30
0.0
 11
174.8138806603167
 21
93.05722011128429
 31
0.0
  0
LINE
  5
1837
330
19
100
AcDbEntity
  8
1
100
AcDbLine
 10
175.5175606603168
 20
92.49710211128428
 30
0.0
 11
175.6201766603167
 21
92.2239501112843
 31
0.0
  0
LINE
  5
1838
330
19
100
AcDbEntity
  8
1
100
AcDbLine
 10
175.3269216603167
 20
92.68834011128431
 30
0.0
 11
175.5175606603168
 21
92.49710211128428
 31
0.0
  0
LINE
  5
1839
330
19
100
AcDbEntity
  8
1
100
AcDbLine
 10
175.2243066603167
 20
92.96160211128428
 30
0.0
 11
175.3269216603167
 21
92.68834011128431
 31
0.0
  0
LINE
  5
183A
330
19
100
AcDbEntity
  8
1
100
AcDbLine
 10
175.6201766603167
 20
92.2239501112843
 30
0.0
 11
175.8840116603167
 21
92.11466111128428
 31
0.0
  0
LINE
  5
183B
330
19
100
AcDbEntity
  8
1
100
AcDbLine
 10
170.7531406603167
 20
96.7590341112843
 30
0.0
 11
170.4746736603168
 21
97.01862311128428
 31
0.0
  0
LINE
  5
183C
330
19
100
AcDbEntity
  8
1
100
AcDbLine
 10
170.8557566603167
 20
96.66341411128431
 30
0.0
 11
170.7531406603167
 21
96.7590341112843
 31
0.0
  0
LINE
  5
183D
330
19
100
AcDbEntity
  8
1
100
AcDbLine
 10
170.8703886603167
 20
96.64974511128427
 30
0.0
 11
170.8557566603167
 21
96.66341411128431
 31
0.0
  0
LINE
  5
183E
330
19
100
AcDbEntity
  8
1
100
AcDbLine
 10
168.0996816603167
 20
91.85507111128428
 30
0.0
 11
167.4107116603167
 21
91.8687411112843
 31
0.0
  0
LINE
  5
183F
330
19
100
AcDbEntity
  8
1
100
AcDbLine
 10
169.1845996603167
 20
97.2918831112843
 30
0.0
 11
169.7856646603167
 21
97.48312311128428
 31
0.0
  0
LINE
  5
1840
330
19
100
AcDbEntity
  8
1
100
AcDbLine
 10
168.4955906603168
 20
97.01862311128428
 30
0.0
 11
169.1845996603167
 21
97.2918831112843
 31
0.0
  0
LINE
  5
1841
330
19
100
AcDbEntity
  8
1
100
AcDbLine
 10
170.0788016603167
 20
100.4336871112843
 30
0.0
 11
170.0788016603167
 21
100.6112931112843
 31
0.0
  0
LINE
  5
1842
330
19
100
AcDbEntity
  8
1
100
AcDbLine
 10
170.0788016603167
 20
100.3380681112843
 30
0.0
 11
170.0788016603167
 21
100.4336871112843
 31
0.0
  0
LINE
  5
1843
330
19
100
AcDbEntity
  8
1
100
AcDbLine
 10
170.4746736603168
 20
97.01862311128428
 30
0.0
 11
170.0788016603167
 21
100.3380681112843
 31
0.0
  0
LINE
  5
1844
330
19
100
AcDbEntity
  8
1
100
AcDbLine
 10
169.7856646603167
 20
97.48312311128428
 30
0.0
 11
170.4746736603168
 21
97.75627311128431
 31
0.0
  0
LINE
  5
1845
330
19
100
AcDbEntity
  8
1
100
AcDbLine
 10
175.2243436603168
 20
90.9791591112843
 30
0.0
 11
171.8846786603167
 21
91.36522511128431
 31
0.0
  0
LINE
  5
1846
330
19
100
AcDbEntity
  8
1
100
AcDbLine
 10
171.8846786603167
 20
91.36522511128431
 30
0.0
 11
168.0996816603167
 21
91.85507111128428
 31
0.0
  0
LINE
  5
1847
330
19
100
AcDbEntity
  8
1
100
AcDbLine
 10
178.5640106603168
 20
90.6622041112843
 30
0.0
 11
175.2243436603168
 21
90.9791591112843
 31
0.0
  0
LINE
  5
1848
330
19
100
AcDbEntity
  8
1
100
AcDbLine
 10
181.5573046603168
 20
98.8628041112843
 30
0.0
 11
171.6620126603167
 21
96.64974511128427
 31
0.0
  0
LINE
  5
1849
330
19
100
AcDbEntity
  8
1
100
AcDbLine
 10
146.2147086603168
 20
91.29847911128427
 30
0.0
 11
134.6436596603167
 21
90.74870111128431
 31
0.0
210
0.0
220
0.0
230
-1.0
1001
ACAD
1000
R13OBJECT
1002
{
1005
0
1002
}
  0
LINE
  5
184A
330
19
100
AcDbEntity
  8
1
100
AcDbLine
 10
153.5055826603167
 20
92.64887011128427
 30
0.0
 11
146.2147086603168
 21
91.29847911128427
 31
0.0
210
0.0
220
0.0
230
-1.0
1001
ACAD
1000
R13OBJECT
1002
{
1005
0
1002
}
  0
LINE
  5
184B
330
19
100
AcDbEntity
  8
1
100
AcDbLine
 10
168.4955906603168
 20
97.01863711128432
 30
0.0
 11
164.7416926603168
 21
95.77546611128427
 31
0.0
210
0.0
220
0.0
230
-1.0
1001
ACAD
1000
R13OBJECT
1002
{
1005
0
1002
}
  0
LINE
  5
184C
330
19
100
AcDbEntity
  8
1
100
AcDbLine
 10
167.4107116603167
 20
91.8687411112843
 30
0.0
 11
160.1060516603167
 21
93.1267001112843
 31
0.0
  0
LINE
  5
184D
330
19
100
AcDbEntity
  8
1
100
AcDbLine
 10
194.3717576603168
 20
90.74864911128427
 30
0.0
 11
191.6373966603168
 21
90.6780871112843
 31
0.0
  0
LINE
  5
184E
330
19
100
AcDbEntity
  8
1
100
AcDbLine
 10
192.5374746603168
 20
91.7458171112843
 30
0.0
 11
192.7427056603167
 21
91.47263011128428
 31
0.0
  0
LINE
  5
184F
330
19
100
AcDbEntity
  8
1
100
AcDbLine
 10
143.2028186603168
 20
91.00380011128429
 30
0.0
 11
143.2028186603168
 21
134.1593841112842
 31
0.0
  0
LINE
  5
1850
330
19
100
AcDbEntity
  8
1
100
AcDbLine
 10
141.7508186603168
 20
91.00380011128429
 30
0.0
 11
141.7508186603168
 21
133.7447421112843
 31
0.0
  0
LINE
  5
1851
330
19
100
AcDbEntity
  8
1
100
AcDbLine
 10
170.0788016603167
 20
100.6112931112843
 30
0.0
 11
170.0788016603167
 21
100.7069481112843
 31
0.0
  0
LINE
  5
1852
330
19
100
AcDbEntity
  8
1
100
AcDbLine
 10
180.3699646603168
 20
102.9198261112843
 30
0.0
 11
181.9531746603167
 21
99.96915211128431
 31
0.0
  0
ARC
  5
1853
330
19
100
AcDbEntity
  8
1
100
AcDbCircle
 10
126.8073756603168
 20
172.6357281112843
 30
0.0
 40
4.4
100
AcDbArc
 50
180.0
 51
270.0
  0
LINE
  5
1854
330
19
100
AcDbEntity
  8
1
100
AcDbLine
 10
122.4073756603168
 20
176.5515131112843
 30
0.0
 11
122.4073756603168
 21
172.6357281112843
 31
0.0
  0
LINE
  5
1855
330
19
100
AcDbEntity
  8
1
100
AcDbLine
 10
98.73738766031678
 20
168.2531146112843
 30
0.0
 11
98.73738766031678
 21
183.0176791112841
 31
0.0
  0
LINE
  5
1856
330
19
100
AcDbEntity
  8
1
100
AcDbLine
 10
107.8481986603167
 20
179.1815271112842
 30
0.0
 11
113.7894676603167
 21
179.1815271112842
 31
0.0
  0
LINE
  5
1857
330
19
100
AcDbEntity
  8
1
100
AcDbLine
 10
107.6084986603167
 20
144.9129601112843
 30
0.0
 11
107.6084986603167
 21
179.6609291112843
 31
0.0
  0
LINE
  5
1858
330
19
100
AcDbEntity
  8
1
100
AcDbLine
 10
98.97718166031678
 20
129.6713641112843
 30
0.0
 11
98.9771816603168
 21
168.2531146112843
 31
0.0
  0
LINE
  5
1859
330
19
100
AcDbEntity
  8
1
100
AcDbLine
 10
113.7894676603167
 20
179.1815271112842
 30
0.0
 11
113.7894676603167
 21
144.9129601112843
 31
0.0
  0
LINE
  5
185A
330
19
100
AcDbEntity
  8
1
100
AcDbLine
 10
94.18201766031677
 20
168.2531146112843
 30
0.0
 11
98.97718166031678
 21
168.2531146112843
 31
0.0
  0
ARC
  5
185B
330
19
100
AcDbEntity
  8
1
100
AcDbCircle
 10
126.8073756603168
 20
86.3486861112843
 30
0.0
 40
4.4
100
AcDbArc
 50
90.0
 51
180.0
  0
LINE
  5
185C
330
19
100
AcDbEntity
  8
1
100
AcDbLine
 10
94.18201766031677
 20
92.0419766112843
 30
0.0
 11
98.97718166031678
 21
92.0419766112843
 31
0.0
  0
LINE
  5
185D
330
19
100
AcDbEntity
  8
1
100
AcDbLine
 10
98.97718166031678
 20
129.6713641112843
 30
0.0
 11
98.97718166031678
 21
92.04197661128427
 31
0.0
  0
LINE
  5
185E
330
19
100
AcDbEntity
  8
1
100
AcDbLine
 10
122.1283306603168
 20
83.74694111128428
 30
0.0
 11
122.1283306603168
 21
109.8806141112843
 31
0.0
  0
LINE
  5
185F
330
19
100
AcDbEntity
  8
1
100
AcDbLine
 10
116.1870866603167
 20
114.5639221112843
 30
0.0
 11
116.1870866603167
 21
92.62869111128427
 31
0.0
  0
LINE
  5
1860
330
19
100
AcDbEntity
  8
1
100
AcDbLine
 10
113.5497436603168
 20
92.62869111128427
 30
0.0
 11
113.5497436603168
 21
114.5639221112843
 31
0.0
  0
LINE
  5
1861
330
19
100
AcDbEntity
  8
1
100
AcDbLine
 10
107.6084986603167
 20
114.5639221112843
 30
0.0
 11
107.6084986603167
 21
92.62869111128427
 31
0.0
  0
LINE
  5
1862
330
19
100
AcDbEntity
  8
1
100
AcDbLine
 10
105.2108806603168
 20
92.62869111128427
 30
0.0
 11
105.2108806603168
 21
114.5639221112843
 31
0.0
  0
LINE
  5
1863
330
19
100
AcDbEntity
  8
1
100
AcDbLine
 10
100.1758966603167
 20
114.5639221112843
 30
0.0
 11
100.1758966603167
 21
92.62869111128427
 31
0.0
  0
LINE
  5
1864
330
19
100
AcDbEntity
  8
1
100
AcDbLine
 10
94.18201766031677
 20
92.0419766112843
 30
0.0
 11
94.18201766031677
 21
168.2531146112843
 31
0.0
  0
LINE
  5
1865
330
19
100
AcDbEntity
  8
SK1
100
AcDbLine
 10
-6.518567339683229
 20
154.1072946112843
 30
0.0
 11
-6.864859339683134
 21
153.7876636112843
 31
0.0
  0
LINE
  5
1866
330
19
100
AcDbEntity
  8
SK1
100
AcDbLine
 10
-6.864859339683134
 20
153.7876636112843
 30
0.0
 11
-7.051334339683138
 21
153.3081676112843
 31
0.0
  0
LINE
  5
1867
330
19
100
AcDbEntity
  8
SK1
100
AcDbLine
 10
-7.051334339683138
 20
153.3081676112843
 30
0.0
 11
-7.237763339683127
 21
152.6687846112843
 31
0.0
  0
LINE
  5
1868
330
19
100
AcDbEntity
  8
SK1
100
AcDbLine
 10
-5.559483339683224
 20
154.8177446112843
 30
0.0
 11
-6.039025339683233
 21
154.5158386112843
 31
0.0
  0
LINE
  5
1869
330
19
100
AcDbEntity
  8
SK1
100
AcDbLine
 10
-6.039025339683233
 20
154.5158386112843
 30
0.0
 11
-6.518567339683229
 21
154.1072946112843
 31
0.0
  0
LINE
  5
186A
330
19
100
AcDbEntity
  8
SK1
100
AcDbLine
 10
-7.237763339683127
 20
152.6687846112843
 30
0.0
 11
-7.237763339683127
 21
130.2674426112843
 31
0.0
  0
LINE
  5
186B
330
19
100
AcDbEntity
  8
SK1
100
AcDbLine
 10
-5.559483339683224
 20
105.7171386112843
 30
0.0
 11
-6.039025339683233
 21
106.0190446112843
 31
0.0
  0
LINE
  5
186C
330
19
100
AcDbEntity
  8
SK1
100
AcDbLine
 10
-5.079940339683219
 20
105.4684816112843
 30
0.0
 11
-5.559483339683224
 21
105.7171386112843
 31
0.0
  0
LINE
  5
186D
330
19
100
AcDbEntity
  8
SK1
100
AcDbLine
 10
-6.518567339683229
 20
106.4275886112843
 30
0.0
 11
-6.864859339683134
 21
106.7472226112843
 31
0.0
  0
LINE
  5
186E
330
19
100
AcDbEntity
  8
SK1
100
AcDbLine
 10
-6.039025339683233
 20
106.0190446112843
 30
0.0
 11
-6.518567339683229
 21
106.4275886112843
 31
0.0
  0
LINE
  5
186F
330
19
100
AcDbEntity
  8
SK1
100
AcDbLine
 10
-6.864859339683134
 20
106.7472226112843
 30
0.0
 11
-7.051334339683138
 21
107.2267166112843
 31
0.0
  0
LINE
  5
1870
330
19
100
AcDbEntity
  8
SK1
100
AcDbLine
 10
-7.051334339683138
 20
107.2267166112843
 30
0.0
 11
-7.237763339683127
 21
107.8660986112843
 31
0.0
  0
LINE
  5
1871
330
19
100
AcDbEntity
  8
SK1
100
AcDbLine
 10
-7.237763339683127
 20
107.8660986112843
 30
0.0
 11
-7.237763339683127
 21
130.2674426112843
 31
0.0
  0
LINE
  5
1872
330
19
100
AcDbEntity
  8
SK1
100
AcDbLine
 10
-5.079940339683219
 20
105.4684816112843
 30
0.0
 11
94.18201766031677
 21
92.0419766112843
 31
0.0
  0
LINE
  5
1873
330
19
100
AcDbEntity
  8
SK1
100
AcDbLine
 10
-5.559483339683224
 20
154.8177446112843
 30
0.0
 11
94.18201766031677
 21
168.2531146112843
 31
0.0
  0
LINE
  5
1874
330
19
100
AcDbEntity
  8
1
100
AcDbLine
 10
126.8073756603168
 20
168.2357281112843
 30
0.0
 11
166.6613566603167
 21
168.2357281112843
 31
0.0
  0
LINE
  5
1875
330
19
100
AcDbEntity
  8
1
100
AcDbLine
 10
134.6436606603168
 20
90.74868611128428
 30
0.0
 11
126.8073756603168
 21
90.74868611128428
 31
0.0
  0
LINE
  5
1876
330
19
100
AcDbEntity
  8
1
100
AcDbLine
 10
122.1283306603168
 20
140.1986151112843
 30
0.0
 11
122.1283306603168
 21
184.2164881112843
 31
0.0
  0
LINE
  5
1877
330
19
100
AcDbEntity
  8
1
100
AcDbLine
 10
116.4267866603167
 20
144.9129601112843
 30
0.0
 11
116.4267866603167
 21
183.9766931112843
 31
0.0
  0
LINE
  5
1878
330
19
100
AcDbEntity
  8
1
100
AcDbLine
 10
105.2108806603168
 20
184.4561891112843
 30
0.0
 11
105.2108806603168
 21
144.9129601112843
 31
0.0
  0
LINE
  5
1879
330
19
100
AcDbEntity
  8
1
100
AcDbLine
 10
100.4156916603167
 20
144.9129601112843
 30
0.0
 11
100.4156916603167
 21
184.2763981112843
 31
0.0
  0
LINE
  5
187A
330
19
100
AcDbEntity
  8
1
100
AcDbLine
 10
98.73738766031678
 20
183.0176791112841
 30
0.0
 11
100.6554156603167
 21
184.4561891112843
 31
0.0
  0
LINE
  5
187B
330
19
100
AcDbEntity
  8
1
100
AcDbLine
 10
105.2108806603168
 20
184.4561891112843
 30
0.0
 11
107.8481986603167
 21
179.1815271112842
 31
0.0
  0
LINE
  5
187C
330
19
100
AcDbEntity
  8
1
100
AcDbLine
 10
113.7894676603167
 20
179.1815271112842
 30
0.0
 11
116.6666046603167
 21
184.2164881112843
 31
0.0
  0
LINE
  5
187D
330
19
100
AcDbEntity
  8
1
100
AcDbLine
 10
205.7341546603168
 20
171.1314651112843
 30
0.0
 11
205.7341546603168
 21
169.9212641112843
 31
0.0
  0
LINE
  5
187E
330
19
100
AcDbEntity
  8
1
100
AcDbLine
 10
102.5366916603168
 20
184.4561891112843
 30
0.0
 11
105.2108806603168
 21
184.4561891112843
 31
0.0
  0
LINE
  5
187F
330
19
100
AcDbEntity
  8
1
100
AcDbLine
 10
118.1657586603168
 20
184.2164881112843
 30
0.0
 11
122.1283306603168
 21
184.2164881112843
 31
0.0
  0
LINE
  5
1880
330
19
100
AcDbEntity
  8
1
100
AcDbLine
 10
98.73738766031678
 20
92.0419766112843
 30
0.0
 11
98.73738766031678
 21
77.36633311128429
 31
0.0
  0
LINE
  5
1881
330
19
100
AcDbEntity
  8
1
100
AcDbLine
 10
100.1758966603167
 20
92.62869111128427
 30
0.0
 11
100.1758966603167
 21
75.83890211128428
 31
0.0
  0
LINE
  5
1882
330
19
100
AcDbEntity
  8
1
100
AcDbLine
 10
105.2108806603168
 20
92.62869111128427
 30
0.0
 11
105.2108806603168
 21
75.83890211128428
 31
0.0
  0
LINE
  5
1883
330
19
100
AcDbEntity
  8
1
100
AcDbLine
 10
107.6084986603167
 20
92.62869111128427
 30
0.0
 11
107.6084986603167
 21
79.97555311128428
 31
0.0
  0
LINE
  5
1884
330
19
100
AcDbEntity
  8
1
100
AcDbLine
 10
113.5497436603168
 20
92.62869111128427
 30
0.0
 11
113.5497436603168
 21
79.97555311128428
 31
0.0
  0
LINE
  5
1885
330
19
100
AcDbEntity
  8
1
100
AcDbLine
 10
116.1870866603167
 20
92.62869111128427
 30
0.0
 11
116.1870866603167
 21
75.83890211128428
 31
0.0
  0
LINE
  5
1886
330
19
100
AcDbEntity
  8
1
100
AcDbLine
 10
122.1283306603168
 20
83.74694111128428
 30
0.0
 11
122.1283306603168
 21
75.83890211128428
 31
0.0
  0
LINE
  5
1887
330
19
100
AcDbEntity
  8
1
100
AcDbLine
 10
100.1758966603167
 20
75.83890211128428
 30
0.0
 11
105.2108806603168
 21
75.83890211128428
 31
0.0
  0
LINE
  5
1888
330
19
100
AcDbEntity
  8
1
100
AcDbLine
 10
116.1870866603167
 20
75.83890211128428
 30
0.0
 11
113.5497436603168
 21
79.97555311128428
 31
0.0
  0
LINE
  5
1889
330
19
100
AcDbEntity
  8
1
100
AcDbLine
 10
116.1870866603167
 20
75.83890211128428
 30
0.0
 11
122.1283306603168
 21
75.83890211128428
 31
0.0
  0
LINE
  5
188A
330
19
100
AcDbEntity
  8
1
100
AcDbLine
 10
113.5497436603168
 20
79.97555311128428
 30
0.0
 11
107.6084986603167
 21
79.97555311128428
 31
0.0
  0
LINE
  5
188B
330
19
100
AcDbEntity
  8
1
100
AcDbLine
 10
105.2108806603168
 20
75.83890211128428
 30
0.0
 11
107.6084986603167
 21
79.97555311128428
 31
0.0
  0
LINE
  5
188C
330
19
100
AcDbEntity
  8
1
100
AcDbLine
 10
100.1758966603167
 20
75.83890211128428
 30
0.0
 11
98.73738766031678
 21
77.36633311128429
 31
0.0
  0
LINE
  5
188D
330
19
100
AcDbEntity
  8
1
100
AcDbLine
 10
122.1283306603168
 20
140.1986151112843
 30
0.0
 11
122.1283306603168
 21
109.8806141112843
 31
0.0
  0
LINE
  5
188E
330
19
100
AcDbEntity
  8
SK1
100
AcDbLine
 10
-7.237763339683127
 20
130.2674426112843
 30
0.0
 11
-7.237763339683127
 21
143.7674426112843
 31
0.0
  0
ARC
  5
1891
330
19
100
AcDbEntity
  8
1
100
AcDbCircle
 10
139.1914636603168
 20
141.0241731112843
 30
0.0
 40
10.30021499999999
100
AcDbArc
 50
123.977397
 51
236.0226029999994
  0
LINE
  5
1892
330
19
100
AcDbEntity
  8
1
100
AcDbLine
 10
160.7203066603168
 20
139.3483421112843
 30
0.0
 11
185.4211146603168
 21
144.9440321112843
 31
0.0
  0
LINE
  5
1893
330
19
100
AcDbEntity
  8
1
100
AcDbLine
 10
197.6805736603168
 20
149.2199881112843
 30
0.0
 11
201.8749436603167
 21
150.4391951112842
 31
0.0
  0
LINE
  5
1894
330
19
100
AcDbEntity
  8
1
100
AcDbLine
 10
205.7341546603168
 20
151.4003561112843
 30
0.0
 11
206.7117026603168
 21
159.0376641112843
 31
0.0
  0
LINE
  5
1895
330
19
100
AcDbEntity
  8
1
100
AcDbLine
 10
98.97718166031678
 20
144.9129601112843
 30
0.0
 11
122.1283306603168
 21
144.9129601112843
 31
0.0
  0
LINE
  5
1896
330
19
100
AcDbEntity
  8
1
100
AcDbLine
 10
98.97718166031678
 20
114.5639221112843
 30
0.0
 11
122.1283306603168
 21
114.5639221112843
 31
0.0
  0
CIRCLE
  5
1897
330
19
100
AcDbEntity
  8
1
100
AcDbCircle
 10
110.5653536603167
 20
129.9293151112843
 30
0.0
 40
5.348378
  0
DIMENSION
  5
1898
330
19
100
AcDbEntity
  8
2
100
AcDbDimension
  2
*D6
 10
233.419343636529
 20
91.13146411128427
 30
0.0
 11
233.419343636529
 21
131.1314646112843
 31
0.0
 70
   160
  1
%%C<>
 71
     5
 42
80.00000100000002
  3
V-TYG_160-300
100
AcDbAlignedDimension
 13
205.7341546603168
 23
171.1314651112843
 33
0.0
 14
205.7341546603168
 24
91.13146411128427
 34
0.0
 50
90.0
100
AcDbRotatedDimension
  0
DIMENSION
  5
1899
330
19
100
AcDbEntity
  8
SK2
100
AcDbDimension
  2
*D7
 10
210.7622366603167
 20
241.0637630960216
 30
0.0
 11
101.7622366603168
 21
241.0637630960216
 31
0.0
 70
   160
 71
     5
 42
217.9999999999998
  3
V-TYG_160-300
100
AcDbAlignedDimension
 13
-7.237763339683127
 23
152.0727061112843
 33
0.0
 14
210.7622366603167
 24
169.8696938938088
 34
0.0
100
AcDbRotatedDimension
  0
DIMENSION
  5
189A
330
19
100
AcDbEntity
  8
2
100
AcDbDimension
  2
*D8
 10
139.4622366603167
 20
195.3619297547545
 30
0.0
 11
175.1122366603167
 21
195.3619297547545
 31
0.0
 70
   160
 71
     5
 42
71.2999999999999
  3
V-TYG_160-300
100
AcDbAlignedDimension
 13
210.7622366603167
 23
169.8696938938088
 33
0.0
 14
139.4622366603167
 24
168.2357281112843
 34
0.0
100
AcDbRotatedDimension
1001
ACAD
1000
DSTYLE
1002
{
1070
   271
1070
     1
1002
}
  0
DIMENSION
  5
189B
330
19
100
AcDbEntity
  8
2
100
AcDbDimension
  2
*D9
 10
94.46223666031677
 20
224.7002249924142
 30
0.0
 11
152.6122366603167
 21
224.7002249924142
 31
0.0
 70
   160
 71
     5
 42
116.2999999999999
  3
V-TYG_160-300
100
AcDbAlignedDimension
 13
210.7622366603167
 23
169.8696938938088
 33
0.0
 14
94.46223666031677
 24
168.2531146112843
 34
0.0
100
AcDbRotatedDimension
1001
ACAD
1000
DSTYLE
1002
{
1070
   271
1070
     1
1002
}
  0
LINE
  5
189C
330
19
100
AcDbEntity
  8
4
100
AcDbLine
 10
94.18201766031677
 20
130.1475456112843
 30
0.0
 11
217.8810097168506
 21
130.1475456112843
 31
0.0
  0
LINE
  5
189D
330
19
100
AcDbEntity
  8
SK4
100
AcDbLine
 10
217.8810097168506
 20
130.1475456112843
 30
0.0
 11
-13.24535128314926
 21
130.1475456112843
 31
0.0
  0
LINE
  5
18F9
330
19
100
AcDbEntity
  8
1
100
AcDbLine
 10
102.1531392302392
 20
184.4561891112843
 30
0.0
 11
102.1531392302393
 21
75.8389021112843
 31
0.0
  0
MTEXT
  5
1903
330
19
100
AcDbEntity
  8
SK6
100
AcDbMText
 10
-7.237763339683141
 20
62.97040460502035
 30
0.0
 40
5.0
 41
147.4501884961037
 71
     1
 72
     5
  1
{\fMonospac821 BT|b0|i0|c0|p49;R215.59-CV50080061-12.6B\P75000228}
  7
SIMPLEX
 73
     1
 44
1.0
1001
ACAD
1000
MTEXTBEGIN
1070
    73
1070
     1
1070
    44
1040
1.0
1070
    74
1070
     0
1000
MTEXTEND
  0
DIMENSION
  5
1971
330
19
100
AcDbEntity
  8
2
100
AcDbDimension
  2
*D10
 10
130.7622366603166
 20
210.8851844656081
 30
0.0
 11
170.7622366603166
 21
210.8851844656081
 31
0.0
 70
   160
 71
     5
 42
80.0
  3
V-TYG_160-300
100
AcDbAlignedDimension
 13
210.7622366603167
 23
169.8696938938088
 33
0.0
 14
130.7622366603166
 24
168.2357281112843
 34
0.0
100
AcDbRotatedDimension
  0
ENDSEC
  0
SECTION
  2
OBJECTS
  0
DICTIONARY
  5
C
330
0
100
AcDbDictionary
281
     1
  3
ACAD_COLOR
350
12B4
  3
ACAD_GROUP
350
D
  3
ACAD_LAYOUT
350
A85
  3
ACAD_MATERIAL
350
128A
  3
ACAD_MLEADERSTYLE
350
12D9
  3
ACAD_MLINESTYLE
350
E
  3
ACAD_PLOTSETTINGS
350
A86
  3
ACAD_PLOTSTYLENAME
350
E93
  3
ACAD_SCALELIST
350
12B7
  3
ACAD_TABLESTYLE
350
12B5
  3
ACAD_VISUALSTYLE
350
12A3
  3
ACDB_RECOMPOSE_DATA
350
1A83
  3
AcDbVariableDictionary
350
1A50
  3
DWGPROPS
350
1A96
1001
ACAD
1000
TREAT_AS_HARD
1070
     0
  0
DICTIONARY
  5
1A32
330
F
100
AcDbDictionary
280
     1
281
     1
  3
ADSK_XREC_LAYER_RECONCILED
360
1A33
  0
DICTIONARY
  5
1A34
330
1E
100
AcDbDictionary
280
     1
281
     1
  3
ADSK_XREC_LAYER_RECONCILED
360
1A35
  0
DICTIONARY
  5
1A36
330
22
100
AcDbDictionary
280
     1
281
     1
  3
ADSK_XREC_LAYER_RECONCILED
360
1A37
  0
DICTIONARY
  5
1A38
330
23
100
AcDbDictionary
280
     1
281
     1
  3
ADSK_XREC_LAYER_RECONCILED
360
1A39
  0
DICTIONARY
  5
1A3A
330
24
100
AcDbDictionary
280
     1
281
     1
  3
ADSK_XREC_LAYER_RECONCILED
360
1A3B
  0
DICTIONARY
  5
1A3C
330
25
100
AcDbDictionary
280
     1
281
     1
  3
ADSK_XREC_LAYER_RECONCILED
360
1A3D
  0
DICTIONARY
  5
1A3E
330
26
100
AcDbDictionary
280
     1
281
     1
  3
ADSK_XREC_LAYER_RECONCILED
360
1A3F
  0
DICTIONARY
  5
1A40
330
27
100
AcDbDictionary
280
     1
281
     1
  3
ADSK_XREC_LAYER_RECONCILED
360
1A41
  0
DICTIONARY
  5
1A42
330
28
100
AcDbDictionary
280
     1
281
     1
  3
ADSK_XREC_LAYER_RECONCILED
360
1A43
  0
DICTIONARY
  5
1A44
330
29
100
AcDbDictionary
280
     1
281
     1
  3
ADSK_XREC_LAYER_RECONCILED
360
1A45
  0
DICTIONARY
  5
1A46
330
2A
100
AcDbDictionary
280
     1
281
     1
  3
ADSK_XREC_LAYER_RECONCILED
360
1A47
  0
DICTIONARY
  5
1A48
330
2B
100
AcDbDictionary
280
     1
281
     1
  3
ADSK_XREC_LAYER_RECONCILED
360
1A49
  0
DICTIONARY
  5
1A4A
330
2C
100
AcDbDictionary
280
     1
281
     1
  3
ADSK_XREC_LAYER_RECONCILED
360
1A4B
  0
DICTIONARY
  5
1A4C
330
2D
100
AcDbDictionary
280
     1
281
     1
  3
ADSK_XREC_LAYER_RECONCILED
360
1A4D
  0
DICTIONARY
  5
1A4E
330
C07
100
AcDbDictionary
280
     1
281
     1
  3
ADSK_XREC_LAYER_RECONCILED
360
1A4F
  0
DICTIONARY
  5
E8D
330
19
100
AcDbDictionary
280
     1
281
     1
  0
DICTIONARY
  5
E8B
330
16
100
AcDbDictionary
280
     1
281
     1
  0
DICTIONARY
  5
1A9C
330
12E6
100
AcDbDictionary
280
     1
281
     1
  3
ACAD_MTEXT_RT
360
1A9D
  0
DICTIONARY
  5
12B4
102
{ACAD_REACTORS
330
C
102
}
330
C
100
AcDbDictionary
281
     1
  0
DICTIONARY
  5
D
102
{ACAD_REACTORS
330
C
102
}
330
C
100
AcDbDictionary
281
     1
1001
ACAD
1000
TREAT_AS_HARD
1070
     0
  0
DICTIONARY
  5
A85
102
{ACAD_REACTORS
330
C
102
}
330
C
100
AcDbDictionary
281
     1
  3
Layout1
350
E96
  3
Model
350
E95
1001
ACAD
1000
TREAT_AS_HARD
1070
     0
  0
DICTIONARY
  5
128A
102
{ACAD_REACTORS
330
C
102
}
330
C
100
AcDbDictionary
281
     1
  3
ByBlock
350
1293
  3
ByLayer
350
128B
  3
Global
350
129B
  0
DICTIONARY
  5
12D9
102
{ACAD_REACTORS
330
C
102
}
330
C
100
AcDbDictionary
281
     1
  3
Standard
350
12DA
  0
DICTIONARY
  5
E
102
{ACAD_REACTORS
330
C
102
}
330
C
100
AcDbDictionary
281
     1
  3
STANDARD
350
1C
1001
ACAD
1000
TREAT_AS_HARD
1070
     0
  0
DICTIONARY
  5
A86
102
{ACAD_REACTORS
330
C
102
}
330
C
100
AcDbDictionary
281
     1
1001
ACAD
1000
TREAT_AS_HARD
1070
     0
  0
ACDBDICTIONARYWDFLT
  5
E93
102
{ACAD_REACTORS
330
C
102
}
330
C
100
AcDbDictionary
281
     1
  3
Normal
350
E94
100
AcDbDictionaryWithDefault
340
E94
  0
DICTIONARY
  5
12B7
102
{ACAD_REACTORS
330
C
102
}
330
C
100
AcDbDictionary
281
     1
  3
A0
350
12B8
  3
A1
350
12B9
  3
A2
350
12BA
  3
A3
350
12BB
  3
A4
350
12BC
  3
A5
350
12BD
  3
A6
350
12BE
  3
A7
350
12BF
  3
A8
350
12C0
  3
A9
350
12C1
  3
B0
350
12C2
  3
B1
350
12C3
  3
B2
350
12C4
  3
B3
350
12C5
  3
B4
350
12C6
  3
B5
350
12C7
  3
B6
350
12C8
  3
B7
350
12C9
  3
B8
350
12CA
  3
B9
350
12CB
  3
C0
350
12CC
  3
C1
350
12CD
  3
C2
350
12CE
  3
C3
350
12CF
  3
C4
350
12D0
  3
C5
350
12D1
  3
C6
350
12D2
  3
C7
350
12D3
  3
C8
350
12D4
  3
C9
350
12D5
  3
D0
350
12D6
  3
D1
350
12D7
  3
D2
350
12D8
  0
DICTIONARY
  5
12B5
102
{ACAD_REACTORS
330
C
102
}
330
C
100
AcDbDictionary
281
     1
  3
Standard
350
12B6
  0
DICTIONARY
  5
12A3
102
{ACAD_REACTORS
330
C
102
}
330
C
100
AcDbDictionary
281
     1
  3
2dWireframe
350
12A9
  3
3D Hidden
350
12AB
  3
3dWireframe
350
12AA
  3
Basic
350
12A8
  3
Brighten
350
12AF
  3
ColorChange
350
12B3
  3
Conceptual
350
12AC
  3
Dim
350
12AE
  3
Facepattern
350
12B2
  3
Flat
350
12A4
  3
FlatWithEdges
350
12A5
  3
Gouraud
350
12A6
  3
GouraudWithEdges
350
12A7
  3
Linepattern
350
12B1
  3
Realistic
350
12AD
  3
Thicken
350
12B0
  0
XRECORD
  5
1A83
102
{ACAD_REACTORS
330
C
102
}
330
C
100
AcDbXrecord
280
     1
 90
        1
330
12B6
  0
DICTIONARY
  5
1A50
102
{ACAD_REACTORS
330
C
102
}
330
C
100
AcDbDictionary
281
     1
  3
CANNOSCALE
350
1A53
  3
CMLEADERSTYLE
350
1A52
  3
CTABLESTYLE
350
1A51
  3
DIMASSOC
350
1A56
  3
INDEXCTL
350
1A55
  3
SORTENTS
350
1A54
  0
XRECORD
  5
1A96
102
{ACAD_REACTORS
330
C
102
}
330
C
100
AcDbXrecord
280
     1
  1
DWGPROPS COOKIE
  2

  3

  4

  6

  7

  8
inpungurd
  9

300
=
301
=
302
=
303
=
304
=
305
=
306
=
307
=
308
=
309
=
 40
0.0077371875
 41
2455601.550714444
 42
2455601.668936563
  1

 90
        0
  0
XRECORD
  5
1A33
102
{ACAD_REACTORS
330
1A32
102
}
330
1A32
100
AcDbXrecord
280
     1
290
     1
  0
XRECORD
  5
1A35
102
{ACAD_REACTORS
330
1A34
102
}
330
1A34
100
AcDbXrecord
280
     1
290
     1
  0
XRECORD
  5
1A37
102
{ACAD_REACTORS
330
1A36
102
}
330
1A36
100
AcDbXrecord
280
     1
290
     1
  0
XRECORD
  5
1A39
102
{ACAD_REACTORS
330
1A38
102
}
330
1A38
100
AcDbXrecord
280
     1
290
     1
  0
XRECORD
  5
1A3B
102
{ACAD_REACTORS
330
1A3A
102
}
330
1A3A
100
AcDbXrecord
280
     1
290
     1
  0
XRECORD
  5
1A3D
102
{ACAD_REACTORS
330
1A3C
102
}
330
1A3C
100
AcDbXrecord
280
     1
290
     1
  0
XRECORD
  5
1A3F
102
{ACAD_REACTORS
330
1A3E
102
}
330
1A3E
100
AcDbXrecord
280
     1
290
     1
  0
XRECORD
  5
1A41
102
{ACAD_REACTORS
330
1A40
102
}
330
1A40
100
AcDbXrecord
280
     1
290
     1
  0
XRECORD
  5
1A43
102
{ACAD_REACTORS
330
1A42
102
}
330
1A42
100
AcDbXrecord
280
     1
290
     1
  0
XRECORD
  5
1A45
102
{ACAD_REACTORS
330
1A44
102
}
330
1A44
100
AcDbXrecord
280
     1
290
     1
  0
XRECORD
  5
1A47
102
{ACAD_REACTORS
330
1A46
102
}
330
1A46
100
AcDbXrecord
280
     1
290
     1
  0
XRECORD
  5
1A49
102
{ACAD_REACTORS
330
1A48
102
}
330
1A48
100
AcDbXrecord
280
     1
290
     1
  0
XRECORD
  5
1A4B
102
{ACAD_REACTORS
330
1A4A
102
}
330
1A4A
100
AcDbXrecord
280
     1
290
     1
  0
XRECORD
  5
1A4D
102
{ACAD_REACTORS
330
1A4C
102
}
330
1A4C
100
AcDbXrecord
280
     1
290
     1
  0
XRECORD
  5
1A4F
102
{ACAD_REACTORS
330
1A4E
102
}
330
1A4E
100
AcDbXrecord
280
     1
290
     1
  0
XRECORD
  5
1A9D
102
{ACAD_REACTORS
330
1A9C
102
}
330
1A9C
100
AcDbXrecord
280
     1
 40
8100.0
  1
\A1;{\U+220580}
  0
LAYOUT
  5
E96
102
{ACAD_XDICTIONARY
360
1A99
102
}
102
{ACAD_REACTORS
330
A85
102
}
330
A85
100
AcDbPlotSettings
  1

  2
\\SECO_TOOLS\Q_HP8100_WMM.LANDSKAP.PL1.HUS_A.FAGERSTA.SE.SECO_TOOLS
  4

  6

 40
0.0
 41
0.0
 42
0.0
 43
0.0
 44
0.0
 45
0.0
 46
0.0
 47
0.0
 48
0.0
 49
0.0
140
0.0
141
0.0
142
1.0
143
1.0
 70
   688
 72
     0
 73
     0
 74
     5
  7

 75
    16
147
1.0
148
0.0
149
0.0
100
AcDbLayout
  1
Layout1
 70
     0
 71
     1
 10
0.0
 20
0.0
 11
12.0
 21
9.0
 12
0.0
 22
0.0
 32
0.0
 14
1.000000000000000E+20
 24
1.000000000000000E+20
 34
1.000000000000000E+20
 15
-1.000000000000000E+20
 25
-1.000000000000000E+20
 35
-1.000000000000000E+20
146
0.0
 13
0.0
 23
0.0
 33
0.0
 16
1.0
 26
0.0
 36
0.0
 17
0.0
 27
1.0
 37
0.0
 76
     0
330
16
  0
LAYOUT
  5
E95
102
{ACAD_XDICTIONARY
360
1A97
102
}
102
{ACAD_REACTORS
330
A85
102
}
330
A85
100
AcDbPlotSettings
  1

  2
\\SECO_TOOLS\Q_HP8100_WMM.LANDSKAP.PL1.HUS_A.FAGERSTA.SE.SECO_TOOLS
  4

  6

 40
0.0
 41
0.0
 42
0.0
 43
0.0
 44
0.0
 45
0.0
 46
0.0
 47
0.0
 48
0.0
 49
0.0
140
0.0
141
0.0
142
1.0
143
1.0
 70
  1712
 72
     0
 73
     0
 74
     0
  7

 75
     0
147
1.0
148
0.0
149
0.0
100
AcDbLayout
  1
Model
 70
     1
 71
     0
 10
0.0
 20
0.0
 11
12.0
 21
9.0
 12
0.0
 22
0.0
 32
0.0
 14
0.0
 24
0.0
 34
0.0
 15
0.0
 25
0.0
 35
0.0
146
0.0
 13
0.0
 23
0.0
 33
0.0
 16
1.0
 26
0.0
 36
0.0
 17
0.0
 27
1.0
 37
0.0
 76
     0
330
19
331
1288
  0
MATERIAL
  5
1293
102
{ACAD_XDICTIONARY
360
1294
102
}
102
{ACAD_REACTORS
330
128A
102
}
330
128A
100
AcDbMaterial
  1
ByBlock
 72
     0
 43
0.0208333333333333
 43
0.0
 43
0.0
 43
0.0
 43
0.0
 43
0.0208333333333333
 43
0.0
 43
0.0
 43
0.0
 43
0.0
 43
1.0
 43
0.0
 43
0.0
 43
0.0
 43
0.0
 43
1.0
 77
     0
 47
0.0208333333333333
 47
0.0
 47
0.0
 47
0.0
 47
0.0
 47
0.0208333333333333
 47
0.0
 47
0.0
 47
0.0
 47
0.0
 47
1.0
 47
0.0
 47
0.0
 47
0.0
 47
0.0
 47
1.0
171
     0
 49
0.0208333333333333
 49
0.0
 49
0.0
 49
0.0
 49
0.0
 49
0.0208333333333333
 49
0.0
 49
0.0
 49
0.0
 49
0.0
 49
1.0
 49
0.0
 49
0.0
 49
0.0
 49
0.0
 49
1.0
175
     0
142
0.0208333333333333
142
0.0
142
0.0
142
0.0
142
0.0
142
0.0208333333333333
142
0.0
142
0.0
142
0.0
142
0.0
142
1.0
142
0.0
142
0.0
142
0.0
142
0.0
142
1.0
179
     0
144
0.0208333333333333
144
0.0
144
0.0
144
0.0
144
0.0
144
0.0208333333333333
144
0.0
144
0.0
144
0.0
144
0.0
144
1.0
144
0.0
144
0.0
144
0.0
144
0.0
144
1.0
147
0.0208333333333333
147
0.0
147
0.0
147
0.0
147
0.0
147
0.0208333333333333
147
0.0
147
0.0
147
0.0
147
0.0
147
1.0
147
0.0
147
0.0
147
0.0
147
0.0
147
1.0
  0
MATERIAL
  5
128B
102
{ACAD_XDICTIONARY
360
128C
102
}
102
{ACAD_REACTORS
330
128A
102
}
330
128A
100
AcDbMaterial
  1
ByLayer
 72
     0
 43
0.0208333333333333
 43
0.0
 43
0.0
 43
0.0
 43
0.0
 43
0.0208333333333333
 43
0.0
 43
0.0
 43
0.0
 43
0.0
 43
1.0
 43
0.0
 43
0.0
 43
0.0
 43
0.0
 43
1.0
 77
     0
 47
0.0208333333333333
 47
0.0
 47
0.0
 47
0.0
 47
0.0
 47
0.0208333333333333
 47
0.0
 47
0.0
 47
0.0
 47
0.0
 47
1.0
 47
0.0
 47
0.0
 47
0.0
 47
0.0
 47
1.0
171
     0
 49
0.0208333333333333
 49
0.0
 49
0.0
 49
0.0
 49
0.0
 49
0.0208333333333333
 49
0.0
 49
0.0
 49
0.0
 49
0.0
 49
1.0
 49
0.0
 49
0.0
 49
0.0
 49
0.0
 49
1.0
175
     0
142
0.0208333333333333
142
0.0
142
0.0
142
0.0
142
0.0
142
0.0208333333333333
142
0.0
142
0.0
142
0.0
142
0.0
142
1.0
142
0.0
142
0.0
142
0.0
142
0.0
142
1.0
179
     0
144
0.0208333333333333
144
0.0
144
0.0
144
0.0
144
0.0
144
0.0208333333333333
144
0.0
144
0.0
144
0.0
144
0.0
144
1.0
144
0.0
144
0.0
144
0.0
144
0.0
144
1.0
147
0.0208333333333333
147
0.0
147
0.0
147
0.0
147
0.0
147
0.0208333333333333
147
0.0
147
0.0
147
0.0
147
0.0
147
1.0
147
0.0
147
0.0
147
0.0
147
0.0
147
1.0
  0
MATERIAL
  5
129B
102
{ACAD_XDICTIONARY
360
129C
102
}
102
{ACAD_REACTORS
330
128A
102
}
330
128A
100
AcDbMaterial
  1
Global
 72
     0
 43
0.0208333333333333
 43
0.0
 43
0.0
 43
0.0
 43
0.0
 43
0.0208333333333333
 43
0.0
 43
0.0
 43
0.0
 43
0.0
 43
1.0
 43
0.0
 43
0.0
 43
0.0
 43
0.0
 43
1.0
 77
     0
 47
0.0208333333333333
 47
0.0
 47
0.0
 47
0.0
 47
0.0
 47
0.0208333333333333
 47
0.0
 47
0.0
 47
0.0
 47
0.0
 47
1.0
 47
0.0
 47
0.0
 47
0.0
 47
0.0
 47
1.0
171
     0
 49
0.0208333333333333
 49
0.0
 49
0.0
 49
0.0
 49
0.0
 49
0.0208333333333333
 49
0.0
 49
0.0
 49
0.0
 49
0.0
 49
1.0
 49
0.0
 49
0.0
 49
0.0
 49
0.0
 49
1.0
175
     0
142
0.0208333333333333
142
0.0
142
0.0
142
0.0
142
0.0
142
0.0208333333333333
142
0.0
142
0.0
142
0.0
142
0.0
142
1.0
142
0.0
142
0.0
142
0.0
142
0.0
142
1.0
179
     0
144
0.0208333333333333
144
0.0
144
0.0
144
0.0
144
0.0
144
0.0208333333333333
144
0.0
144
0.0
144
0.0
144
0.0
144
1.0
144
0.0
144
0.0
144
0.0
144
0.0
144
1.0
147
0.0208333333333333
147
0.0
147
0.0
147
0.0
147
0.0
147
0.0208333333333333
147
0.0
147
0.0
147
0.0
147
0.0
147
1.0
147
0.0
147
0.0
147
0.0
147
0.0
147
1.0
  0
MLEADERSTYLE
  5
12DA
102
{ACAD_REACTORS
330
12D9
102
}
330
12D9
100
AcDbMLeaderStyle
170
     2
171
     1
172
     0
 90
        2
 40
0.0
 41
0.0
173
     1
 91
-1056964608
340
13
 92
       -2
290
     1
 42
2.0
291
     1
 43
0.36
  3
Standard
 44
4.0
300

342
10
174
     1
178
     6
175
     1
176
     0
 93
-1056964608
 45
4.0
292
     0
297
     0
 46
4.0
 94
-1056964608
 47
1.0
 49
1.0
140
1.0
293
     1
141
0.0
294
     1
177
     0
142
1.0
295
     0
296
     0
143
0.125
1001
ACAD_MLEADERVER
1070
     2
  0
MLINESTYLE
  5
1C
102
{ACAD_REACTORS
330
E
102
}
330
E
100
AcDbMlineStyle
  2
STANDARD
 70
     0
  3

 62
     0
 51
90.0
 52
90.0
 71
     2
 49
0.5
 62
   256
  6
BYLAYER
 49
-0.5
 62
   256
  6
BYLAYER
  0
ACDBPLACEHOLDER
  5
E94
102
{ACAD_REACTORS
330
E93
102
}
330
E93
  0
SCALE
  5
12B8
102
{ACAD_REACTORS
330
12B7
102
}
330
12B7
100
AcDbScale
 70
     0
300
1:1
140
1.0
141
1.0
290
     1
  0
SCALE
  5
12B9
102
{ACAD_REACTORS
330
12B7
102
}
330
12B7
100
AcDbScale
 70
     0
300
1:2
140
1.0
141
2.0
290
     0
  0
SCALE
  5
12BA
102
{ACAD_REACTORS
330
12B7
102
}
330
12B7
100
AcDbScale
 70
     0
300
1:4
140
1.0
141
4.0
290
     0
  0
SCALE
  5
12BB
102
{ACAD_REACTORS
330
12B7
102
}
330
12B7
100
AcDbScale
 70
     0
300
1:5
140
1.0
141
5.0
290
     0
  0
SCALE
  5
12BC
102
{ACAD_REACTORS
330
12B7
102
}
330
12B7
100
AcDbScale
 70
     0
300
1:8
140
1.0
141
8.0
290
     0
  0
SCALE
  5
12BD
102
{ACAD_REACTORS
330
12B7
102
}
330
12B7
100
AcDbScale
 70
     0
300
1:10
140
1.0
141
10.0
290
     0
  0
SCALE
  5
12BE
102
{ACAD_REACTORS
330
12B7
102
}
330
12B7
100
AcDbScale
 70
     0
300
1:16
140
1.0
141
16.0
290
     0
  0
SCALE
  5
12BF
102
{ACAD_REACTORS
330
12B7
102
}
330
12B7
100
AcDbScale
 70
     0
300
1:20
140
1.0
141
20.0
290
     0
  0
SCALE
  5
12C0
102
{ACAD_REACTORS
330
12B7
102
}
330
12B7
100
AcDbScale
 70
     0
300
1:30
140
1.0
141
30.0
290
     0
  0
SCALE
  5
12C1
102
{ACAD_REACTORS
330
12B7
102
}
330
12B7
100
AcDbScale
 70
     0
300
1:40
140
1.0
141
40.0
290
     0
  0
SCALE
  5
12C2
102
{ACAD_REACTORS
330
12B7
102
}
330
12B7
100
AcDbScale
 70
     0
300
1:50
140
1.0
141
50.0
290
     0
  0
SCALE
  5
12C3
102
{ACAD_REACTORS
330
12B7
102
}
330
12B7
100
AcDbScale
 70
     0
300
1:100
140
1.0
141
100.0
290
     0
  0
SCALE
  5
12C4
102
{ACAD_REACTORS
330
12B7
102
}
330
12B7
100
AcDbScale
 70
     0
300
2:1
140
2.0
141
1.0
290
     0
  0
SCALE
  5
12C5
102
{ACAD_REACTORS
330
12B7
102
}
330
12B7
100
AcDbScale
 70
     0
300
4:1
140
4.0
141
1.0
290
     0
  0
SCALE
  5
12C6
102
{ACAD_REACTORS
330
12B7
102
}
330
12B7
100
AcDbScale
 70
     0
300
8:1
140
8.0
141
1.0
290
     0
  0
SCALE
  5
12C7
102
{ACAD_REACTORS
330
12B7
102
}
330
12B7
100
AcDbScale
 70
     0
300
10:1
140
10.0
141
1.0
290
     0
  0
SCALE
  5
12C8
102
{ACAD_REACTORS
330
12B7
102
}
330
12B7
100
AcDbScale
 70
     0
300
100:1
140
100.0
141
1.0
290
     0
  0
SCALE
  5
12C9
102
{ACAD_REACTORS
330
12B7
102
}
330
12B7
100
AcDbScale
 70
     0
300
1/128" = 1'-0"
140
0.0078125
141
12.0
290
     0
  0
SCALE
  5
12CA
102
{ACAD_REACTORS
330
12B7
102
}
330
12B7
100
AcDbScale
 70
     0
300
1/64" = 1'-0"
140
0.015625
141
12.0
290
     0
  0
SCALE
  5
12CB
102
{ACAD_REACTORS
330
12B7
102
}
330
12B7
100
AcDbScale
 70
     0
300
1/32" = 1'-0"
140
0.03125
141
12.0
290
     0
  0
SCALE
  5
12CC
102
{ACAD_REACTORS
330
12B7
102
}
330
12B7
100
AcDbScale
 70
     0
300
1/16" = 1'-0"
140
0.0625
141
12.0
290
     0
  0
SCALE
  5
12CD
102
{ACAD_REACTORS
330
12B7
102
}
330
12B7
100
AcDbScale
 70
     0
300
3/32" = 1'-0"
140
0.09375
141
12.0
290
     0
  0
SCALE
  5
12CE
102
{ACAD_REACTORS
330
12B7
102
}
330
12B7
100
AcDbScale
 70
     0
300
1/8" = 1'-0"
140
0.125
141
12.0
290
     0
  0
SCALE
  5
12CF
102
{ACAD_REACTORS
330
12B7
102
}
330
12B7
100
AcDbScale
 70
     0
300
3/16" = 1'-0"
140
0.1875
141
12.0
290
     0
  0
SCALE
  5
12D0
102
{ACAD_REACTORS
330
12B7
102
}
330
12B7
100
AcDbScale
 70
     0
300
1/4" = 1'-0"
140
0.25
141
12.0
290
     0
  0
SCALE
  5
12D1
102
{ACAD_REACTORS
330
12B7
102
}
330
12B7
100
AcDbScale
 70
     0
300
3/8" = 1'-0"
140
0.375
141
12.0
290
     0
  0
SCALE
  5
12D2
102
{ACAD_REACTORS
330
12B7
102
}
330
12B7
100
AcDbScale
 70
     0
300
1/2" = 1'-0"
140
0.5
141
12.0
290
     0
  0
SCALE
  5
12D3
102
{ACAD_REACTORS
330
12B7
102
}
330
12B7
100
AcDbScale
 70
     0
300
3/4" = 1'-0"
140
0.75
141
12.0
290
     0
  0
SCALE
  5
12D4
102
{ACAD_REACTORS
330
12B7
102
}
330
12B7
100
AcDbScale
 70
     0
300
1" = 1'-0"
140
1.0
141
12.0
290
     0
  0
SCALE
  5
12D5
102
{ACAD_REACTORS
330
12B7
102
}
330
12B7
100
AcDbScale
 70
     0
300
1-1/2" = 1'-0"
140
1.5
141
12.0
290
     0
  0
SCALE
  5
12D6
102
{ACAD_REACTORS
330
12B7
102
}
330
12B7
100
AcDbScale
 70
     0
300
3" = 1'-0"
140
3.0
141
12.0
290
     0
  0
SCALE
  5
12D7
102
{ACAD_REACTORS
330
12B7
102
}
330
12B7
100
AcDbScale
 70
     0
300
6" = 1'-0"
140
6.0
141
12.0
290
     0
  0
SCALE
  5
12D8
102
{ACAD_REACTORS
330
12B7
102
}
330
12B7
100
AcDbScale
 70
     0
300
1'-0" = 1'-0"
140
12.0
141
12.0
290
     0
  0
TABLESTYLE
  5
12B6
102
{ACAD_XDICTIONARY
360
1A81
102
}
102
{ACAD_REACTORS
330
12B5
102
}
330
12B5
100
AcDbTableStyle
  3
Standard
 70
     0
 71
     0
 40
1.5
 41
1.5
280
     0
281
     0
  7
STANDARD
140
4.5
170
     2
 62
     0
 63
     7
283
     0
274
    -2
284
     1
 64
     0
275
    -2
285
     1
 65
     0
276
    -2
286
     1
 66
     0
277
    -2
287
     1
 67
     0
278
    -2
288
     1
 68
     0
279
    -2
289
     1
 69
     0
  7
STANDARD
140
6.0
170
     5
 62
     0
 63
     7
283
     0
274
    -2
284
     1
 64
     0
275
    -2
285
     1
 65
     0
276
    -2
286
     1
 66
     0
277
    -2
287
     1
 67
     0
278
    -2
288
     1
 68
     0
279
    -2
289
     1
 69
     0
  7
STANDARD
140
4.5
170
     5
 62
     0
 63
     7
283
     0
274
    -2
284
     1
 64
     0
275
    -2
285
     1
 65
     0
276
    -2
286
     1
 66
     0
277
    -2
287
     1
 67
     0
278
    -2
288
     1
 68
     0
279
    -2
289
     1
 69
     0
  0
VISUALSTYLE
  5
12A9
102
{ACAD_REACTORS
330
12A3
102
}
330
12A3
100
AcDbVisualStyle
  2
2dWireframe
 70
     4
 71
     0
 72
     2
 73
     0
 90
        0
 40
-0.6
 41
-30.0
 62
     5
 63
     7
 74
     1
 91
        4
 64
     7
 65
   257
 75
     1
175
     1
 42
1.0
 92
        0
 66
   257
 43
1.0
 76
     1
 77
     6
 78
     2
 67
     7
 79
     5
170
     0
171
     0
290
     0
174
     0
 93
        1
 44
0.0
173
     0
291
     0
 45
0.0
1001
ACAD
1000
AcDbSavedByObjectVersion
1070
     0
1000
AcDbSavedByObjectVersion
1070
     0
  0
VISUALSTYLE
  5
12AB
102
{ACAD_REACTORS
330
12A3
102
}
330
12A3
100
AcDbVisualStyle
  2
3D Hidden
 70
     6
 71
     1
 72
     2
 73
     2
 90
        0
 40
-0.6
 41
-30.0
 62
     5
 63
     7
 74
     2
 91
        2
 64
     7
 65
   257
 75
     2
175
     1
 42
40.0
 92
        0
 66
   257
 43
1.0
 76
     1
 77
     6
 78
     2
 67
     7
 79
     3
170
     0
171
     0
290
     0
174
     0
 93
        1
 44
0.0
173
     0
291
     0
 45
0.0
1001
ACAD
1000
AcDbSavedByObjectVersion
1070
     0
1000
AcDbSavedByObjectVersion
1070
     0
  0
VISUALSTYLE
  5
12AA
102
{ACAD_REACTORS
330
12A3
102
}
330
12A3
100
AcDbVisualStyle
  2
3dWireframe
 70
     5
 71
     0
 72
     2
 73
     0
 90
        0
 40
-0.6
 41
-30.0
 62
     5
 63
     7
 74
     1
 91
        4
 64
     7
 65
   257
 75
     1
175
     1
 42
1.0
 92
        0
 66
   257
 43
1.0
 76
     1
 77
     6
 78
     2
 67
     7
 79
     5
170
     0
171
     0
290
     0
174
     0
 93
        1
 44
0.0
173
     0
291
     0
 45
0.0
1001
ACAD
1000
AcDbSavedByObjectVersion
1070
     0
1000
AcDbSavedByObjectVersion
1070
     0
  0
VISUALSTYLE
  5
12A8
102
{ACAD_REACTORS
330
12A3
102
}
330
12A3
100
AcDbVisualStyle
  2
Basic
 70
     7
 71
     1
 72
     0
 73
     1
 90
        0
 40
-0.6
 41
-30.0
 62
     5
 63
     7
 74
     0
 91
        4
 64
     7
 65
   257
 75
     1
175
     1
 42
1.0
 92
        8
 66
     7
 43
1.0
 76
     1
 77
     6
 78
     2
 67
     7
 79
     5
170
     0
171
     0
290
     0
174
     0
 93
        1
 44
0.0
173
     0
291
     1
 45
0.0
1001
ACAD
1000
AcDbSavedByObjectVersion
1070
     0
1000
AcDbSavedByObjectVersion
1070
     0
  0
VISUALSTYLE
  5
12AF
102
{ACAD_REACTORS
330
12A3
102
}
330
12A3
100
AcDbVisualStyle
  2
Brighten
 70
    12
 71
     2
 72
     2
 73
     0
 90
        0
 40
-0.6
 41
-30.0
 62
     5
 63
     7
 74
     1
 91
        4
 64
     7
 65
   257
 75
     1
175
     1
 42
1.0
 92
        8
 66
     7
 43
1.0
 76
     1
 77
     6
 78
     2
 67
     7
 79
     5
170
     0
171
     0
290
     0
174
     0
 93
        1
 44
50.0
173
     0
291
     1
 45
0.0
1001
ACAD
1000
AcDbSavedByObjectVersion
1070
     0
1000
AcDbSavedByObjectVersion
1070
     0
  0
VISUALSTYLE
  5
12B3
102
{ACAD_REACTORS
330
12A3
102
}
330
12A3
100
AcDbVisualStyle
  2
ColorChange
 70
    16
 71
     2
 72
     2
 73
     3
 90
        0
 40
-0.6
 41
-30.0
 62
     5
 63
     8
 74
     1
 91
        4
 64
     7
 65
   257
 75
     1
175
     1
 42
1.0
 92
        8
 66
     8
 43
1.0
 76
     1
 77
     6
 78
     2
 67
     7
 79
     5
170
     0
171
     0
290
     0
174
     0
 93
        1
 44
0.0
173
     0
291
     1
 45
0.0
1001
ACAD
1000
AcDbSavedByObjectVersion
1070
     0
1000
AcDbSavedByObjectVersion
1070
     0
  0
VISUALSTYLE
  5
12AC
102
{ACAD_REACTORS
330
12A3
102
}
330
12A3
100
AcDbVisualStyle
  2
Conceptual
 70
     9
 71
     3
 72
     2
 73
     0
 90
        0
 40
-0.6
 41
-30.0
 62
     5
 63
     7
 74
     2
 91
        2
 64
     7
 65
   257
 75
     1
175
     1
 42
40.0
 92
        8
 66
     7
 43
1.0
 76
     1
 77
     6
 78
     2
 67
     7
 79
     3
170
     0
171
     0
290
     0
174
     0
 93
        1
 44
0.0
173
     0
291
     0
 45
0.0
1001
ACAD
1000
AcDbSavedByObjectVersion
1070
     0
1000
AcDbSavedByObjectVersion
1070
     0
  0
VISUALSTYLE
  5
12AE
102
{ACAD_REACTORS
330
12A3
102
}
330
12A3
100
AcDbVisualStyle
  2
Dim
 70
    11
 71
     2
 72
     2
 73
     0
 90
        0
 40
-0.6
 41
-30.0
 62
     5
 63
     7
 74
     1
 91
        4
 64
     7
 65
   257
 75
     1
175
     1
 42
1.0
 92
        8
 66
     7
 43
1.0
 76
     1
 77
     6
 78
     2
 67
     7
 79
     5
170
     0
171
     0
290
     0
174
     0
 93
        1
 44
-50.0
173
     0
291
     1
 45
0.0
1001
ACAD
1000
AcDbSavedByObjectVersion
1070
     0
1000
AcDbSavedByObjectVersion
1070
     0
  0
VISUALSTYLE
  5
12B2
102
{ACAD_REACTORS
330
12A3
102
}
330
12A3
100
AcDbVisualStyle
  2
Facepattern
 70
    15
 71
     2
 72
     2
 73
     0
 90
        0
 40
-0.6
 41
-30.0
 62
     5
 63
     7
 74
     1
 91
        4
 64
     7
 65
   257
 75
     1
175
     1
 42
1.0
 92
        8
 66
     7
 43
1.0
 76
     1
 77
     6
 78
     2
 67
     7
 79
     5
170
     0
171
     0
290
     0
174
     0
 93
        1
 44
0.0
173
     0
291
     1
 45
0.0
1001
ACAD
1000
AcDbSavedByObjectVersion
1070
     0
1000
AcDbSavedByObjectVersion
1070
     0
  0
VISUALSTYLE
  5
12A4
102
{ACAD_REACTORS
330
12A3
102
}
330
12A3
100
AcDbVisualStyle
  2
Flat
 70
     0
 71
     2
 72
     1
 73
     1
 90
        2
 40
-0.6
 41
30.0
 62
     5
 63
     7
 74
     0
 91
        4
 64
     7
 65
   257
 75
     1
175
     1
 42
1.0
 92
        8
 66
     7
 43
1.0
 76
     1
 77
     6
 78
     2
 67
     7
 79
     5
170
     0
171
     0
290
     0
174
     0
 93
       13
 44
0.0
173
     0
291
     1
 45
0.0
1001
ACAD
1000
AcDbSavedByObjectVersion
1070
     0
1000
AcDbSavedByObjectVersion
1070
     0
  0
VISUALSTYLE
  5
12A5
102
{ACAD_REACTORS
330
12A3
102
}
330
12A3
100
AcDbVisualStyle
  2
FlatWithEdges
 70
     1
 71
     2
 72
     1
 73
     1
 90
        2
 40
-0.6
 41
30.0
 62
     5
 63
     7
 74
     1
 91
        4
 64
     7
 65
   257
 75
     1
175
     1
 42
1.0
 92
        0
 66
   257
 43
1.0
 76
     1
 77
     6
 78
     2
 67
     7
 79
     5
170
     0
171
     0
290
     0
174
     0
 93
       13
 44
0.0
173
     0
291
     1
 45
0.0
1001
ACAD
1000
AcDbSavedByObjectVersion
1070
     0
1000
AcDbSavedByObjectVersion
1070
     0
  0
VISUALSTYLE
  5
12A6
102
{ACAD_REACTORS
330
12A3
102
}
330
12A3
100
AcDbVisualStyle
  2
Gouraud
 70
     2
 71
     2
 72
     2
 73
     1
 90
        2
 40
-0.6
 41
30.0
 62
     5
 63
     7
 74
     0
 91
        4
 64
     7
 65
   257
 75
     1
175
     1
 42
1.0
 92
        0
 66
     7
 43
1.0
 76
     1
 77
     6
 78
     2
 67
     7
 79
     5
170
     0
171
     0
290
     0
174
     0
 93
       13
 44
0.0
173
     0
291
     1
 45
0.0
1001
ACAD
1000
AcDbSavedByObjectVersion
1070
     0
1000
AcDbSavedByObjectVersion
1070
     0
  0
VISUALSTYLE
  5
12A7
102
{ACAD_REACTORS
330
12A3
102
}
330
12A3
100
AcDbVisualStyle
  2
GouraudWithEdges
 70
     3
 71
     2
 72
     2
 73
     1
 90
        2
 40
-0.6
 41
30.0
 62
     5
 63
     7
 74
     1
 91
        4
 64
     7
 65
   257
 75
     1
175
     1
 42
1.0
 92
        0
 66
   257
 43
1.0
 76
     1
 77
     6
 78
     2
 67
     7
 79
     5
170
     0
171
     0
290
     0
174
     0
 93
       13
 44
0.0
173
     0
291
     1
 45
0.0
1001
ACAD
1000
AcDbSavedByObjectVersion
1070
     0
1000
AcDbSavedByObjectVersion
1070
     0
  0
VISUALSTYLE
  5
12B1
102
{ACAD_REACTORS
330
12A3
102
}
330
12A3
100
AcDbVisualStyle
  2
Linepattern
 70
    14
 71
     2
 72
     2
 73
     0
 90
        0
 40
-0.6
 41
-30.0
 62
     5
 63
     7
 74
     1
 91
        4
 64
     7
 65
   257
 75
     7
175
     7
 42
1.0
 92
        8
 66
     7
 43
1.0
 76
     1
 77
     6
 78
     2
 67
     7
 79
     5
170
     0
171
     0
290
     0
174
     0
 93
        1
 44
0.0
173
     0
291
     1
 45
0.0
1001
ACAD
1000
AcDbSavedByObjectVersion
1070
     0
1000
AcDbSavedByObjectVersion
1070
     0
  0
VISUALSTYLE
  5
12AD
102
{ACAD_REACTORS
330
12A3
102
}
330
12A3
100
AcDbVisualStyle
  2
Realistic
 70
     8
 71
     2
 72
     2
 73
     0
 90
        0
 40
-0.6
 41
-30.0
 62
     5
 63
     7
 74
     1
 91
        0
 64
     7
 65
   257
 75
     1
175
     1
 42
1.0
 92
        8
 66
     8
 43
1.0
 76
     1
 77
     6
 78
     2
 67
     7
 79
     5
170
     0
171
     0
290
     0
174
     0
 93
       13
 44
0.0
173
     0
291
     0
 45
0.0
1001
ACAD
1000
AcDbSavedByObjectVersion
1070
     0
1000
AcDbSavedByObjectVersion
1070
     0
  0
VISUALSTYLE
  5
12B0
102
{ACAD_REACTORS
330
12A3
102
}
330
12A3
100
AcDbVisualStyle
  2
Thicken
 70
    13
 71
     2
 72
     2
 73
     0
 90
        0
 40
-0.6
 41
-30.0
 62
     5
 63
     7
 74
     1
 91
        4
 64
     7
 65
   257
 75
     1
175
     1
 42
1.0
 92
       12
 66
     7
 43
1.0
 76
     1
 77
     6
 78
     2
 67
     7
 79
     5
170
     0
171
     0
290
     0
174
     0
 93
        1
 44
0.0
173
     0
291
     1
 45
0.0
1001
ACAD
1000
AcDbSavedByObjectVersion
1070
     0
1000
AcDbSavedByObjectVersion
1070
     0
  0
DICTIONARYVAR
  5
1A53
102
{ACAD_REACTORS
330
1A50
102
}
330
1A50
100
DictionaryVariables
280
     0
  1
1:1
  0
DICTIONARYVAR
  5
1A52
102
{ACAD_REACTORS
330
1A50
102
}
330
1A50
100
DictionaryVariables
280
     0
  1
STANDARD
  0
DICTIONARYVAR
  5
1A51
102
{ACAD_REACTORS
330
1A50
102
}
330
1A50
100
DictionaryVariables
280
     0
  1
STANDARD
  0
DICTIONARYVAR
  5
1A56
102
{ACAD_REACTORS
330
1A50
102
}
330
1A50
100
DictionaryVariables
280
     0
  1
1
  0
DICTIONARYVAR
  5
1A55
102
{ACAD_REACTORS
330
1A50
102
}
330
1A50
100
DictionaryVariables
280
     0
  1
0
  0
DICTIONARYVAR
  5
1A54
102
{ACAD_REACTORS
330
1A50
102
}
330
1A50
100
DictionaryVariables
280
     0
  1
127
  0
DICTIONARY
  5
1A99
330
E96
100
AcDbDictionary
280
     1
281
     1
  3
ACAD_XREC_ROUNDTRIP
360
1A9A
  0
DICTIONARY
  5
1A97
330
E95
100
AcDbDictionary
280
     1
281
     1
  3
ACAD_XREC_ROUNDTRIP
360
1A98
  0
DICTIONARY
  5
1294
330
1293
100
AcDbDictionary
280
     1
281
     1
  3
ACAD_XREC_ROUNDTRIP
360
1A8A
  3
BUMPTILE
360
1296
  3
DIFFUSETILE
360
1295
  3
OPACITYTILE
360
1299
  3
REFLECTIONTILE
360
1298
  3
REFRACTIONTILE
360
129A
  3
SPECULARTILE
360
1297
  0
DICTIONARY
  5
128C
330
128B
100
AcDbDictionary
280
     1
281
     1
  3
ACAD_XREC_ROUNDTRIP
360
1A89
  3
BUMPTILE
360
128E
  3
DIFFUSETILE
360
128D
  3
OPACITYTILE
360
1291
  3
REFLECTIONTILE
360
1290
  3
REFRACTIONTILE
360
1292
  3
SPECULARTILE
360
128F
  0
DICTIONARY
  5
129C
330
129B
100
AcDbDictionary
280
     1
281
     1
  3
ACAD_XREC_ROUNDTRIP
360
1A8B
  3
BUMPTILE
360
129E
  3
DIFFUSETILE
360
129D
  3
OPACITYTILE
360
12A1
  3
REFLECTIONTILE
360
12A0
  3
REFRACTIONTILE
360
12A2
  3
SPECULARTILE
360
129F
  0
DICTIONARY
  5
1A81
330
12B6
100
AcDbDictionary
280
     1
281
     1
  3
ACAD_ROUNDTRIP_2008_TABLESTYLE_CELLSTYLEMAP
360
1A95
  3
ACAD_XREC_ROUNDTRIP
360
1A9B
  0
XRECORD
  5
1A9A
102
{ACAD_REACTORS
330
1A99
102
}
330
1A99
100
AcDbXrecord
280
     1
102
SHADEPLOT
 70
     0
102
SHADEPLOTRESLEVEL
 70
     2
102
SHADEPLOTCUSTOMDPI
 70
   300
  0
XRECORD
  5
1A98
102
{ACAD_REACTORS
330
1A97
102
}
330
1A97
100
AcDbXrecord
280
     1
102
SHADEPLOT
 70
     0
102
SHADEPLOTRESLEVEL
 70
     2
102
SHADEPLOTCUSTOMDPI
 70
   300
  0
XRECORD
  5
1A8A
102
{ACAD_REACTORS
330
1294
102
}
330
1294
100
AcDbXrecord
280
     1
102
MATERIAL
148
0.0
149
0.0
149
0.0
 93
        0
 94
      127
282
     0
 72
     0
 77
     0
171
     0
175
     0
179
     0
273
     0
  0
XRECORD
  5
1296
102
{ACAD_REACTORS
330
1294
102
}
330
1294
100
AcDbXrecord
280
     1
270
     1
271
     1
  0
XRECORD
  5
1295
102
{ACAD_REACTORS
330
1294
102
}
330
1294
100
AcDbXrecord
280
     1
270
     1
271
     1
  0
XRECORD
  5
1299
102
{ACAD_REACTORS
330
1294
102
}
330
1294
100
AcDbXrecord
280
     1
270
     1
271
     1
  0
XRECORD
  5
1298
102
{ACAD_REACTORS
330
1294
102
}
330
1294
100
AcDbXrecord
280
     1
270
     1
271
     1
  0
XRECORD
  5
129A
102
{ACAD_REACTORS
330
1294
102
}
330
1294
100
AcDbXrecord
280
     1
270
     1
271
     1
  0
XRECORD
  5
1297
102
{ACAD_REACTORS
330
1294
102
}
330
1294
100
AcDbXrecord
280
     1
270
     1
271
     1
  0
XRECORD
  5
1A89
102
{ACAD_REACTORS
330
128C
102
}
330
128C
100
AcDbXrecord
280
     1
102
MATERIAL
148
0.0
149
0.0
149
0.0
 93
        0
 94
      127
282
     0
 72
     0
 77
     0
171
     0
175
     0
179
     0
273
     0
  0
XRECORD
  5
128E
102
{ACAD_REACTORS
330
128C
102
}
330
128C
100
AcDbXrecord
280
     1
270
     1
271
     1
  0
XRECORD
  5
128D
102
{ACAD_REACTORS
330
128C
102
}
330
128C
100
AcDbXrecord
280
     1
270
     1
271
     1
  0
XRECORD
  5
1291
102
{ACAD_REACTORS
330
128C
102
}
330
128C
100
AcDbXrecord
280
     1
270
     1
271
     1
  0
XRECORD
  5
1290
102
{ACAD_REACTORS
330
128C
102
}
330
128C
100
AcDbXrecord
280
     1
270
     1
271
     1
  0
XRECORD
  5
1292
102
{ACAD_REACTORS
330
128C
102
}
330
128C
100
AcDbXrecord
280
     1
270
     1
271
     1
  0
XRECORD
  5
128F
102
{ACAD_REACTORS
330
128C
102
}
330
128C
100
AcDbXrecord
280
     1
270
     1
271
     1
  0
XRECORD
  5
1A8B
102
{ACAD_REACTORS
330
129C
102
}
330
129C
100
AcDbXrecord
280
     1
102
MATERIAL
148
0.0
149
0.0
149
0.0
 93
        0
 94
      127
282
     0
 72
     0
 77
     0
171
     0
175
     0
179
     0
273
     0
  0
XRECORD
  5
129E
102
{ACAD_REACTORS
330
129C
102
}
330
129C
100
AcDbXrecord
280
     1
270
     1
271
     1
  0
XRECORD
  5
129D
102
{ACAD_REACTORS
330
129C
102
}
330
129C
100
AcDbXrecord
280
     1
270
     1
271
     1
  0
XRECORD
  5
12A1
102
{ACAD_REACTORS
330
129C
102
}
330
129C
100
AcDbXrecord
280
     1
270
     1
271
     1
  0
XRECORD
  5
12A0
102
{ACAD_REACTORS
330
129C
102
}
330
129C
100
AcDbXrecord
280
     1
270
     1
271
     1
  0
XRECORD
  5
12A2
102
{ACAD_REACTORS
330
129C
102
}
330
129C
100
AcDbXrecord
280
     1
270
     1
271
     1
  0
XRECORD
  5
129F
102
{ACAD_REACTORS
330
129C
102
}
330
129C
100
AcDbXrecord
280
     1
270
     1
271
     1
  0
CELLSTYLEMAP
  5
1A95
102
{ACAD_REACTORS
330
1A81
102
}
330
1A81
100
AcDbCellStyleMap
 90
        3
300
CELLSTYLE
  1
TABLEFORMAT_BEGIN
 90
        5
170
     1
 91
        0
 92
    32768
 62
   257
 93
        1
300
CONTENTFORMAT
  1
CONTENTFORMAT_BEGIN
 90
        0
 91
        0
 92
      512
 93
        0
300

 40
0.0
140
1.0
 94
        5
 62
     0
340
10
144
6.0
309
CONTENTFORMAT_END
171
     1
301
MARGIN
  1
CELLMARGIN_BEGIN
 40
1.5
 40
1.5
 40
1.5
 40
1.5
 40
0.18
 40
0.18
309
CELLMARGIN_END
 94
        6
 95
        1
302
GRIDFORMAT
  1
GRIDFORMAT_BEGIN
 90
        0
 91
        1
 62
     0
 92
       -2
340
0
 93
        0
 40
1.125
309
GRIDFORMAT_END
 95
        2
302
GRIDFORMAT
  1
GRIDFORMAT_BEGIN
 90
        0
 91
        1
 62
     0
 92
       -2
340
0
 93
        0
 40
1.125
309
GRIDFORMAT_END
 95
        4
302
GRIDFORMAT
  1
GRIDFORMAT_BEGIN
 90
        0
 91
        1
 62
     0
 92
       -2
340
0
 93
        0
 40
1.125
309
GRIDFORMAT_END
 95
        8
302
GRIDFORMAT
  1
GRIDFORMAT_BEGIN
 90
        0
 91
        1
 62
     0
 92
       -2
340
0
 93
        0
 40
1.125
309
GRIDFORMAT_END
 95
       16
302
GRIDFORMAT
  1
GRIDFORMAT_BEGIN
 90
        0
 91
        1
 62
     0
 92
       -2
340
0
 93
        0
 40
1.125
309
GRIDFORMAT_END
 95
       32
302
GRIDFORMAT
  1
GRIDFORMAT_BEGIN
 90
        0
 91
        1
 62
     0
 92
       -2
340
0
 93
        0
 40
1.125
309
GRIDFORMAT_END
309
TABLEFORMAT_END
  1
CELLSTYLE_BEGIN
 90
        1
 91
        1
300
_TITLE
309
CELLSTYLE_END
300
CELLSTYLE
  1
TABLEFORMAT_BEGIN
 90
        5
170
     1
 91
        0
 92
        0
 62
   257
 93
        1
300
CONTENTFORMAT
  1
CONTENTFORMAT_BEGIN
 90
        0
 91
        0
 92
      512
 93
        0
300

 40
0.0
140
1.0
 94
        5
 62
     0
340
10
144
4.5
309
CONTENTFORMAT_END
171
     1
301
MARGIN
  1
CELLMARGIN_BEGIN
 40
1.5
 40
1.5
 40
1.5
 40
1.5
 40
0.18
 40
0.18
309
CELLMARGIN_END
 94
        6
 95
        1
302
GRIDFORMAT
  1
GRIDFORMAT_BEGIN
 90
        0
 91
        1
 62
     0
 92
       -2
340
0
 93
        0
 40
1.125
309
GRIDFORMAT_END
 95
        2
302
GRIDFORMAT
  1
GRIDFORMAT_BEGIN
 90
        0
 91
        1
 62
     0
 92
       -2
340
0
 93
        0
 40
1.125
309
GRIDFORMAT_END
 95
        4
302
GRIDFORMAT
  1
GRIDFORMAT_BEGIN
 90
        0
 91
        1
 62
     0
 92
       -2
340
0
 93
        0
 40
1.125
309
GRIDFORMAT_END
 95
        8
302
GRIDFORMAT
  1
GRIDFORMAT_BEGIN
 90
        0
 91
        1
 62
     0
 92
       -2
340
0
 93
        0
 40
1.125
309
GRIDFORMAT_END
 95
       16
302
GRIDFORMAT
  1
GRIDFORMAT_BEGIN
 90
        0
 91
        1
 62
     0
 92
       -2
340
0
 93
        0
 40
1.125
309
GRIDFORMAT_END
 95
       32
302
GRIDFORMAT
  1
GRIDFORMAT_BEGIN
 90
        0
 91
        1
 62
     0
 92
       -2
340
0
 93
        0
 40
1.125
309
GRIDFORMAT_END
309
TABLEFORMAT_END
  1
CELLSTYLE_BEGIN
 90
        2
 91
        1
300
_HEADER
309
CELLSTYLE_END
300
CELLSTYLE
  1
TABLEFORMAT_BEGIN
 90
        5
170
     1
 91
        0
 92
        0
 62
   257
 93
        1
300
CONTENTFORMAT
  1
CONTENTFORMAT_BEGIN
 90
        0
 91
        0
 92
      512
 93
        0
300

 40
0.0
140
1.0
 94
        2
 62
     0
340
10
144
4.5
309
CONTENTFORMAT_END
171
     1
301
MARGIN
  1
CELLMARGIN_BEGIN
 40
1.5
 40
1.5
 40
1.5
 40
1.5
 40
0.18
 40
0.18
309
CELLMARGIN_END
 94
        6
 95
        1
302
GRIDFORMAT
  1
GRIDFORMAT_BEGIN
 90
        0
 91
        1
 62
     0
 92
       -2
340
0
 93
        0
 40
1.125
309
GRIDFORMAT_END
 95
        2
302
GRIDFORMAT
  1
GRIDFORMAT_BEGIN
 90
        0
 91
        1
 62
     0
 92
       -2
340
0
 93
        0
 40
1.125
309
GRIDFORMAT_END
 95
        4
302
GRIDFORMAT
  1
GRIDFORMAT_BEGIN
 90
        0
 91
        1
 62
     0
 92
       -2
340
0
 93
        0
 40
1.125
309
GRIDFORMAT_END
 95
        8
302
GRIDFORMAT
  1
GRIDFORMAT_BEGIN
 90
        0
 91
        1
 62
     0
 92
       -2
340
0
 93
        0
 40
1.125
309
GRIDFORMAT_END
 95
       16
302
GRIDFORMAT
  1
GRIDFORMAT_BEGIN
 90
        0
 91
        1
 62
     0
 92
       -2
340
0
 93
        0
 40
1.125
309
GRIDFORMAT_END
 95
       32
302
GRIDFORMAT
  1
GRIDFORMAT_BEGIN
 90
        0
 91
        1
 62
     0
 92
       -2
340
0
 93
        0
 40
1.125
309
GRIDFORMAT_END
309
TABLEFORMAT_END
  1
CELLSTYLE_BEGIN
 90
        3
 91
        2
300
_DATA
309
CELLSTYLE_END
  0
XRECORD
  5
1A9B
102
{ACAD_REACTORS
330
1A81
102
}
330
1A81
100
AcDbXrecord
280
     1
102
ACAD_ROUNDTRIP_PRE2007_TABLESTYLE
 90
      512
 91
        0
  1

 92
      512
 93
        0
  2

 94
      512
 95
        0
  3

  0
ENDSEC
  0
EOF
