  0
SECTION
  2
HEADER
  9
$ACADVER
  1
AC1015
  9
$ACADMAINTVER
 70
    20
  9
$DWGCODEPAGE
  3
ANSI_1252
  9
$INSBASE
 10
0.0
 20
0.0
 30
0.0
  9
$EXTMIN
 10
-70.7754194228623
 20
-43.741301342078
 30
-0.0015258207003583
  9
$EXTMAX
 10
137.020066467137
 20
125.966187368573
 30
0.0000000349246037
  9
$LIMMIN
 10
-170.0
 20
-170.0
  9
$LIMMAX
 10
519.0
 20
260.0
  9
$ORTHOMODE
 70
     1
  9
$REGENMODE
 70
     1
  9
$FILLMODE
 70
     1
  9
$QTEXTMODE
 70
     0
  9
$MIRRTEXT
 70
     0
  9
$LTSCALE
 40
1.0
  9
$ATTMODE
 70
     1
  9
$TEXTSIZE
 40
5.0
  9
$TRACEWID
 40
1.0
  9
$TEXTSTYLE
  7
USER1
  9
$CLAYER
  8
0
  9
$CELTYPE
  6
BYLAYER
  9
$CECOLOR
 62
   256
  9
$CELTSCALE
 40
1.0
  9
$DISPSILH
 70
     0
  9
$DIMSCALE
 40
1.0
  9
$DIMASZ
 40
2.5
  9
$DIMEXO
 40
1.0
  9
$DIMDLI
 40
15.0
  9
$DIMRND
 40
0.0
  9
$DIMDLE
 40
0.0
  9
$DIMEXE
 40
2.0
  9
$DIMTP
 40
0.0
  9
$DIMTM
 40
0.000000001
  9
$DIMTXT
 40
3.5
  9
$DIMCEN
 40
0.09
  9
$DIMTSZ
 40
0.0
  9
$DIMTOL
 70
     0
  9
$DIMLIM
 70
     0
  9
$DIMTIH
 70
     0
  9
$DIMTOH
 70
     0
  9
$DIMSE1
 70
     0
  9
$DIMSE2
 70
     0
  9
$DIMTAD
 70
     1
  9
$DIMZIN
 70
     8
  9
$DIMBLK
  1

  9
$DIMASO
 70
     1
  9
$DIMSHO
 70
     1
  9
$DIMPOST
  1

  9
$DIMAPOST
  1

  9
$DIMALT
 70
     0
  9
$DIMALTD
 70
     3
  9
$DIMALTF
 40
0.0393701
  9
$DIMLFAC
 40
1.0
  9
$DIMTOFL
 70
     1
  9
$DIMTVP
 40
0.0
  9
$DIMTIX
 70
     0
  9
$DIMSOXD
 70
     0
  9
$DIMSAH
 70
     0
  9
$DIMBLK1
  1

  9
$DIMBLK2
  1

  9
$DIMSTYLE
  2
AM_DIN
  9
$DIMCLRD
 70
     0
  9
$DIMCLRE
 70
     0
  9
$DIMCLRT
 70
     0
  9
$DIMTFAC
 40
0.7071069999999999
  9
$DIMGAP
 40
1.0
  9
$DIMJUST
 70
     0
  9
$DIMSD1
 70
     0
  9
$DIMSD2
 70
     0
  9
$DIMTOLJ
 70
     1
  9
$DIMTZIN
 70
     8
  9
$DIMALTZ
 70
    11
  9
$DIMALTTZ
 70
     8
  9
$DIMUPT
 70
     0
  9
$DIMDEC
 70
     2
  9
$DIMTDEC
 70
     2
  9
$DIMALTU
 70
     3
  9
$DIMALTTD
 70
     3
  9
$DIMTXSTY
  7
STANDARD 3.5 mm
  9
$DIMAUNIT
 70
     0
  9
$DIMADEC
 70
     1
  9
$DIMALTRND
 40
0.0
  9
$DIMAZIN
 70
     2
  9
$DIMDSEP
 70
    46
  9
$DIMATFIT
 70
     3
  9
$DIMFRAC
 70
     0
  9
$DIMLDRBLK
  1

  9
$DIMLUNIT
 70
     2
  9
$DIMLWD
 70
    -1
  9
$DIMLWE
 70
    -1
  9
$DIMTMOVE
 70
     0
  9
$LUNITS
 70
     2
  9
$LUPREC
 70
     2
  9
$SKETCHINC
 40
1.0
  9
$FILLETRAD
 40
0.0
  9
$AUNITS
 70
     0
  9
$AUPREC
 70
     0
  9
$MENU
  1
c:\tdm21\cad\caduti13\tdm13
  9
$ELEVATION
 40
0.0
  9
$PELEVATION
 40
0.0
  9
$THICKNESS
 40
0.0
  9
$LIMCHECK
 70
     0
  9
$CHAMFERA
 40
0.0
  9
$CHAMFERB
 40
0.0
  9
$CHAMFERC
 40
0.0
  9
$CHAMFERD
 40
0.0
  9
$SKPOLY
 70
     0
  9
$TDCREATE
 40
2459741.527210648
  9
$TDUCREATE
 40
2459741.298049688
  9
$TDUPDATE
 40
2459745.469432871
  9
$TDUUPDATE
 40
2459745.240266204
  9
$TDINDWG
 40
0.0345027315
  9
$TDUSRTIMER
 40
0.0345024306
  9
$USRTIMER
 70
     1
  9
$ANGBASE
 50
0.0
  9
$ANGDIR
 70
     0
  9
$PDMODE
 70
     1
  9
$PDSIZE
 40
0.0
  9
$PLINEWID
 40
0.0
  9
$SPLFRAME
 70
     0
  9
$SPLINETYPE
 70
     6
  9
$SPLINESEGS
 70
     8
  9
$HANDSEED
  5
1EE7
  9
$SURFTAB1
 70
     6
  9
$SURFTAB2
 70
     6
  9
$SURFTYPE
 70
     6
  9
$SURFU
 70
     6
  9
$SURFV
 70
     6
  9
$UCSBASE
  2

  9
$UCSNAME
  2

  9
$UCSORG
 10
0.0
 20
0.0
 30
0.0
  9
$UCSXDIR
 10
1.0
 20
0.0
 30
0.0
  9
$UCSYDIR
 10
0.0
 20
1.0
 30
0.0
  9
$UCSORTHOREF
  2

  9
$UCSORTHOVIEW
 70
     0
  9
$UCSORGTOP
 10
0.0
 20
0.0
 30
0.0
  9
$UCSORGBOTTOM
 10
0.0
 20
0.0
 30
0.0
  9
$UCSORGLEFT
 10
0.0
 20
0.0
 30
0.0
  9
$UCSORGRIGHT
 10
0.0
 20
0.0
 30
0.0
  9
$UCSORGFRONT
 10
0.0
 20
0.0
 30
0.0
  9
$UCSORGBACK
 10
0.0
 20
0.0
 30
0.0
  9
$PUCSBASE
  2

  9
$PUCSNAME
  2

  9
$PUCSORG
 10
0.0
 20
0.0
 30
0.0
  9
$PUCSXDIR
 10
1.0
 20
0.0
 30
0.0
  9
$PUCSYDIR
 10
0.0
 20
1.0
 30
0.0
  9
$PUCSORTHOREF
  2

  9
$PUCSORTHOVIEW
 70
     0
  9
$PUCSORGTOP
 10
0.0
 20
0.0
 30
0.0
  9
$PUCSORGBOTTOM
 10
0.0
 20
0.0
 30
0.0
  9
$PUCSORGLEFT
 10
0.0
 20
0.0
 30
0.0
  9
$PUCSORGRIGHT
 10
0.0
 20
0.0
 30
0.0
  9
$PUCSORGFRONT
 10
0.0
 20
0.0
 30
0.0
  9
$PUCSORGBACK
 10
0.0
 20
0.0
 30
0.0
  9
$USERI1
 70
     0
  9
$USERI2
 70
     0
  9
$USERI3
 70
     0
  9
$USERI4
 70
     0
  9
$USERI5
 70
     0
  9
$USERR1
 40
0.0
  9
$USERR2
 40
0.0
  9
$USERR3
 40
0.0
  9
$USERR4
 40
0.0
  9
$USERR5
 40
0.0
  9
$WORLDVIEW
 70
     1
  9
$SHADEDGE
 70
     3
  9
$SHADEDIF
 70
    70
  9
$TILEMODE
 70
     1
  9
$MAXACTVP
 70
    64
  9
$PINSBASE
 10
0.0
 20
0.0
 30
0.0
  9
$PLIMCHECK
 70
     0
  9
$PEXTMIN
 10
-0.0226558438690745
 20
-0.0160192835437556
 30
-0.000000000000013
  9
$PEXTMAX
 10
297.000001383183
 20
210.0000009780083
 30
0.0000000000000023
  9
$PLIMMIN
 10
0.0
 20
0.0
  9
$PLIMMAX
 10
297.0
 20
210.0
  9
$UNITMODE
 70
     0
  9
$VISRETAIN
 70
     0
  9
$PLINEGEN
 70
     0
  9
$PSLTSCALE
 70
     1
  9
$TREEDEPTH
 70
  3020
  9
$CMLSTYLE
  2
STANDARD
  9
$CMLJUST
 70
     0
  9
$CMLSCALE
 40
20.0
  9
$PROXYGRAPHICS
 70
     1
  9
$MEASUREMENT
 70
     1
  9
$CELWEIGHT
370
    -1
  9
$ENDCAPS
280
     0
  9
$JOINSTYLE
280
     0
  9
$LWDISPLAY
290
     0
  9
$INSUNITS
 70
     0
  9
$HYPERLINKBASE
  1
HTTP://WWW.SECOTOOLS.COM/
  9
$STYLESHEET
  1
MONOCHROME.CTB
  9
$XEDIT
290
     1
  9
$CEPSNTYPE
380
     0
  9
$PSTYLEMODE
290
     1
  9
$FINGERPRINTGUID
  2
{9CF22DED-3170-4CDD-85C4-955B3DBE8099}
  9
$VERSIONGUID
  2
{BF0614F7-98B0-6144-8115-C8DF7F27562B}
  9
$EXTNAMES
290
     1
  9
$PSVPSCALE
 40
0.0
  9
$OLESTARTUP
290
     0
  0
ENDSEC
  0
SECTION
  2
CLASSES
  0
CLASS
  1
ACDBDICTIONARYWDFLT
  2
AcDbDictionaryWithDefault
  3
ObjectDBX Classes
 90
        0
280
     0
281
     0
  0
CLASS
  1
ACDBPLACEHOLDER
  2
AcDbPlaceHolder
  3
ObjectDBX Classes
 90
        0
280
     0
281
     0
  0
CLASS
  1
LAYOUT
  2
AcDbLayout
  3
ObjectDBX Classes
 90
        0
280
     0
281
     0
  0
CLASS
  1
DICTIONARYVAR
  2
AcDbDictionaryVar
  3
ObjectDBX Classes
 90
        0
280
     0
281
     0
  0
CLASS
  1
TABLESTYLE
  2
AcDbTableStyle
  3
ObjectDBX Classes
 90
     4095
280
     0
281
     0
  0
CLASS
  1
MATERIAL
  2
AcDbMaterial
  3
ObjectDBX Classes
 90
     1153
280
     0
281
     0
  0
CLASS
  1
VISUALSTYLE
  2
AcDbVisualStyle
  3
ObjectDBX Classes
 90
     4095
280
     0
281
     0
  0
CLASS
  1
SCALE
  2
AcDbScale
  3
ObjectDBX Classes
 90
     1153
280
     0
281
     0
  0
CLASS
  1
MLEADERSTYLE
  2
AcDbMLeaderStyle
  3
ACDB_MLEADERSTYLE_CLASS
 90
     4095
280
     0
281
     0
  0
CLASS
  1
ACME_DOCUMENT
  2
AcMeDbDoc
  3
AcMeServices
 90
     1024
280
     0
281
     0
  0
CLASS
  1
AMGSETTINGSOBJ
  2
AmgSettingsObj
  3
"AcadM|Product Description: AutoCAD Mechanical|Company: Autodesk, Inc."
 90
     1024
280
     0
281
     0
  0
CLASS
  1
ACMESCOPE
  2
AcMeScope
  3
AcMeServices
 90
     1024
280
     0
281
     0
  0
CLASS
  1
ACMECOMMANDHISTORY
  2
AcMeCommandHistory
  3
AcMeServices
 90
     1024
280
     0
281
     0
  0
CLASS
  1
ACIMSYSVARMAN
  2
AcImSysVarManager
  3
AcMeServices
 90
     1024
280
     0
281
     0
  0
CLASS
  1
ACIMINTSYSVAR
  2
AcImIntSysVar
  3
AcMeServices
 90
     1024
280
     0
281
     0
  0
CLASS
  1
ACMEDRAWINGMAN
  2
AcMeDrawingMan
  3
AcMeServices
 90
    33792
280
     0
281
     0
  0
CLASS
  1
ACMEVIEW
  2
AcMeView
  3
AcMeServices
 90
    33792
280
     0
281
     0
  0
CLASS
  1
ACDBENTITYCACHE
  2
AcMeEntityCache
  3
AcMeServices
 90
     1024
280
     0
281
     0
  0
CLASS
  1
GSMANAGER
  2
AcMeGSManager
  3
AcMeServices
 90
    33792
280
     0
281
     0
  0
CLASS
  1
AMDTINTERNALREACTOR
  2
AmdtInternalReactor
  3
AcMeServices
 90
    33792
280
     0
281
     0
  0
CLASS
  1
ACMESTATEMGR
  2
AcMeStateMgr
  3
AcMeServices
 90
     1024
280
     0
281
     0
  0
CLASS
  1
ACGREFMASTER
  2
AcGrefMaster
  3
AcAttribServices
 90
     1024
280
     0
281
     0
  0
CLASS
  1
AM_DRAWING_MGR
  2
AcDmDwgMgr
  3
AcMechDwgViewMgmt
 90
    33792
280
     0
281
     0
  0
CLASS
  1
AM_DWG_DOCUMENT
  2
AcDmDwgDocument
  3
AcMechDwgViewMgmt
 90
    33792
280
     0
281
     0
  0
CLASS
  1
AM_DWG_SHEET
  2
AcDmSheet
  3
AcMechDwgViewMgmt
 90
    33792
280
     0
281
     0
  0
CLASS
  1
AM_VIEWDIMPARMAP
  2
AcDmViewDimParMap
  3
AcMechDwgViewMgmt
 90
    33792
280
     0
281
     0
  0
CLASS
  1
ACIMREALSYSVAR
  2
AcImRealSysVar
  3
AcMeServices
 90
    33792
280
     0
281
     0
  0
CLASS
  1
AM_DWGMGR_NAME
  2
AcDmDwgMgrName
  3
AcMechDwgViewMgmt
 90
    33792
280
     0
281
     0
  0
CLASS
  1
ACME_DATABASE
  2
AcMeDbDatabase
  3
AcMeServices
 90
     1024
280
     0
281
     0
  0
CLASS
  1
ACRFINSADJUSTERMGR
  2
AcRfInsAdjusterMgr
  3
AcMeServices
 90
     1024
280
     0
281
     0
  0
CLASS
  1
ACGREFACADMASTER
  2
AcGrefacadMaster
  3
AcGrefServices
 90
     1024
280
     0
281
     0
  0
CLASS
  1
AMDTMENUSTATEMGR
  2
AmdtMenuStateMgr
  3
McadcomServices
 90
     1024
280
     0
281
     0
  0
CLASS
  1
AMDTMCOMMENUSTATE
  2
AmdtMcomMenuState
  3
McadcomServices
 90
     1024
280
     0
281
     0
  0
CLASS
  1
AMIMASTER
  2
AmiMaster
  3
AmiServices
 90
     1024
280
     0
281
     0
  0
CLASS
  1
MAPIAMMOUDLE
  2
MApiAmModule
  3
MApiAmServices
 90
     1024
280
     0
281
     0
  0
CLASS
  1
ACIMSTRSYSVAR
  2
AcImStrSysVar
  3
AcMeServices
 90
     1024
280
     0
281
     0
  0
CLASS
  1
AMDTADMENUSTATE
  2
AmdtAdMenuState
  3
DesignerServices
 90
    33792
280
     0
281
     0
  0
CLASS
  1
ADAPPL
  2
AcAdAppl
  3
DesignerAssemblies
 90
    33792
280
     0
281
     0
  0
CLASS
  1
DEPMGR
  2
AcAdDepMgr
  3
DesignerAssemblies
 90
    33792
280
     0
281
     0
  0
CLASS
  1
PARAMMGR
  2
AcAdParamMgr
  3
DesignerAssemblies
 90
    33792
280
     0
281
     0
  0
CLASS
  1
PARAMSCOPE
  2
AcAdParamScope
  3
DesignerAssemblies
 90
    33792
280
     0
281
     0
  0
CLASS
  1
NAMEDAPPL
  2
AcAdNamedAppl
  3
DesignerAssemblies
 90
    33792
280
     0
281
     0
  0
CLASS
  1
AMDTDMMENUSTATE
  2
AmdtDmMenuState
  3
AcMechDwgViewMgmt
 90
    33792
280
     0
281
     0
  0
CLASS
  1
AMDTAMMENUSTATE
  2
AmdtAmMenuState
  3
DesignerAssemblies_arx
 90
     1024
280
     0
281
     0
  0
CLASS
  1
ACAMPROJECT
  2
AcAmProject
  3
DesignerAssemblies
 90
     1024
280
     0
281
     0
  0
CLASS
  1
ACAMGRCOMPDEF
  2
AcAmGrCompDef
  3
DesignerAssemblies
 90
     1024
280
     0
281
     0
  0
CLASS
  1
ACCMCONTEXT
  2
AcCmContext
  3
DesignerAssemblies
 90
    33792
280
     0
281
     0
  0
CLASS
  1
ACAMCOMPDEF
  2
AcAmCompDef
  3
DesignerAssemblies
 90
     1024
280
     0
281
     0
  0
CLASS
  1
ACAMCOMPDEFMGR
  2
AcAmCompDefMgr
  3
DesignerAssemblies
 90
     1024
280
     0
281
     0
  0
CLASS
  1
AMCONTEXTMGR
  2
AcAmContextMgr
  3
DesignerAssemblies
 90
     1024
280
     0
281
     0
  0
CLASS
  1
ACAMCONTEXTMODELER
  2
AcAmContextModeler
  3
DesignerAssemblies
 90
     1024
280
     0
281
     0
  0
CLASS
  1
ACMDATADICTIONARY
  2
AcmDataDictionary
  3
"AcmSymBB|Product Description: AutoCAD Mechanical|Company: Autodesk, Inc."
 90
     1024
280
     0
281
     0
  0
CLASS
  1
CATALOGSTATE
  2
AcAmCatalogState
  3
DesignerAssemblies_arx
 90
    33792
280
     0
281
     0
  0
CLASS
  1
ACAMGRCOMPDEFSET
  2
AcAmGrCompDefSet
  3
DesignerAssemblies
 90
     1024
280
     0
281
     0
  0
CLASS
  1
AMDTBROWSERDBTAB
  2
AmdtBrowserDbTab
  3
McadcomServices
 90
     1024
280
     0
281
     0
  0
CLASS
  1
CBROWSERAPPOBJECT
  2
CBrowserAppObject
  3
McadcomServices
 90
     1024
280
     0
281
     0
  0
CLASS
  1
DM_PLACEHOLDER
  2
AcDmSelsetPlaceholder
  3
McadcomServices
 90
     1024
280
     0
281
     0
  0
CLASS
  1
ACMSTANDARDDIN
  2
AcmStandardDIN
  3
"Amdt_StdImp|Product Description: AutoCAD Mechanical|Company: Autodesk, Inc."
 90
    33792
280
     0
281
     0
  0
CLASS
  1
AMGOBJPROPCFG
  2
AmgObjPropCfg
  3
"AmgLay|Product Description: AutoCAD Mechanical|Company: Autodesk, Inc."
 90
     1024
280
     0
281
     0
  0
CLASS
  1
AMDTEDGESTANDARDDIN13715
  2
AmdtEdgeStdDIN13715
  3
"Amdt_StdImp|Product Description: AutoCAD Mechanical|Company: Autodesk, Inc."
 90
    33792
280
     0
281
     0
  0
CLASS
  1
ACMSURFSTANDARDDIN2002
  2
AcmSurfTextStdDIN2002
  3
"Amdt_StdImp|Product Description: AutoCAD Mechanical|Company: Autodesk, Inc."
 90
    33792
280
     0
281
     0
  0
CLASS
  1
ACMFCFSTANDARDDIN
  2
AcmFCFStdDIN
  3
"Amdt_StdImp|Product Description: AutoCAD Mechanical|Company: Autodesk, Inc."
 90
    33792
280
     0
281
     0
  0
CLASS
  1
ACMWELDSTANDARDDIN
  2
AcmWeldingStdDIN
  3
"Amdt_StdImp|Product Description: AutoCAD Mechanical|Company: Autodesk, Inc."
 90
    33792
280
     0
281
     0
  0
CLASS
  1
ACMIDSTANDARDDIN
  2
AcmIdStdDIN
  3
"Amdt_StdImp|Product Description: AutoCAD Mechanical|Company: Autodesk, Inc."
 90
    33792
280
     0
281
     0
  0
CLASS
  1
ACMDATUMSTANDARDDIN
  2
AcmDatumStdDIN
  3
"Amdt_StdImp|Product Description: AutoCAD Mechanical|Company: Autodesk, Inc."
 90
    33792
280
     0
281
     0
  0
CLASS
  1
ACMBOMSTANDARDDIN
  2
AcmBOMStdDIN
  3
"Amdt_StdImp|Product Description: AutoCAD Mechanical|Company: Autodesk, Inc."
 90
    33792
280
     0
281
     0
  0
CLASS
  1
ACMDETAILSTANDARDDIN
  2
AmdtDetailSymStdDIN
  3
"Amdt_StdImp|Product Description: AutoCAD Mechanical|Company: Autodesk, Inc."
 90
    33792
280
     0
281
     0
  0
CLASS
  1
ACMSECTIONSTANDARDDIN
  2
AmdtSectionSymStdDIN
  3
"Amdt_StdImp|Product Description: AutoCAD Mechanical|Company: Autodesk, Inc."
 90
    33792
280
     0
281
     0
  0
CLASS
  1
ACMCENTERLINESTANDARDDIN
  2
AmdtCenterLineStdDIN
  3
"Amdt_StdImp|Product Description: AutoCAD Mechanical|Company: Autodesk, Inc."
 90
    33792
280
     0
281
     0
  0
CLASS
  1
ACMTHREADLINESTANDARDDIN
  2
AmdtThreadLineStdDIN
  3
"Amdt_StdImp|Product Description: AutoCAD Mechanical|Company: Autodesk, Inc."
 90
    33792
280
     0
281
     0
  0
CLASS
  1
ACMNOTESTANDARDDIN
  2
AmdtNoteStdDIN
  3
"Amdt_StdImp|Product Description: AutoCAD Mechanical|Company: Autodesk, Inc."
 90
    33792
280
     0
281
     0
  0
CLASS
  1
ACMTAPERSTANDARDDIN
  2
AcmTaperStdDIN
  3
"Amdt_StdImp|Product Description: AutoCAD Mechanical|Company: Autodesk, Inc."
 90
    33792
280
     0
281
     0
  0
CLASS
  1
ACMANOOTATIONVIEWSTANDARDDIN
  2
AmdtAnViewStdDIN
  3
"Amdt_StdImp|Product Description: AutoCAD Mechanical|Company: Autodesk, Inc."
 90
    33792
280
     0
281
     0
  0
CLASS
  1
AMDTNOTETEMPLATEDB
  2
AmdtNoteTemplateDB
  3
"AcmSymBB" "Product Description: AutoCAD Mechanical|Company: Autodesk, Inc."
 90
     1024
280
     0
281
     0
  0
CLASS
  1
ACAMGLAYSTD
  2
AcAmgLayStd
  3
"AmgLay|Product Description: AutoCAD Mechanical|Company: Autodesk, Inc."
 90
     1024
280
     0
281
     0
  0
CLASS
  1
ACAMGDIMSTD
  2
AcAmgDimStd
  3
"AmgDim|Product Description: AutoCAD Mechanical|Company: Autodesk, Inc."
 90
     1024
280
     0
281
     0
  0
CLASS
  1
ACAMGHOLECHARTSTDDIN
  2
AcAmgHoleChartStdDIN
  3
"AmgDim" "Product Description: AutoCAD Mechanical|Company: Autodesk, Inc."
 90
    33792
280
     0
281
     0
  0
CLASS
  1
ACAMGTITLESTD
  2
AcAmgTitleStd
  3
"AmgTitle|Product Description: AutoCAD Mechanical|Company: Autodesk, Inc."
 90
     1024
280
     0
281
     0
  0
CLASS
  1
ACAMGFILTERDAT
  2
AcAmgFilterDat
  3
"AcadM|Product Description: AutoCAD Mechanical|Company: Autodesk, Inc."
 90
    33792
280
     0
281
     0
  0
CLASS
  1
CAMSSTRUCTBTNSTATE
  2
StructBtnState
  3
DesignerAssemblies_arx
 90
    33792
280
     0
281
     0
  0
CLASS
  1
CELLSTYLEMAP
  2
AcDbCellStyleMap
  3
ObjectDBX Classes
 90
     1152
280
     0
281
     0
  0
CLASS
  1
SORTENTSTABLE
  2
AcDbSortentsTable
  3
ObjectDBX Classes
 90
        0
280
     0
281
     0
  0
CLASS
  1
PLOTSETTINGS
  2
AcDbPlotSettings
  3
ObjectDBX Classes
 90
        0
280
     0
281
     0
  0
CLASS
  1
SOLID_BACKGROUND
  2
AcDbSolidBackground
  3
SCENEOE
 90
    36863
280
     0
281
     0
  0
CLASS
  1
NPOCOLLECTION
  2
AcDbImpNonPersistentObjectsCollection
  3
ObjectDBX Classes
 90
    33921
280
     0
281
     0
  0
CLASS
  1
ACDBSECTIONVIEWSTYLE
  2
AcDbSectionViewStyle
  3
ObjectDBX Classes
 90
     1025
280
     0
281
     0
  0
CLASS
  1
ACDBDETAILVIEWSTYLE
  2
AcDbDetailViewStyle
  3
ObjectDBX Classes
 90
     1025
280
     0
281
     0
  0
CLASS
  1
ACMSECTIONSTANDARDCUSTOM
  2
AmdtSectionSymStdCustom
  3
"Amdt_StdImp|Product Description: AutoCAD Mechanical|Company: Autodesk, Inc."
 90
     1024
280
     0
281
     0
  0
CLASS
  1
ACMDETAILTANDARDCUSTOM
  2
AmdtDetailSymStdCustom
  3
"Amdt_StdImp|Product Description: AutoCAD Mechanical|Company: Autodesk, Inc."
 90
     1024
280
     0
281
     0
  0
CLASS
  1
FIELD
  2
AcDbField
  3
ObjectDBX Classes
 90
     1152
280
     0
281
     0
  0
CLASS
  1
FIELDLIST
  2
AcDbFieldList
  3
ObjectDBX Classes
 90
     1152
280
     0
281
     0
  0
CLASS
  1
DIMASSOC
  2
AcDbDimAssoc
  3
"AcDbDimAssoc|Product Desc:     AcDim ARX App For Dimension|Company:          Autodesk, Inc.|WEB Address:      www.autodesk.com"
 90
        0
280
     0
281
     0
  0
CLASS
  1
ACMSTANDARDISO
  2
AcmStandardISO
  3
"Amdt_StdImp|Product Description: AutoCAD Mechanical|Company: Autodesk, Inc."
 90
     1024
280
     0
281
     0
  0
CLASS
  1
AMDTEDGESTANDARDISO13715
  2
AmdtEdgeStdISO13715
  3
"Amdt_StdImp|Product Description: AutoCAD Mechanical|Company: Autodesk, Inc."
 90
     1024
280
     0
281
     0
  0
CLASS
  1
ACMSURFSTANDARDISO2002
  2
AcmSurfTextStdISO2002
  3
"Amdt_StdImp|Product Description: AutoCAD Mechanical|Company: Autodesk, Inc."
 90
     1024
280
     0
281
     0
  0
CLASS
  1
ACMFCFSTANDARDISO2004
  2
AcmFCFStdISO2004
  3
"Amdt_StdImp|Product Description: AutoCAD Mechanical|Company: Autodesk, Inc."
 90
    33792
280
     0
281
     0
  0
CLASS
  1
ACMWELDSTANDARDISO
  2
AcmWeldingStdISO
  3
"Amdt_StdImp|Product Description: AutoCAD Mechanical|Company: Autodesk, Inc."
 90
     1024
280
     0
281
     0
  0
CLASS
  1
ACMIDSTANDARDISO2004
  2
AcmIdStdISO2004
  3
"Amdt_StdImp|Product Description: AutoCAD Mechanical|Company: Autodesk, Inc."
 90
    33792
280
     0
281
     0
  0
CLASS
  1
ACMDATUMSTANDARDISO
  2
AcmDatumStdISO
  3
"Amdt_StdImp|Product Description: AutoCAD Mechanical|Company: Autodesk, Inc."
 90
    33792
280
     0
281
     0
  0
CLASS
  1
ACMBOMSTANDARDISO
  2
AcmBOMStdISO
  3
"Amdt_StdImp|Product Description: AutoCAD Mechanical|Company: Autodesk, Inc."
 90
     1024
280
     0
281
     0
  0
CLASS
  1
ACMDETAILSTANDARDISO
  2
AmdtDetailSymStdISO
  3
"Amdt_StdImp|Product Description: AutoCAD Mechanical|Company: Autodesk, Inc."
 90
     1024
280
     0
281
     0
  0
CLASS
  1
ACMSECTIONSTANDARDISO2001
  2
AmdtSectionSymStdISO2001
  3
"Amdt_StdImp|Product Description: AutoCAD Mechanical|Company: Autodesk, Inc."
 90
     1024
280
     0
281
     0
  0
CLASS
  1
ACMCENTERLINESTANDARDISO
  2
AmdtCenterLineStdISO
  3
"Amdt_StdImp|Product Description: AutoCAD Mechanical|Company: Autodesk, Inc."
 90
     1024
280
     0
281
     0
  0
CLASS
  1
ACMTHREADLINESTANDARDISO
  2
AmdtThreadLineStdISO
  3
"Amdt_StdImp|Product Description: AutoCAD Mechanical|Company: Autodesk, Inc."
 90
     1024
280
     0
281
     0
  0
CLASS
  1
ACMNOTESTANDARDISO
  2
AmdtNoteStdISO
  3
"Amdt_StdImp|Product Description: AutoCAD Mechanical|Company: Autodesk, Inc."
 90
     1024
280
     0
281
     0
  0
CLASS
  1
ACMTAPERSTANDARDISO
  2
AcmTaperStdISO
  3
"Amdt_StdImp|Product Description: AutoCAD Mechanical|Company: Autodesk, Inc."
 90
     1024
280
     0
281
     0
  0
CLASS
  1
ACMANOOTATIONVIEWSTANDARDISO
  2
AmdtAnViewStdISO
  3
"Amdt_StdImp|Product Description: AutoCAD Mechanical|Company: Autodesk, Inc."
 90
     1024
280
     0
281
     0
  0
CLASS
  1
ACAMGHOLECHARTSTDISO
  2
AcAmgHoleChartStdISO
  3
"AmgDim" "Product Description: AutoCAD Mechanical|Company: Autodesk, Inc."
 90
     1024
280
     0
281
     0
  0
CLASS
  1
ACMFCFSTANDARDISO2012
  2
AcmFCFStdISO2012
  3
"Amdt_StdImp|Product Description: AutoCAD Mechanical|Company: Autodesk, Inc."
 90
     1024
280
     0
281
     0
  0
CLASS
  1
ACMIDSTANDARDISO2012
  2
AcmIdStdISO2012
  3
"Amdt_StdImp|Product Description: AutoCAD Mechanical|Company: Autodesk, Inc."
 90
     1024
280
     0
281
     0
  0
CLASS
  1
ACMDATUMSTANDARDISO2012
  2
AcmDatumStdISO2012
  3
"Amdt_StdImp|Product Description: AutoCAD Mechanical|Company: Autodesk, Inc."
 90
     1024
280
     0
281
     0
  0
ENDSEC
  0
SECTION
  2
TABLES
  0
TABLE
  2
VPORT
  5
8
102
{ACAD_XDICTIONARY
360
A45
102
}
330
0
100
AcDbSymbolTable
 70
     1
  0
VPORT
  5
AD1
330
8
100
AcDbSymbolTableRecord
100
AcDbViewportTableRecord
  2
*Active
 70
     0
 10
0.0
 20
0.0
 11
1.0
 21
1.0
 12
33.1223235221374
 22
41.1124430132477
 13
0.0
 23
0.0
 14
5.0
 24
5.0
 15
5.0
 25
5.0
 16
0.0
 26
0.0
 36
1.0
 17
0.0
 27
0.0
 37
0.0
 40
170.9372531215982
 41
2.305925030229746
 42
50.0
 43
0.0
 44
0.0
 50
0.0
 51
0.0
 71
     0
 72
  2000
 73
     1
 74
     3
 75
     0
 76
     0
 77
     0
 78
     0
281
     0
 65
     0
110
0.0
120
0.0
130
0.0
111
1.0
121
0.0
131
0.0
112
0.0
122
1.0
132
0.0
 79
     0
146
0.0
1001
ACAD_NAV_VCDISPLAY
1070
     3
  0
ENDTAB
  0
TABLE
  2
LTYPE
  5
5
330
0
100
AcDbSymbolTable
 70
    19
  0
LTYPE
  5
12
330
5
100
AcDbSymbolTableRecord
100
AcDbLinetypeTableRecord
  2
BYBLOCK
 70
     0
  3

 72
    65
 73
     0
 40
0.0
  0
LTYPE
  5
13
330
5
100
AcDbSymbolTableRecord
100
AcDbLinetypeTableRecord
  2
BYLAYER
 70
     0
  3

 72
    65
 73
     0
 40
0.0
  0
LTYPE
  5
19FD
330
5
100
AcDbSymbolTableRecord
100
AcDbLinetypeTableRecord
  2
Continuous
 70
     0
  3
Solid line
 72
    65
 73
     0
 40
0.0
  0
LTYPE
  5
4EF
330
5
100
AcDbSymbolTableRecord
100
AcDbLinetypeTableRecord
  2
ACDINWELD
 70
     0
  3
_ _ _ _ _
 72
    65
 73
     2
 40
2.0
 49
2.0
 74
     0
 49
-1.0
 74
     0
  0
LTYPE
  5
4F0
330
5
100
AcDbSymbolTableRecord
100
AcDbLinetypeTableRecord
  2
ACDINTGB
 70
     0
  3
__ . . __ . .
 72
    65
 73
     6
 40
9.0
 49
4.0
 74
     0
 49
-1.0
 74
     0
 49
1.0
 74
     0
 49
-1.0
 74
     0
 49
1.0
 74
     0
 49
-1.0
 74
     0
  0
LTYPE
  5
4F1
330
5
100
AcDbSymbolTableRecord
100
AcDbLinetypeTableRecord
  2
ACDINTGL
 70
     0
  3
_ _ _ _ _
 72
    65
 73
     2
 40
3.0
 49
2.0
 74
     0
 49
-1.0
 74
     0
  0
LTYPE
  5
916
330
5
100
AcDbSymbolTableRecord
100
AcDbLinetypeTableRecord
  2
LONGDASH_DASH
 70
     0
  3
ISO center line ____ _ ____ _ ____ _ ____ _ ___ _ ___
 72
    65
 73
     4
 40
10.5
 49
6.0
 74
     0
 49
-0.75
 74
     0
 49
3.0
 74
     0
 49
-0.75
 74
     0
  0
LTYPE
  5
917
330
5
100
AcDbSymbolTableRecord
100
AcDbLinetypeTableRecord
  2
DASH
 70
     0
  3
ISO hidden line __ __ __ __ __ __ __ __ __ __ __ __ __
 72
    65
 73
     2
 40
3.75
 49
3.0
 74
     0
 49
-0.75
 74
     0
  0
LTYPE
  5
CFA
330
5
100
AcDbSymbolTableRecord
100
AcDbLinetypeTableRecord
  2
HIDDEN
 70
     0
  3
Hidden __ __ __ __ __ __ __ __ __ __ __ __ __ _
 72
    65
 73
     2
 40
9.524999999999996
 49
6.349999999999997
 74
     0
 49
-3.174999999999998
 74
     0
  0
LTYPE
  5
CFB
330
5
100
AcDbSymbolTableRecord
100
AcDbLinetypeTableRecord
  2
PHANTOM2
 70
     0
  3
Phantom (.5x) ___ _ _ ___ _ _ ___ _ _ ___ _ _
 72
    65
 73
     6
 40
31.75
 49
15.875
 74
     0
 49
-3.174999999999998
 74
     0
 49
3.174999999999998
 74
     0
 49
-3.174999999999998
 74
     0
 49
3.174999999999998
 74
     0
 49
-3.174999999999998
 74
     0
  0
LTYPE
  5
CFC
330
5
100
AcDbSymbolTableRecord
100
AcDbLinetypeTableRecord
  2
CENTER
 70
     0
  3
Center ____ _ ____ _ ____ _ ____ _ ____ _ ____
 72
    65
 73
     4
 40
50.8
 49
31.75
 74
     0
 49
-6.349999999999997
 74
     0
 49
6.349999999999997
 74
     0
 49
-6.349999999999997
 74
     0
  0
LTYPE
  5
ED7
330
5
100
AcDbSymbolTableRecord
100
AcDbLinetypeTableRecord
  2
ACISOWELD
 70
     0
  3
_ _ _ _ _
 72
    65
 73
     2
 40
2.0
 49
2.0
 74
     0
 49
-1.0
 74
     0
  0
LTYPE
  5
ED8
330
5
100
AcDbSymbolTableRecord
100
AcDbLinetypeTableRecord
  2
ACISOTGL
 70
     0
  3
_ _ _ _ _
 72
    65
 73
     2
 40
3.0
 49
2.0
 74
     0
 49
-1.0
 74
     0
  0
LTYPE
  5
ED9
330
5
100
AcDbSymbolTableRecord
100
AcDbLinetypeTableRecord
  2
ACISOTGB
 70
     0
  3
__ . . __ . .
 72
    65
 73
     6
 40
9.0
 49
4.0
 74
     0
 49
-1.0
 74
     0
 49
1.0
 74
     0
 49
-1.0
 74
     0
 49
1.0
 74
     0
 49
-1.0
 74
     0
  0
LTYPE
  5
1AF3
330
5
100
AcDbSymbolTableRecord
100
AcDbLinetypeTableRecord
  2
AM_ISO02W050
 70
     0
  3
__ __ __ __ __ __ __ __ __ __ __ __ __ __ __
 72
    65
 73
     2
 40
7.5
 49
6.0
 74
     0
 49
-1.5
 74
     0
  0
LTYPE
  5
1AF4
330
5
100
AcDbSymbolTableRecord
100
AcDbLinetypeTableRecord
  2
AM_ISO08W050
 70
     0
  3
____ . ____ . ____ . ____ . ____ . ____ . ____
 72
    65
 73
     4
 40
18.0
 49
12.0
 74
     0
 49
-1.5
 74
     0
 49
3.0
 74
     0
 49
-1.5
 74
     0
  0
LTYPE
  5
1AF5
330
5
100
AcDbSymbolTableRecord
100
AcDbLinetypeTableRecord
  2
AM_ISO09W050
 70
     0
  3
_____ . . _____ . . _____ . . ____ .. ____
 72
    65
 73
     6
 40
22.5
 49
12.0
 74
     0
 49
-1.5
 74
     0
 49
3.0
 74
     0
 49
-1.5
 74
     0
 49
3.0
 74
     0
 49
-1.5
 74
     0
  0
LTYPE
  5
1AF6
330
5
100
AcDbSymbolTableRecord
100
AcDbLinetypeTableRecord
  2
Amconstr
 70
     0
  3
_______________________
 72
    65
 73
     2
 40
9999.0
 49
9999.0
 74
     0
 49
0.0
 74
     0
  0
LTYPE
  5
1AF7
330
5
100
AcDbSymbolTableRecord
100
AcDbLinetypeTableRecord
  2
AM_ISO08W050x2
 70
     0
  3
__ . __ . __ . __ . __ . __
 72
    65
 73
     4
 40
9.0
 49
6.0
 74
     0
 49
-0.75
 74
     0
 49
1.5
 74
     0
 49
-0.75
 74
     0
  0
LTYPE
  5
1AF8
330
5
100
AcDbSymbolTableRecord
100
AcDbLinetypeTableRecord
  2
AM_ISO02W050x2
 70
     0
  3
 _ _ _ _ _ _ _ _ _ _ _ _
 72
    65
 73
     2
 40
3.75
 49
3.0
 74
     0
 49
-0.75
 74
     0
  0
LTYPE
  5
1AFB
330
5
100
AcDbSymbolTableRecord
100
AcDbLinetypeTableRecord
  2
Amzigzag
 70
     0
  3
/\/-/\/-/\/-/\/-/\/-/\/
 72
    65
 73
     2
 40
11.0001
 49
0.0001
 74
     4
 75
   136
340
1AFA
 46
0.04
 50
0.0
 44
0.0
 45
0.0
 49
-11.0
 74
     0
  0
ENDTAB
  0
TABLE
  2
LAYER
  5
2
102
{ACAD_XDICTIONARY
360
43C
102
}
330
0
100
AcDbSymbolTable
 70
    11
  0
LAYER
  5
F
102
{ACAD_XDICTIONARY
360
52D
102
}
330
2
100
AcDbSymbolTableRecord
100
AcDbLayerTableRecord
  2
0
 70
     0
 62
     7
  6
Continuous
290
     0
370
    -3
390
300
  0
LAYER
  5
23
102
{ACAD_XDICTIONARY
360
52F
102
}
330
2
100
AcDbSymbolTableRecord
100
AcDbLayerTableRecord
  2
1
 70
     0
 62
     4
  6
Continuous
370
    50
390
300
  0
LAYER
  5
24
102
{ACAD_XDICTIONARY
360
531
102
}
330
2
100
AcDbSymbolTableRecord
100
AcDbLayerTableRecord
  2
SK1
 70
     0
 62
     4
  6
Continuous
370
    50
390
300
  0
LAYER
  5
25
102
{ACAD_XDICTIONARY
360
533
102
}
330
2
100
AcDbSymbolTableRecord
100
AcDbLayerTableRecord
  2
2
 70
     0
 62
     7
  6
Continuous
370
    25
390
300
  0
LAYER
  5
27
102
{ACAD_XDICTIONARY
360
537
102
}
330
2
100
AcDbSymbolTableRecord
100
AcDbLayerTableRecord
  2
SK2
 70
     0
 62
     7
  6
Continuous
370
    25
390
300
  0
LAYER
  5
29
102
{ACAD_XDICTIONARY
360
53B
102
}
330
2
100
AcDbSymbolTableRecord
100
AcDbLayerTableRecord
  2
SK3
 70
     0
 62
     1
  6
DASH
370
    35
390
300
  0
LAYER
  5
2A
102
{ACAD_XDICTIONARY
360
53D
102
}
330
2
100
AcDbSymbolTableRecord
100
AcDbLayerTableRecord
  2
4
 70
     0
 62
     2
  6
LONGDASH_DASH
370
    25
390
300
  0
LAYER
  5
2B
102
{ACAD_XDICTIONARY
360
53F
102
}
330
2
100
AcDbSymbolTableRecord
100
AcDbLayerTableRecord
  2
SK4
 70
     0
 62
     2
  6
LONGDASH_DASH
370
    25
390
300
  0
LAYER
  5
2E
102
{ACAD_XDICTIONARY
360
545
102
}
330
2
100
AcDbSymbolTableRecord
100
AcDbLayerTableRecord
  2
SK6
 70
     0
 62
     5
  6
Continuous
370
    35
390
300
  0
LAYER
  5
2F
330
2
100
AcDbSymbolTableRecord
100
AcDbLayerTableRecord
  2
DEFPOINTS
 70
     0
 62
     7
  6
Continuous
290
     0
370
    -3
390
300
  0
LAYER
  5
EB5
102
{ACAD_XDICTIONARY
360
199D
102
}
330
2
100
AcDbSymbolTableRecord
100
AcDbLayerTableRecord
  2
NOCUT
 70
     0
 62
     7
  6
Continuous
370
    25
390
300
1001
AcAecLayerStandard
1000

1000

  0
ENDTAB
  0
TABLE
  2
STYLE
  5
3
330
0
100
AcDbSymbolTable
 70
     9
  0
STYLE
  5
10
330
3
100
AcDbSymbolTableRecord
100
AcDbTextStyleTableRecord
  2
STANDARD
 70
     0
 40
0.0
 41
1.0
 50
0.0
 71
     0
 42
5.0
  3
monos.ttf
  4

1001
ACAD
1000
Monospac821 BT
1071
       49
  0
STYLE
  5
1E
330
3
100
AcDbSymbolTableRecord
100
AcDbTextStyleTableRecord
  2
STANDARD 5 mm
 70
     0
 40
5.0
 41
1.0
 50
0.0
 71
     0
 42
3.5
  3
monos.ttf
  4

1001
ACAD
1000
Monospac821 BT
1071
       49
  0
STYLE
  5
4DF
330
3
100
AcDbSymbolTableRecord
100
AcDbTextStyleTableRecord
  2
ACDINTS
 70
     0
 40
1.0
 41
1.0
 50
0.0
 71
     0
 42
3.5
  3
monos.ttf
  4

1001
ACAD
1000
Monospac821 BT
1071
       49
  0
STYLE
  5
4EE
330
3
100
AcDbSymbolTableRecord
100
AcDbTextStyleTableRecord
  2
ACDINGDT
 70
     0
 40
0.0
 41
1.0
 50
0.0
 71
     0
 42
3.5
  3
monos.ttf
  4

1001
ACAD
1000
Monospac821 BT
1071
       49
  0
STYLE
  5
7DE
330
3
100
AcDbSymbolTableRecord
100
AcDbTextStyleTableRecord
  2
STANDARD 3.5 mm
 70
     0
 40
3.5
 41
1.0
 50
0.0
 71
     0
 42
3.5
  3
monos.ttf
  4

1001
ACAD
1000
Monospac821 BT
1071
       49
  0
STYLE
  5
E90
330
3
100
AcDbSymbolTableRecord
100
AcDbTextStyleTableRecord
  2
USER1
 70
     0
 40
0.0
 41
1.0
 50
0.0
 71
     0
 42
5.0
  3
TXT.SHX
  4

  0
STYLE
  5
EDA
330
3
100
AcDbSymbolTableRecord
100
AcDbTextStyleTableRecord
  2
ACISOGDT
 70
     0
 40
0.0
 41
1.0
 50
0.0
 71
     0
 42
0.2
  3
amgdt.shx
  4

  0
STYLE
  5
1A46
330
3
100
AcDbSymbolTableRecord
100
AcDbTextStyleTableRecord
  2
ACISOTS
 70
     0
 40
0.0
 41
1.0
 50
0.0
 71
     0
 42
5.0
  3
isocp.shx
  4

  0
STYLE
  5
1AFA
330
3
100
AcDbSymbolTableRecord
100
AcDbTextStyleTableRecord
  2

 70
     1
 40
0.0
 41
1.0
 50
0.0
 71
     0
 42
5.0
  3
genltshp.shx
  4

  0
ENDTAB
  0
TABLE
  2
VIEW
  5
6
330
0
100
AcDbSymbolTable
 70
     6
  0
VIEW
  5
758
330
6
100
AcDbSymbolTableRecord
100
AcDbViewTableRecord
  2
AM_VIEW1
 70
     1
 40
148.5265045166015
 10
121.0318359737553
 20
219.614756822586
 41
248.4136475334483
 11
0.0
 21
0.0
 31
1.0
 12
0.0
 22
0.0
 32
0.0
 42
50.0
 43
0.0
 44
0.0
 50
0.0
 71
     0
281
     0
 72
     0
  0
VIEW
  5
759
330
6
100
AcDbSymbolTableRecord
100
AcDbViewTableRecord
  2
AM_VIEW2
 70
     1
 40
148.5265045166015
 10
292.4378600711665
 20
219.614756822586
 41
248.4136475334483
 11
0.0
 21
0.0
 31
1.0
 12
0.0
 22
0.0
 32
0.0
 42
50.0
 43
0.0
 44
0.0
 50
0.0
 71
     0
281
     0
 72
     0
  0
VIEW
  5
75A
330
6
100
AcDbSymbolTableRecord
100
AcDbViewTableRecord
  2
AM_VIEW3
 70
     1
 40
148.5265045166015
 10
121.0318359737553
 20
71.0882523059845
 41
248.4136475334483
 11
0.0
 21
0.0
 31
1.0
 12
0.0
 22
0.0
 32
0.0
 42
50.0
 43
0.0
 44
0.0
 50
0.0
 71
     0
281
     0
 72
     0
  0
VIEW
  5
75B
330
6
100
AcDbSymbolTableRecord
100
AcDbViewTableRecord
  2
AM_VIEW4
 70
     1
 40
148.5265045166015
 10
292.4378600711665
 20
71.0882523059845
 41
248.4136475334483
 11
0.0
 21
0.0
 31
1.0
 12
0.0
 22
0.0
 32
0.0
 42
50.0
 43
0.0
 44
0.0
 50
0.0
 71
     0
281
     0
 72
     0
  0
VIEW
  5
75C
330
6
100
AcDbSymbolTableRecord
100
AcDbViewTableRecord
  2
AM_VIEW5
 70
     1
 40
148.5265045166015
 10
206.7348480224609
 20
145.3515045642852
 41
248.4136475334483
 11
0.0
 21
0.0
 31
1.0
 12
0.0
 22
0.0
 32
0.0
 42
50.0
 43
0.0
 44
0.0
 50
0.0
 71
     0
281
     0
 72
     0
  0
VIEW
  5
75D
330
6
100
AcDbSymbolTableRecord
100
AcDbViewTableRecord
  2
AM_VIEW6
 70
     1
 40
297.0500385031128
 10
206.7348480224609
 20
145.3515045642852
 41
496.8223267939458
 11
0.0
 21
0.0
 31
1.0
 12
0.0
 22
0.0
 32
0.0
 42
50.0
 43
0.0
 44
0.0
 50
0.0
 71
     0
281
     0
 72
     0
  0
ENDTAB
  0
TABLE
  2
UCS
  5
7
330
0
100
AcDbSymbolTable
 70
     0
  0
ENDTAB
  0
TABLE
  2
APPID
  5
9
330
0
100
AcDbSymbolTable
 70
    41
  0
APPID
  5
11
330
9
100
AcDbSymbolTableRecord
100
AcDbRegAppTableRecord
  2
ACAD
 70
     0
  0
APPID
  5
3A6
330
9
100
AcDbSymbolTableRecord
100
AcDbRegAppTableRecord
  2
ACAD_PSEXT
 70
     0
  0
APPID
  5
3A8
330
9
100
AcDbSymbolTableRecord
100
AcDbRegAppTableRecord
  2
ACAD_EXEMPT_FROM_CAD_STANDARDS
 70
     0
  0
APPID
  5
433
330
9
100
AcDbSymbolTableRecord
100
AcDbRegAppTableRecord
  2
AcAecLayerStandard
 70
     0
  0
APPID
  5
471
330
9
100
AcDbSymbolTableRecord
100
AcDbRegAppTableRecord
  2
ACAD_MLEADERVER
 70
     0
  0
APPID
  5
47D
330
9
100
AcDbSymbolTableRecord
100
AcDbRegAppTableRecord
  2
MCAD_NO_VIS
 70
     0
  0
APPID
  5
47E
330
9
100
AcDbSymbolTableRecord
100
AcDbRegAppTableRecord
  2
ACAD_TEMP_GRAPHIC
 70
     0
  0
APPID
  5
4AC
330
9
100
AcDbSymbolTableRecord
100
AcDbRegAppTableRecord
  2
AD_DRAW
 70
     0
  0
APPID
  5
4AF
330
9
100
AcDbSymbolTableRecord
100
AcDbRegAppTableRecord
  2
ACATTRIBSERVICES
 70
     0
  0
APPID
  5
4D0
330
9
100
AcDbSymbolTableRecord
100
AcDbRegAppTableRecord
  2
DESIGNERASSEMBLIES
 70
     0
  0
APPID
  5
4D6
330
9
100
AcDbSymbolTableRecord
100
AcDbRegAppTableRecord
  2
ACADM_DIM_EDIT
 70
     0
  0
APPID
  5
4D7
330
9
100
AcDbSymbolTableRecord
100
AcDbRegAppTableRecord
  2
AMDT_DM_ADJ
 70
     0
  0
APPID
  5
5CD
330
9
100
AcDbSymbolTableRecord
100
AcDbRegAppTableRecord
  2
AcDbAttr
 70
     0
  0
APPID
  5
5CE
330
9
100
AcDbSymbolTableRecord
100
AcDbRegAppTableRecord
  2
ACAUTHENVIRON
 70
     0
  0
APPID
  5
5CF
330
9
100
AcDbSymbolTableRecord
100
AcDbRegAppTableRecord
  2
AcDbDynamicBlockTrueName
 70
     0
  0
APPID
  5
5D0
330
9
100
AcDbSymbolTableRecord
100
AcDbRegAppTableRecord
  2
ACDBBLOCKREPETAG
 70
     0
  0
APPID
  5
723
330
9
100
AcDbSymbolTableRecord
100
AcDbRegAppTableRecord
  2
GENIUS_GENTRA_14
 70
     0
  0
APPID
  5
752
330
9
100
AcDbSymbolTableRecord
100
AcDbRegAppTableRecord
  2
GENIUS_GENOENT_13
 70
     0
  0
APPID
  5
753
330
9
100
AcDbSymbolTableRecord
100
AcDbRegAppTableRecord
  2
GENIUS_GENOBJ-N-TIT_13
 70
     0
  0
APPID
  5
754
330
9
100
AcDbSymbolTableRecord
100
AcDbRegAppTableRecord
  2
GENIUS_GENODEF_13
 70
     0
  0
APPID
  5
755
330
9
100
AcDbSymbolTableRecord
100
AcDbRegAppTableRecord
  2
GENIUS_GENOLIS_13
 70
     0
  0
APPID
  5
756
330
9
100
AcDbSymbolTableRecord
100
AcDbRegAppTableRecord
  2
GENIUS_GENTITLE_13
 70
     0
  0
APPID
  5
757
330
9
100
AcDbSymbolTableRecord
100
AcDbRegAppTableRecord
  2
GENIUS_GENOREF_13
 70
     0
  0
APPID
  5
75E
330
9
100
AcDbSymbolTableRecord
100
AcDbRegAppTableRecord
  2
GENIUS_GENSCREG_15
 70
     0
  0
APPID
  5
75F
330
9
100
AcDbSymbolTableRecord
100
AcDbRegAppTableRecord
  2
GENIUS_GENOBJ-N-SDF_13
 70
     0
  0
APPID
  5
7BE
330
9
100
AcDbSymbolTableRecord
100
AcDbRegAppTableRecord
  2
AcadAnnoPO
 70
     0
  0
APPID
  5
7BF
330
9
100
AcDbSymbolTableRecord
100
AcDbRegAppTableRecord
  2
ACAD_DSTYLE_DIMJAG
 70
     0
  0
APPID
  5
7C0
330
9
100
AcDbSymbolTableRecord
100
AcDbRegAppTableRecord
  2
ACAD_DSTYLE_DIMTALN
 70
     0
  0
APPID
  5
A53
330
9
100
AcDbSymbolTableRecord
100
AcDbRegAppTableRecord
  2
ACAD_DSTYLE_DIMARC_LENGTH_SYMBOL
 70
     0
  0
APPID
  5
A65
330
9
100
AcDbSymbolTableRecord
100
AcDbRegAppTableRecord
  2
ACAD_DSTYLE_DIMJOGGED_JOGANGLE_SYMBOL
 70
     0
  0
APPID
  5
CCE
330
9
100
AcDbSymbolTableRecord
100
AcDbRegAppTableRecord
  2
ACAD_DSTYLE_DIMBREAK
 70
     0
  0
APPID
  5
D24
330
9
100
AcDbSymbolTableRecord
100
AcDbRegAppTableRecord
  2
ACAD_NAV_VCDISPLAY
 70
     0
  0
APPID
  5
D4A
330
9
100
AcDbSymbolTableRecord
100
AcDbRegAppTableRecord
  2
GENIUS_GENREC_14
 70
     0
  0
APPID
  5
D4B
330
9
100
AcDbSymbolTableRecord
100
AcDbRegAppTableRecord
  2
GENIUS_GENOBJ-N-REC_13
 70
     0
  0
APPID
  5
DC9
330
9
100
AcDbSymbolTableRecord
100
AcDbRegAppTableRecord
  2
ACAD_DSTYLE_DIMRADIAL_EXTENSION
 70
     0
  0
APPID
  5
1451
330
9
100
AcDbSymbolTableRecord
100
AcDbRegAppTableRecord
  2
ACAD_DSTYLE_DIMINSPECT
 70
     0
  0
APPID
  5
180A
330
9
100
AcDbSymbolTableRecord
100
AcDbRegAppTableRecord
  2
GENIUS_GENDTOL_13
 70
     0
  0
APPID
  5
1873
330
9
100
AcDbSymbolTableRecord
100
AcDbRegAppTableRecord
  2
ACAD_DSTYLE_DIMANGULAR_EXTENSION
 70
     0
  0
APPID
  5
19F6
330
9
100
AcDbSymbolTableRecord
100
AcDbRegAppTableRecord
  2
ACAD_DSTYLE_DIM_LINETYPE
 70
     0
  0
APPID
  5
19F7
330
9
100
AcDbSymbolTableRecord
100
AcDbRegAppTableRecord
  2
ACAD_DSTYLE_DIM_EXT1_LINETYPE
 70
     0
  0
APPID
  5
19F8
330
9
100
AcDbSymbolTableRecord
100
AcDbRegAppTableRecord
  2
ACAD_DSTYLE_DIM_EXT2_LINETYPE
 70
     0
  0
ENDTAB
  0
TABLE
  2
DIMSTYLE
  5
A
330
0
100
AcDbSymbolTable
 70
    17
100
AcDbDimStyleTable
 71
     4
340
4FC
340
3F
340
501
340
506
  0
DIMSTYLE
105
3F
330
A
100
AcDbSymbolTableRecord
100
AcDbDimStyleTableRecord
  2
STANDARD
 70
     0
 41
5.0
 42
1.0
 43
15.0
 44
2.0
 48
0.000000001
 73
     0
 74
     0
 77
     1
 78
     9
 79
     2
140
3.5
143
0.0393700787401575
147
2.299999999999998
171
     3
172
     1
271
     2
272
     2
273
     3
274
     3
284
     8
285
    11
286
     8
340
7DE
1001
ACAD_DSTYLE_DIMJAG
1070
   388
1040
1.5
1001
ACAD_DSTYLE_DIMTALN
1070
   392
1070
     0
1001
ACAD_DSTYLE_DIMARC_LENGTH_SYMBOL
1070
   379
1070
     1
1001
ACAD_DSTYLE_DIMJOGGED_JOGANGLE_SYMBOL
1070
   384
1040
1.570796326794896
  0
DIMSTYLE
105
4FC
102
{ACAD_REACTORS
330
1605
330
1604
330
1601
330
1600
330
15F4
330
1843
330
15FD
330
15FC
330
15F9
330
17F2
102
}
330
A
100
AcDbSymbolTableRecord
100
AcDbDimStyleTableRecord
  2
AM_DIN
 70
     0
 41
2.5
 42
1.0
 43
15.0
 44
2.0
 48
0.000000001
 73
     0
 74
     0
 77
     1
 78
     8
 79
     2
140
3.5
143
0.0393701
146
0.7071069999999999
147
1.0
171
     3
172
     1
271
     2
272
     2
273
     3
274
     3
284
     8
285
    11
286
     8
340
7DE
371
    -1
372
    -1
1001
ACAD_DSTYLE_DIMJAG
1070
   388
1040
1.5
1001
ACAD_DSTYLE_DIMTALN
1070
   392
1070
     0
1001
ACAD_DSTYLE_DIMARC_LENGTH_SYMBOL
1070
   379
1070
     1
1001
ACAD_DSTYLE_DIMJOGGED_JOGANGLE_SYMBOL
1070
   384
1040
1.570796326794896
  0
DIMSTYLE
105
4FD
330
A
100
AcDbSymbolTableRecord
100
AcDbDimStyleTableRecord
  2
AM_DIN$3
 70
     0
 41
2.5
 42
1.0
 43
10.0
 44
2.0
 48
0.000000001
 73
     0
 77
     1
 78
     8
 79
     2
140
3.5
143
0.0393701
146
0.7071069999999999
147
1.0
171
     3
271
     2
272
     3
273
     3
274
     4
284
     8
285
    11
286
     8
288
     1
289
     0
340
7DE
371
    -1
372
    -1
1001
ACAD_DSTYLE_DIMBREAK
1070
   391
1040
3.75
1001
ACAD_DSTYLE_DIMJAG
1070
   388
1040
1.5
1001
ACAD_DSTYLE_DIMTALN
1070
   392
1070
     0
1001
ACAD_DSTYLE_DIMARC_LENGTH_SYMBOL
1070
   379
1070
     1
1001
ACAD_DSTYLE_DIMJOGGED_JOGANGLE_SYMBOL
1070
   384
1040
1.570796326794896
  0
DIMSTYLE
105
4FE
330
A
100
AcDbSymbolTableRecord
100
AcDbDimStyleTableRecord
  2
AM_DIN$4
 70
     0
 41
2.5
 42
1.0
 43
10.0
 44
2.0
 48
0.000000001
 73
     0
 77
     1
 78
     8
 79
     2
140
3.5
143
0.0393701
146
0.7071069999999999
147
1.0
171
     3
271
     2
272
     3
273
     3
274
     4
284
     8
285
    11
286
     8
288
     1
289
     0
340
7DE
371
    -1
372
    -1
1001
ACAD_DSTYLE_DIMBREAK
1070
   391
1040
3.75
1001
ACAD_DSTYLE_DIMJAG
1070
   388
1040
1.5
1001
ACAD_DSTYLE_DIMTALN
1070
   392
1070
     0
1001
ACAD_DSTYLE_DIMARC_LENGTH_SYMBOL
1070
   379
1070
     1
1001
ACAD_DSTYLE_DIMJOGGED_JOGANGLE_SYMBOL
1070
   384
1040
1.570796326794896
  0
DIMSTYLE
105
4FF
330
A
100
AcDbSymbolTableRecord
100
AcDbDimStyleTableRecord
  2
AM_DIN$6
 70
     0
 41
2.5
 42
1.0
 43
10.0
 44
2.0
 48
0.000000001
 73
     0
 74
     0
 78
     8
 79
     2
140
3.5
143
0.0393701
146
0.7071069999999999
147
1.0
171
     3
172
     1
271
     2
272
     2
273
     3
274
     3
284
     8
285
    11
286
     8
340
7DE
371
    -1
372
    -1
1001
ACAD_DSTYLE_DIMBREAK
1070
   391
1040
3.75
1001
ACAD_DSTYLE_DIMJAG
1070
   388
1040
1.5
1001
ACAD_DSTYLE_DIMTALN
1070
   392
1070
     0
1001
ACAD_DSTYLE_DIMARC_LENGTH_SYMBOL
1070
   379
1070
     1
1001
ACAD_DSTYLE_DIMJOGGED_JOGANGLE_SYMBOL
1070
   384
1040
1.570796326794896
  0
DIMSTYLE
105
500
330
A
100
AcDbSymbolTableRecord
100
AcDbDimStyleTableRecord
  2
AM_DIN$7
 70
     0
 41
2.5
 42
1.0
 43
10.0
 44
2.0
 48
0.000000001
 73
     0
 74
     0
 77
     1
 78
     8
 79
     2
140
5.0
143
0.0393701
146
0.7071069999999999
147
1.0
171
     3
172
     1
271
     2
272
     3
273
     3
274
     4
284
     8
285
    11
286
     8
340
7DE
371
    -1
372
    -1
1001
ACAD_DSTYLE_DIMBREAK
1070
   391
1040
3.75
1001
ACAD_DSTYLE_DIMJAG
1070
   388
1040
1.5
1001
ACAD_DSTYLE_DIMTALN
1070
   392
1070
     0
1001
ACAD_DSTYLE_DIMARC_LENGTH_SYMBOL
1070
   379
1070
     1
1001
ACAD_DSTYLE_DIMJOGGED_JOGANGLE_SYMBOL
1070
   384
1040
1.570796326794896
  0
DIMSTYLE
105
501
330
A
100
AcDbSymbolTableRecord
100
AcDbDimStyleTableRecord
  2
AM_DIN$SF
 70
     0
 41
2.5
 42
1.0
 43
10.0
 44
2.0
 48
0.000000001
 73
     0
 74
     0
 75
     1
 76
     1
 77
     1
 78
     8
 79
     2
140
3.5
143
0.0393701
146
0.7071069999999999
147
1.0
171
     3
172
     1
271
     2
272
     2
273
     3
274
     3
284
     8
285
    11
286
     8
340
7DE
371
    -1
372
    -1
1001
ACAD_DSTYLE_DIMBREAK
1070
   391
1040
3.75
1001
ACAD_DSTYLE_DIMJAG
1070
   388
1040
1.5
1001
ACAD_DSTYLE_DIMTALN
1070
   392
1070
     0
1001
ACAD_DSTYLE_DIMARC_LENGTH_SYMBOL
1070
   379
1070
     1
1001
ACAD_DSTYLE_DIMJOGGED_JOGANGLE_SYMBOL
1070
   384
1040
1.570796326794896
  0
DIMSTYLE
105
506
330
A
100
AcDbSymbolTableRecord
100
AcDbDimStyleTableRecord
  2
AM_DIN$SH
 70
     0
 41
2.5
 42
1.0
 43
10.0
 44
2.0
 48
0.000000001
 73
     0
 74
     0
 75
     1
 76
     1
 77
     1
 78
     8
 79
     2
140
3.5
143
0.0393701
144
2.0
146
0.7071069999999999
147
1.0
171
     3
172
     1
271
     2
272
     2
273
     3
274
     3
284
     8
285
    11
286
     8
340
7DE
371
    -1
372
    -1
1001
ACAD_DSTYLE_DIMBREAK
1070
   391
1040
3.75
1001
ACAD_DSTYLE_DIMJAG
1070
   388
1040
1.5
1001
ACAD_DSTYLE_DIMTALN
1070
   392
1070
     0
1001
ACAD_DSTYLE_DIMARC_LENGTH_SYMBOL
1070
   379
1070
     1
1001
ACAD_DSTYLE_DIMJOGGED_JOGANGLE_SYMBOL
1070
   384
1040
1.570796326794896
  0
DIMSTYLE
105
EDB
102
{ACAD_REACTORS
330
1E1D
102
}
330
A
100
AcDbSymbolTableRecord
100
AcDbDimStyleTableRecord
  2
AM_ISO
 70
     0
  4
"
 41
3.5
 42
1.0
 43
10.0
 44
1.0
 47
0.1
 48
0.1
 73
     0
 74
     0
 77
     1
 78
     8
 79
     2
140
3.5
141
0.0
143
0.0393701
146
0.71
147
1.5
172
     1
176
   256
177
   256
178
     2
271
     2
272
     3
274
     4
283
     0
284
     8
340
10
371
    -1
372
    -1
1001
ACAD_DSTYLE_DIMJAG
1070
   388
1040
1.5
1001
ACAD_DSTYLE_DIMBREAK
1070
   391
1040
3.75
1001
ACAD_DSTYLE_DIMARC_LENGTH_SYMBOL
1070
   379
1070
     1
1001
ACAD_DSTYLE_DIM_LINETYPE
1070
   380
1005
12
1001
ACAD_DSTYLE_DIM_EXT1_LINETYPE
1070
   381
1005
12
1001
ACAD_DSTYLE_DIM_EXT2_LINETYPE
1070
   382
1005
12
  0
DIMSTYLE
105
EDC
330
A
100
AcDbSymbolTableRecord
100
AcDbDimStyleTableRecord
  2
AM_ISO$3
 70
     0
  4
"
 41
3.5
 42
1.0
 43
10.0
 44
1.0
 47
0.1
 48
0.1
 73
     0
 77
     1
 78
     8
 79
     2
140
3.5
141
0.0
143
0.0393701
146
0.71
147
1.5
176
   256
177
   256
178
     2
271
     2
272
     3
274
     4
283
     0
284
     8
288
     1
289
     0
340
10
371
    -1
372
    -1
1001
ACAD_DSTYLE_DIMBREAK
1070
   391
1040
3.75
1001
ACAD_DSTYLE_DIMJAG
1070
   388
1040
1.5
1001
ACAD_DSTYLE_DIMARC_LENGTH_SYMBOL
1070
   379
1070
     1
1001
ACAD_DSTYLE_DIM_LINETYPE
1070
   380
1005
12
1001
ACAD_DSTYLE_DIM_EXT1_LINETYPE
1070
   381
1005
12
1001
ACAD_DSTYLE_DIM_EXT2_LINETYPE
1070
   382
1005
12
  0
DIMSTYLE
105
EDD
330
A
100
AcDbSymbolTableRecord
100
AcDbDimStyleTableRecord
  2
AM_ISO$4
 70
     0
  4
"
 41
3.5
 42
1.0
 43
10.0
 44
1.0
 47
0.1
 48
0.1
 73
     0
 77
     1
 78
     8
 79
     2
140
3.5
141
0.0
143
0.0393701
146
0.71
147
1.5
176
   256
177
   256
178
     2
271
     2
272
     3
274
     4
283
     0
284
     8
288
     1
289
     0
340
10
371
    -1
372
    -1
1001
ACAD_DSTYLE_DIMBREAK
1070
   391
1040
3.75
1001
ACAD_DSTYLE_DIMJAG
1070
   388
1040
1.5
1001
ACAD_DSTYLE_DIMARC_LENGTH_SYMBOL
1070
   379
1070
     1
1001
ACAD_DSTYLE_DIM_LINETYPE
1070
   380
1005
12
1001
ACAD_DSTYLE_DIM_EXT1_LINETYPE
1070
   381
1005
12
1001
ACAD_DSTYLE_DIM_EXT2_LINETYPE
1070
   382
1005
12
  0
DIMSTYLE
105
EDE
330
A
100
AcDbSymbolTableRecord
100
AcDbDimStyleTableRecord
  2
AM_ISO$6
 70
     0
  4
"
 41
3.5
 42
1.0
 43
10.0
 44
1.0
 47
0.1
 48
0.1
 73
     0
 74
     0
 78
     8
 79
     2
140
3.5
141
0.0
143
0.0393701
146
0.71
147
1.5
172
     1
176
   256
177
   256
178
     2
271
     2
272
     3
274
     4
283
     0
284
     8
340
10
371
    -1
372
    -1
1001
ACAD_DSTYLE_DIMBREAK
1070
   391
1040
3.75
1001
ACAD_DSTYLE_DIMJAG
1070
   388
1040
1.5
1001
ACAD_DSTYLE_DIMARC_LENGTH_SYMBOL
1070
   379
1070
     1
1001
ACAD_DSTYLE_DIM_LINETYPE
1070
   380
1005
12
1001
ACAD_DSTYLE_DIM_EXT1_LINETYPE
1070
   381
1005
12
1001
ACAD_DSTYLE_DIM_EXT2_LINETYPE
1070
   382
1005
12
  0
DIMSTYLE
105
EDF
330
A
100
AcDbSymbolTableRecord
100
AcDbDimStyleTableRecord
  2
AM_ISO$7
 70
     0
  4
"
 41
3.5
 42
1.0
 43
10.0
 44
1.0
 47
0.1
 48
0.1
 73
     0
 74
     0
 77
     1
 78
     8
 79
     2
140
3.5
141
0.0
143
0.0393701
146
0.71
147
1.5
172
     1
176
   256
177
   256
178
     2
271
     2
272
     3
274
     4
283
     0
284
     8
340
10
371
    -1
372
    -1
1001
ACAD_DSTYLE_DIMBREAK
1070
   391
1040
3.75
1001
ACAD_DSTYLE_DIMJAG
1070
   388
1040
1.5
1001
ACAD_DSTYLE_DIMARC_LENGTH_SYMBOL
1070
   379
1070
     1
1001
ACAD_DSTYLE_DIM_LINETYPE
1070
   380
1005
12
1001
ACAD_DSTYLE_DIM_EXT1_LINETYPE
1070
   381
1005
12
1001
ACAD_DSTYLE_DIM_EXT2_LINETYPE
1070
   382
1005
12
  0
DIMSTYLE
105
EE0
330
A
100
AcDbSymbolTableRecord
100
AcDbDimStyleTableRecord
  2
AM_ISO$SF
 70
     0
  4
"
 41
3.5
 42
1.0
 43
10.0
 44
1.0
 47
0.1
 48
0.1
 73
     0
 74
     0
 75
     1
 76
     1
 77
     1
 78
     8
 79
     2
140
3.5
141
0.0
143
0.0393701
146
0.71
147
1.5
172
     1
176
   256
177
   256
178
     2
271
     2
272
     3
274
     4
283
     0
284
     8
340
10
371
    -1
372
    -1
1001
ACAD_DSTYLE_DIMBREAK
1070
   391
1040
3.75
1001
ACAD_DSTYLE_DIMJAG
1070
   388
1040
1.5
1001
ACAD_DSTYLE_DIMARC_LENGTH_SYMBOL
1070
   379
1070
     1
1001
ACAD_DSTYLE_DIM_LINETYPE
1070
   380
1005
12
1001
ACAD_DSTYLE_DIM_EXT1_LINETYPE
1070
   381
1005
12
1001
ACAD_DSTYLE_DIM_EXT2_LINETYPE
1070
   382
1005
12
  0
DIMSTYLE
105
EE1
330
A
100
AcDbSymbolTableRecord
100
AcDbDimStyleTableRecord
  2
AM_ISO$SH
 70
     0
  4
"
 41
3.5
 42
1.0
 43
10.0
 44
1.0
 47
0.1
 48
0.1
 73
     0
 74
     0
 75
     1
 76
     1
 77
     1
 78
     8
 79
     2
140
3.5
141
0.0
143
0.0393701
144
2.0
146
0.71
147
1.5
172
     1
173
     1
176
   256
177
   256
178
     2
271
     2
272
     3
274
     4
283
     0
284
     8
340
10
343
ED3
371
    -1
372
    -1
1001
ACAD_DSTYLE_DIMBREAK
1070
   391
1040
3.75
1001
ACAD_DSTYLE_DIMJAG
1070
   388
1040
1.5
1001
ACAD_DSTYLE_DIMARC_LENGTH_SYMBOL
1070
   379
1070
     1
1001
ACAD_DSTYLE_DIM_LINETYPE
1070
   380
1005
12
1001
ACAD_DSTYLE_DIM_EXT1_LINETYPE
1070
   381
1005
12
1001
ACAD_DSTYLE_DIM_EXT2_LINETYPE
1070
   382
1005
12
  0
DIMSTYLE
105
144F
330
A
100
AcDbSymbolTableRecord
100
AcDbDimStyleTableRecord
  2
AM_DIN$0
 70
     0
 41
2.5
 42
1.0
 43
15.0
 44
2.0
 48
0.000000001
 73
     0
 74
     0
 77
     1
 78
     8
 79
     2
140
3.5
143
0.0393701
146
0.7071069999999999
147
1.0
171
     3
172
     1
271
     2
272
     2
273
     3
274
     3
284
     8
285
    11
286
     8
340
7DE
371
    -1
372
    -1
1001
ACAD_DSTYLE_DIMBREAK
1070
   391
1040
3.75
1001
ACAD_DSTYLE_DIMJAG
1070
   388
1040
1.5
1001
ACAD_DSTYLE_DIMARC_LENGTH_SYMBOL
1070
   379
1070
     1
1001
ACAD_DSTYLE_DIMJOGGED_JOGANGLE_SYMBOL
1070
   384
1040
1.570796326794896
  0
DIMSTYLE
105
1450
330
A
100
AcDbSymbolTableRecord
100
AcDbDimStyleTableRecord
  2
AM_DIN$2
 70
     0
 41
2.5
 42
1.0
 43
15.0
 44
2.0
 48
0.000000001
 73
     0
 74
     0
 77
     1
 78
     8
 79
     2
140
3.5
143
0.0393701
146
0.7071069999999999
147
1.0
171
     3
172
     1
271
     2
272
     2
273
     3
274
     3
284
     8
285
    11
286
     8
340
7DE
371
    -1
372
    -1
1001
ACAD_DSTYLE_DIMBREAK
1070
   391
1040
3.75
1001
ACAD_DSTYLE_DIMJAG
1070
   388
1040
1.5
1001
ACAD_DSTYLE_DIMARC_LENGTH_SYMBOL
1070
   379
1070
     1
1001
ACAD_DSTYLE_DIMJOGGED_JOGANGLE_SYMBOL
1070
   384
1040
1.570796326794896
  0
ENDTAB
  0
TABLE
  2
BLOCK_RECORD
  5
1
330
0
100
AcDbSymbolTable
 70
    26
  0
BLOCK_RECORD
  5
18
102
{ACAD_XDICTIONARY
360
DB1
102
}
330
1
100
AcDbSymbolTableRecord
100
AcDbBlockTableRecord
  2
*MODEL_SPACE
340
303
  0
BLOCK_RECORD
  5
B56
330
1
100
AcDbSymbolTableRecord
100
AcDbBlockTableRecord
  2
*Paper_Space
340
B57
  0
BLOCK_RECORD
  5
D0B
330
1
100
AcDbSymbolTableRecord
100
AcDbBlockTableRecord
  2
_ACMFILLED15
340
0
  0
BLOCK_RECORD
  5
D16
330
1
100
AcDbSymbolTableRecord
100
AcDbBlockTableRecord
  2
_ACMFILLED30
340
0
  0
BLOCK_RECORD
  5
ED3
330
1
100
AcDbSymbolTableRecord
100
AcDbBlockTableRecord
  2
GENAXEH
340
0
  0
BLOCK_RECORD
  5
13D1
330
1
100
AcDbSymbolTableRecord
100
AcDbBlockTableRecord
  2
*D3
340
0
  0
BLOCK_RECORD
  5
13DD
330
1
100
AcDbSymbolTableRecord
100
AcDbBlockTableRecord
  2
*D4
340
0
  0
BLOCK_RECORD
  5
13EA
330
1
100
AcDbSymbolTableRecord
100
AcDbBlockTableRecord
  2
*D5
340
0
  0
BLOCK_RECORD
  5
13F6
330
1
100
AcDbSymbolTableRecord
100
AcDbBlockTableRecord
  2
*D6
340
0
  0
BLOCK_RECORD
  5
1402
330
1
100
AcDbSymbolTableRecord
100
AcDbBlockTableRecord
  2
*D7
340
0
  0
BLOCK_RECORD
  5
140E
330
1
100
AcDbSymbolTableRecord
100
AcDbBlockTableRecord
  2
*D8
340
0
  0
BLOCK_RECORD
  5
141A
330
1
100
AcDbSymbolTableRecord
100
AcDbBlockTableRecord
  2
*D9
340
0
  0
BLOCK_RECORD
  5
1426
330
1
100
AcDbSymbolTableRecord
100
AcDbBlockTableRecord
  2
*D10
340
0
  0
BLOCK_RECORD
  5
1432
330
1
100
AcDbSymbolTableRecord
100
AcDbBlockTableRecord
  2
*D11
340
0
  0
BLOCK_RECORD
  5
143F
330
1
100
AcDbSymbolTableRecord
100
AcDbBlockTableRecord
  2
*D12
340
0
  0
BLOCK_RECORD
  5
1617
330
1
100
AcDbSymbolTableRecord
100
AcDbBlockTableRecord
  2
*D13
340
0
  0
BLOCK_RECORD
  5
1623
330
1
100
AcDbSymbolTableRecord
100
AcDbBlockTableRecord
  2
*D14
340
0
  0
BLOCK_RECORD
  5
162F
330
1
100
AcDbSymbolTableRecord
100
AcDbBlockTableRecord
  2
*D15
340
0
  0
BLOCK_RECORD
  5
163B
330
1
100
AcDbSymbolTableRecord
100
AcDbBlockTableRecord
  2
*D16
340
0
  0
BLOCK_RECORD
  5
1648
330
1
100
AcDbSymbolTableRecord
100
AcDbBlockTableRecord
  2
*D17
340
0
  0
BLOCK_RECORD
  5
1658
330
1
100
AcDbSymbolTableRecord
100
AcDbBlockTableRecord
  2
*D18
340
0
  0
BLOCK_RECORD
  5
1664
330
1
100
AcDbSymbolTableRecord
100
AcDbBlockTableRecord
  2
*D19
340
0
  0
BLOCK_RECORD
  5
167A
330
1
100
AcDbSymbolTableRecord
100
AcDbBlockTableRecord
  2
*D20
340
0
  0
BLOCK_RECORD
  5
168F
330
1
100
AcDbSymbolTableRecord
100
AcDbBlockTableRecord
  2
*D21
340
0
  0
BLOCK_RECORD
  5
16A4
330
1
100
AcDbSymbolTableRecord
100
AcDbBlockTableRecord
  2
*D22
340
0
  0
BLOCK_RECORD
  5
17F3
330
1
100
AcDbSymbolTableRecord
100
AcDbBlockTableRecord
  2
*D23
340
0
  0
BLOCK_RECORD
  5
1844
330
1
100
AcDbSymbolTableRecord
100
AcDbBlockTableRecord
  2
*D24
340
0
  0
ENDTAB
  0
ENDSEC
  0
SECTION
  2
BLOCKS
  0
BLOCK
  5
32
330
18
100
AcDbEntity
  8
0
100
AcDbBlockBegin
  2
*MODEL_SPACE
 70
     0
 10
0.0
 20
0.0
 30
0.0
  3
*MODEL_SPACE
  1

  0
ENDBLK
  5
33
330
18
100
AcDbEntity
  8
0
100
AcDbBlockEnd
  0
BLOCK
  5
B58
330
B56
100
AcDbEntity
 67
     1
  8
0
100
AcDbBlockBegin
  2
*Paper_Space
 70
     0
 10
0.0
 20
0.0
 30
0.0
  3
*Paper_Space
  1

  0
ENDBLK
  5
B59
330
B56
100
AcDbEntity
 67
     1
  8
0
100
AcDbBlockEnd
  0
BLOCK
  5
D0D
330
D0B
100
AcDbEntity
  8
0
100
AcDbBlockBegin
  2
_ACMFILLED15
 70
     0
 10
0.0
 20
0.0
 30
0.0
  3
_ACMFILLED15
  1

  0
TRACE
  5
D0C
330
D0B
100
AcDbEntity
  8
1
 62
     0
100
AcDbTrace
 10
-1
 20
-0.131652497
 30
0.0
 11
-1
 21
0.131652497
 31
0.0
 12
0
 22
0
 32
0.0
 13
0
 23
0
 33
0.0
  0
ENDBLK
  5
D0E
330
D0B
100
AcDbEntity
  8
0
100
AcDbBlockEnd
  0
BLOCK
  5
D18
330
D16
100
AcDbEntity
  8
0
100
AcDbBlockBegin
  2
_ACMFILLED30
 70
     0
 10
0.0
 20
0.0
 30
0.0
  3
_ACMFILLED30
  1

  0
TRACE
  5
D17
330
D16
100
AcDbEntity
  8
1
 62
     0
100
AcDbTrace
 10
-1
 20
-0.26794919
 30
0.0
 11
-1
 21
0.26794919
 31
0.0
 12
0
 22
0
 32
0.0
 13
0
 23
0
 33
0.0
  0
ENDBLK
  5
D19
330
D16
100
AcDbEntity
  8
0
100
AcDbBlockEnd
  0
BLOCK
  5
ED4
330
ED3
100
AcDbEntity
  8
0
370
    18
100
AcDbBlockBegin
  2
GENAXEH
 70
     0
 10
0.0
 20
0.0
 30
0.0
  3
GENAXEH
  1

  0
LINE
  5
ED5
330
ED3
100
AcDbEntity
  8
0
100
AcDbLine
 10
-1
 20
0
 30
0.0
 11
1
 21
0
 31
0.0
  0
ENDBLK
  5
ED6
330
ED3
100
AcDbEntity
  8
0
370
    18
100
AcDbBlockEnd
  0
BLOCK
  5
13D2
330
13D1
100
AcDbEntity
  8
0
100
AcDbBlockBegin
  2
*D3
 70
     1
 10
0.0
 20
0.0
 30
0.0
  3
*D3
  1

  0
LINE
  5
13D3
330
13D1
100
AcDbEntity
  8
2
 62
     0
100
AcDbLine
 10
1E-16
 20
23.225
 30
0.0
 11
5.2E-15
 21
107
 31
0.0
  0
LINE
  5
13D4
330
13D1
100
AcDbEntity
  8
2
 62
     0
100
AcDbLine
 10
80.5
 20
12.895
 30
0.0
 11
80.5
 21
107
 31
0.0
  0
LINE
  5
13D5
330
13D1
100
AcDbEntity
  8
2
 62
     0
100
AcDbLine
 10
2.5
 20
105
 30
0.0
 11
78
 21
105
 31
0.0
  0
SOLID
  5
13D6
330
13D1
100
AcDbEntity
  8
2
 62
     0
100
AcDbTrace
 10
2.5
 20
105.416666666667
 30
0.0
 11
2.5
 21
104.583333333333
 31
0.0
 12
5.1E-15
 22
105
 32
0.0
 13
5.1E-15
 23
105
 33
0.0
  0
SOLID
  5
13D7
330
13D1
100
AcDbEntity
  8
2
 62
     0
100
AcDbTrace
 10
78
 20
105.416666666667
 30
0.0
 11
78
 21
104.583333333333
 31
0.0
 12
80.5
 22
105
 32
0.0
 13
80.5
 23
105
 33
0.0
  0
MTEXT
  5
13D8
330
13D1
100
AcDbEntity
  8
2
 62
     0
100
AcDbMText
 10
40.25
 20
107.81148981026
 30
0.0
 40
3.5
 41
0.0
 71
     5
 72
     1
  1
\A1;80.5
  7
STANDARD 3.5 mm
 73
     1
 44
1.0
1001
ACAD
1000
MTEXTBEGIN
1070
    73
1070
     1
1070
    44
1040
1.0
1070
    74
1070
     0
1000
MTEXTEND
  0
POINT
  5
13D9
330
13D1
100
AcDbEntity
  8
DEFPOINTS
 62
     0
100
AcDbPoint
 10
0
 20
22.225
 30
0.0
  0
POINT
  5
13DA
330
13D1
100
AcDbEntity
  8
DEFPOINTS
 62
     0
100
AcDbPoint
 10
80.5
 20
11.895
 30
0.0
  0
POINT
  5
13DB
330
13D1
100
AcDbEntity
  8
DEFPOINTS
 62
     0
100
AcDbPoint
 10
80.5
 20
105
 30
0.0
  0
ENDBLK
  5
13DC
330
13D1
100
AcDbEntity
  8
0
100
AcDbBlockEnd
  0
BLOCK
  5
13DE
330
13DD
100
AcDbEntity
  8
0
100
AcDbBlockBegin
  2
*D4
 70
     1
 10
0.0
 20
0.0
 30
0.0
  3
*D4
  1

  0
LINE
  5
13DF
330
13DD
100
AcDbEntity
  8
SK2
 62
     0
100
AcDbLine
 10
80.9803850000001
 20
5
 30
0.0
 11
107
 21
4.99999999999999
 31
0.0
  0
LINE
  5
13E0
330
13DD
100
AcDbEntity
  8
SK2
 62
     0
100
AcDbLine
 10
80.9803850000001
 20
-5.00000000000003
 30
0.0
 11
107
 21
-5.00000000000004
 31
0.0
  0
LINE
  5
13E1
330
13DD
100
AcDbEntity
  8
SK2
 62
     0
100
AcDbLine
 10
105
 20
2.49999999999999
 30
0.0
 11
105
 21
-2.50000000000004
 31
0.0
  0
LINE
  5
13E2
330
13DD
100
AcDbEntity
  8
SK2
 62
     0
100
AcDbLine
 10
105
 20
-5.00000000000003
 30
0.0
 11
105
 21
-18.1553056921996
 31
0.0
  0
SOLID
  5
13E3
330
13DD
100
AcDbEntity
  8
SK2
 62
     0
100
AcDbTrace
 10
104.583333333333
 20
2.49999999999999
 30
0.0
 11
105.416666666667
 21
2.49999999999999
 31
0.0
 12
105
 22
4.99999999999999
 32
0.0
 13
105
 23
4.99999999999999
 33
0.0
  0
SOLID
  5
13E4
330
13DD
100
AcDbEntity
  8
SK2
 62
     0
100
AcDbTrace
 10
104.583333333333
 20
-2.50000000000004
 30
0.0
 11
105.416666666667
 21
-2.50000000000004
 31
0.0
 12
105
 22
-5.00000000000003
 32
0.0
 13
105
 23
-5.00000000000003
 33
0.0
  0
MTEXT
  5
13E5
330
13DD
100
AcDbEntity
  8
SK2
 62
     0
100
AcDbMText
 10
102.136858749122
 20
-12.8276528460998
 30
0.0
 40
3.5
 41
0.0
 71
     5
 72
     1
  1
\A1;%%c10
  7
STANDARD 3.5 mm
 11
0.0000000000000001
 21
1.0
 31
0.0
 73
     1
 44
1.0
1001
ACAD
1000
MTEXTBEGIN
1070
    73
1070
     1
1070
    44
1040
1.0
1070
    74
1070
     0
1000
MTEXTEND
  0
POINT
  5
13E6
330
13DD
100
AcDbEntity
  8
DEFPOINTS
 62
     0
100
AcDbPoint
 10
79.9803850000001
 20
5
 30
0.0
  0
POINT
  5
13E7
330
13DD
100
AcDbEntity
  8
DEFPOINTS
 62
     0
100
AcDbPoint
 10
79.9803850000001
 20
-5.00000000000003
 30
0.0
  0
POINT
  5
13E8
330
13DD
100
AcDbEntity
  8
DEFPOINTS
 62
     0
100
AcDbPoint
 10
105
 20
-5.00000000000003
 30
0.0
  0
ENDBLK
  5
13E9
330
13DD
100
AcDbEntity
  8
0
100
AcDbBlockEnd
  0
BLOCK
  5
13EB
330
13EA
100
AcDbEntity
  8
0
100
AcDbBlockBegin
  2
*D5
 70
     1
 10
0.0
 20
0.0
 30
0.0
  3
*D5
  1

  0
LINE
  5
13EC
330
13EA
100
AcDbEntity
  8
2
 62
     0
100
AcDbLine
 10
64.791053
 20
16.025
 30
0.0
 11
122
 21
16.025
 31
0.0
  0
LINE
  5
13ED
330
13EA
100
AcDbEntity
  8
2
 62
     0
100
AcDbLine
 10
64.791053
 20
-16.025
 30
0.0
 11
122
 21
-16.025
 31
0.0
  0
LINE
  5
13EE
330
13EA
100
AcDbEntity
  8
2
 62
     0
100
AcDbLine
 10
120
 20
13.525
 30
0.0
 11
120
 21
-13.525
 31
0.0
  0
SOLID
  5
13EF
330
13EA
100
AcDbEntity
  8
2
 62
     0
100
AcDbTrace
 10
119.583333333333
 20
13.525
 30
0.0
 11
120.416666666667
 21
13.525
 31
0.0
 12
120
 22
16.025
 32
0.0
 13
120
 23
16.025
 33
0.0
  0
SOLID
  5
13F0
330
13EA
100
AcDbEntity
  8
2
 62
     0
100
AcDbTrace
 10
119.583333333333
 20
-13.525
 30
0.0
 11
120.416666666667
 21
-13.525
 31
0.0
 12
120
 22
-16.025
 32
0.0
 13
120
 23
-16.025
 33
0.0
  0
MTEXT
  5
13F1
330
13EA
100
AcDbEntity
  8
2
 62
     0
100
AcDbMText
 10
117.136858749122
 20
2.1E-15
 30
0.0
 40
3.5
 41
0.0
 71
     5
 72
     1
  1
\A1;%%c32
  7
STANDARD 3.5 mm
 11
0.0000000000000001
 21
1.0
 31
0.0
 73
     1
 44
1.0
1001
ACAD
1000
MTEXTBEGIN
1070
    73
1070
     1
1070
    44
1040
1.0
1070
    74
1070
     0
1000
MTEXTEND
  0
POINT
  5
13F2
330
13EA
100
AcDbEntity
  8
DEFPOINTS
 62
     0
100
AcDbPoint
 10
63.791053
 20
16.025
 30
0.0
  0
POINT
  5
13F3
330
13EA
100
AcDbEntity
  8
DEFPOINTS
 62
     0
100
AcDbPoint
 10
63.791053
 20
-16.025
 30
0.0
  0
POINT
  5
13F4
330
13EA
100
AcDbEntity
  8
DEFPOINTS
 62
     0
100
AcDbPoint
 10
120
 20
-16.025
 30
0.0
  0
ENDBLK
  5
13F5
330
13EA
100
AcDbEntity
  8
0
100
AcDbBlockEnd
  0
BLOCK
  5
13F7
330
13F6
100
AcDbEntity
  8
0
100
AcDbBlockBegin
  2
*D6
 70
     1
 10
0.0
 20
0.0
 30
0.0
  3
*D6
  1

  0
LINE
  5
13F8
330
13F6
100
AcDbEntity
  8
2
 62
     0
100
AcDbLine
 10
45.6054710000001
 20
24.625
 30
0.0
 11
137
 21
24.625
 31
0.0
  0
LINE
  5
13F9
330
13F6
100
AcDbEntity
  8
2
 62
     0
100
AcDbLine
 10
45.6054710000001
 20
-24.625
 30
0.0
 11
137
 21
-24.6250000000001
 31
0.0
  0
LINE
  5
13FA
330
13F6
100
AcDbEntity
  8
2
 62
     0
100
AcDbLine
 10
135
 20
22.125
 30
0.0
 11
135
 21
-22.1250000000001
 31
0.0
  0
SOLID
  5
13FB
330
13F6
100
AcDbEntity
  8
2
 62
     0
100
AcDbTrace
 10
134.583333333333
 20
22.125
 30
0.0
 11
135.416666666667
 21
22.125
 31
0.0
 12
135
 22
24.625
 32
0.0
 13
135
 23
24.625
 33
0.0
  0
SOLID
  5
13FC
330
13F6
100
AcDbEntity
  8
2
 62
     0
100
AcDbTrace
 10
134.583333333333
 20
-22.1250000000001
 30
0.0
 11
135.416666666667
 21
-22.1250000000001
 31
0.0
 12
135
 22
-24.6250000000001
 32
0.0
 13
135
 23
-24.6250000000001
 33
0.0
  0
MTEXT
  5
13FD
330
13F6
100
AcDbEntity
  8
2
 62
     0
100
AcDbMText
 10
132.136858749122
 20
-3.08E-14
 30
0.0
 40
3.5
 41
0.0
 71
     5
 72
     1
  1
\A1;%%c49.25
  7
STANDARD 3.5 mm
 11
0.0000000000000001
 21
1.0
 31
0.0
 73
     1
 44
1.0
1001
ACAD
1000
MTEXTBEGIN
1070
    73
1070
     1
1070
    44
1040
1.0
1070
    74
1070
     0
1000
MTEXTEND
  0
POINT
  5
13FE
330
13F6
100
AcDbEntity
  8
DEFPOINTS
 62
     0
100
AcDbPoint
 10
44.6054710000001
 20
24.625
 30
0.0
  0
POINT
  5
13FF
330
13F6
100
AcDbEntity
  8
DEFPOINTS
 62
     0
100
AcDbPoint
 10
44.6054710000001
 20
-24.625
 30
0.0
  0
POINT
  5
1400
330
13F6
100
AcDbEntity
  8
DEFPOINTS
 62
     0
100
AcDbPoint
 10
135
 20
-24.6250000000001
 30
0.0
  0
ENDBLK
  5
1401
330
13F6
100
AcDbEntity
  8
0
100
AcDbBlockEnd
  0
BLOCK
  5
1403
330
1402
100
AcDbEntity
  8
0
100
AcDbBlockBegin
  2
*D7
 70
     1
 10
0.0
 20
0.0
 30
0.0
  3
*D7
  1

  0
LINE
  5
1404
330
1402
100
AcDbEntity
  8
2
 62
     0
100
AcDbLine
 10
80.5
 20
12.895
 30
0.0
 11
80.5
 21
62
 31
0.0
  0
LINE
  5
1405
330
1402
100
AcDbEntity
  8
2
 62
     0
100
AcDbLine
 10
49.3084120000001
 20
16.5513836198543
 30
0.0
 11
49.3084120000001
 21
62
 31
0.0
  0
LINE
  5
1406
330
1402
100
AcDbEntity
  8
2
 62
     0
100
AcDbLine
 10
78
 20
60
 30
0.0
 11
51.8084120000001
 21
60
 31
0.0
  0
SOLID
  5
1407
330
1402
100
AcDbEntity
  8
2
 62
     0
100
AcDbTrace
 10
78
 20
60.4166666666667
 30
0.0
 11
78
 21
59.5833333333333
 31
0.0
 12
80.5
 22
60
 32
0.0
 13
80.5
 23
60
 33
0.0
  0
SOLID
  5
1408
330
1402
100
AcDbEntity
  8
2
 62
     0
100
AcDbTrace
 10
51.8084120000001
 20
60.4166666666667
 30
0.0
 11
51.8084120000001
 21
59.5833333333333
 31
0.0
 12
49.3084120000001
 22
60
 32
0.0
 13
49.3084120000001
 23
60
 33
0.0
  0
MTEXT
  5
1409
330
1402
100
AcDbEntity
  8
2
 62
     0
100
AcDbMText
 10
64.904206
 20
62.81148981026
 30
0.0
 40
3.5
 41
0.0
 71
     5
 72
     1
  1
\A1;31
  7
STANDARD 3.5 mm
 73
     1
 44
1.0
1001
ACAD
1000
MTEXTBEGIN
1070
    73
1070
     1
1070
    44
1040
1.0
1070
    74
1070
     0
1000
MTEXTEND
  0
POINT
  5
140A
330
1402
100
AcDbEntity
  8
DEFPOINTS
 62
     0
100
AcDbPoint
 10
80.5
 20
11.895
 30
0.0
  0
POINT
  5
140B
330
1402
100
AcDbEntity
  8
DEFPOINTS
 62
     0
100
AcDbPoint
 10
49.3084120000001
 20
15.5513836198543
 30
0.0
  0
POINT
  5
140C
330
1402
100
AcDbEntity
  8
DEFPOINTS
 62
     0
100
AcDbPoint
 10
49.3084120000001
 20
60
 30
0.0
  0
ENDBLK
  5
140D
330
1402
100
AcDbEntity
  8
0
100
AcDbBlockEnd
  0
BLOCK
  5
140F
330
140E
100
AcDbEntity
  8
0
100
AcDbBlockBegin
  2
*D8
 70
     1
 10
0.0
 20
0.0
 30
0.0
  3
*D8
  1

  0
LINE
  5
1410
330
140E
100
AcDbEntity
  8
2
 62
     0
100
AcDbLine
 10
80.5
 20
12.895
 30
0.0
 11
80.5
 21
92
 31
0.0
  0
LINE
  5
1411
330
140E
100
AcDbEntity
  8
2
 62
     0
100
AcDbLine
 10
19.0500000000001
 20
32.035926
 30
0.0
 11
19.0500000000001
 21
92
 31
0.0
  0
LINE
  5
1412
330
140E
100
AcDbEntity
  8
2
 62
     0
100
AcDbLine
 10
78
 20
90
 30
0.0
 11
21.5500000000001
 21
90
 31
0.0
  0
SOLID
  5
1413
330
140E
100
AcDbEntity
  8
2
 62
     0
100
AcDbTrace
 10
78
 20
90.4166666666667
 30
0.0
 11
78
 21
89.5833333333333
 31
0.0
 12
80.5
 22
90
 32
0.0
 13
80.5
 23
90
 33
0.0
  0
SOLID
  5
1414
330
140E
100
AcDbEntity
  8
2
 62
     0
100
AcDbTrace
 10
21.5500000000001
 20
90.4166666666667
 30
0.0
 11
21.5500000000001
 21
89.5833333333333
 31
0.0
 12
19.0500000000001
 22
90
 32
0.0
 13
19.0500000000001
 23
90
 33
0.0
  0
MTEXT
  5
1415
330
140E
100
AcDbEntity
  8
2
 62
     0
100
AcDbMText
 10
49.775
 20
92.81148981026
 30
0.0
 40
3.5
 41
0.0
 71
     5
 72
     1
  1
\A1;61.45
  7
STANDARD 3.5 mm
 73
     1
 44
1.0
1001
ACAD
1000
MTEXTBEGIN
1070
    73
1070
     1
1070
    44
1040
1.0
1070
    74
1070
     0
1000
MTEXTEND
  0
POINT
  5
1416
330
140E
100
AcDbEntity
  8
DEFPOINTS
 62
     0
100
AcDbPoint
 10
80.5
 20
11.895
 30
0.0
  0
POINT
  5
1417
330
140E
100
AcDbEntity
  8
DEFPOINTS
 62
     0
100
AcDbPoint
 10
19.0500000000001
 20
31.035926
 30
0.0
  0
POINT
  5
1418
330
140E
100
AcDbEntity
  8
DEFPOINTS
 62
     0
100
AcDbPoint
 10
19.0500000000001
 20
90
 30
0.0
  0
ENDBLK
  5
1419
330
140E
100
AcDbEntity
  8
0
100
AcDbBlockEnd
  0
BLOCK
  5
141B
330
141A
100
AcDbEntity
  8
0
100
AcDbBlockBegin
  2
*D9
 70
     1
 10
0.0
 20
0.0
 30
0.0
  3
*D9
  1

  0
LINE
  5
141C
330
141A
100
AcDbEntity
  8
SK2
 62
     0
100
AcDbLine
 10
80.5
 20
12.895
 30
0.0
 11
80.5
 21
77
 31
0.0
  0
LINE
  5
141D
330
141A
100
AcDbEntity
  8
SK2
 62
     0
100
AcDbLine
 10
34.5
 20
5.99999999999997
 30
0.0
 11
34.5
 21
77
 31
0.0
  0
LINE
  5
141E
330
141A
100
AcDbEntity
  8
SK2
 62
     0
100
AcDbLine
 10
78
 20
75
 30
0.0
 11
37
 21
75
 31
0.0
  0
SOLID
  5
141F
330
141A
100
AcDbEntity
  8
SK2
 62
     0
100
AcDbTrace
 10
78
 20
75.4166666666667
 30
0.0
 11
78
 21
74.5833333333333
 31
0.0
 12
80.5
 22
75
 32
0.0
 13
80.5
 23
75
 33
0.0
  0
SOLID
  5
1420
330
141A
100
AcDbEntity
  8
SK2
 62
     0
100
AcDbTrace
 10
37
 20
75.4166666666667
 30
0.0
 11
37
 21
74.5833333333333
 31
0.0
 12
34.5
 22
75
 32
0.0
 13
34.5
 23
75
 33
0.0
  0
MTEXT
  5
1421
330
141A
100
AcDbEntity
  8
SK2
 62
     0
100
AcDbMText
 10
57.5
 20
77.81148981026
 30
0.0
 40
3.5
 41
0.0
 71
     5
 72
     1
  1
\A1;46
  7
STANDARD 3.5 mm
 73
     1
 44
1.0
1001
ACAD
1000
MTEXTBEGIN
1070
    73
1070
     1
1070
    44
1040
1.0
1070
    74
1070
     0
1000
MTEXTEND
  0
POINT
  5
1422
330
141A
100
AcDbEntity
  8
DEFPOINTS
 62
     0
100
AcDbPoint
 10
80.5
 20
11.895
 30
0.0
  0
POINT
  5
1423
330
141A
100
AcDbEntity
  8
DEFPOINTS
 62
     0
100
AcDbPoint
 10
34.5
 20
4.99999999999997
 30
0.0
  0
POINT
  5
1424
330
141A
100
AcDbEntity
  8
DEFPOINTS
 62
     0
100
AcDbPoint
 10
34.5
 20
75
 30
0.0
  0
ENDBLK
  5
1425
330
141A
100
AcDbEntity
  8
0
100
AcDbBlockEnd
  0
BLOCK
  5
1427
330
1426
100
AcDbEntity
  8
0
100
AcDbBlockBegin
  2
*D10
 70
     1
 10
0.0
 20
0.0
 30
0.0
  3
*D10
  1

  0
LINE
  5
1428
330
1426
100
AcDbEntity
  8
SK2
 62
     0
100
AcDbLine
 10
80.5
 20
12.895
 30
0.0
 11
80.5
 21
122
 31
0.0
  0
LINE
  5
1429
330
1426
100
AcDbEntity
  8
SK2
 62
     0
100
AcDbLine
 10
-68.2499999999999
 20
12.407305
 30
0.0
 11
-68.2499999999999
 21
122
 31
0.0
  0
LINE
  5
142A
330
1426
100
AcDbEntity
  8
SK2
 62
     0
100
AcDbLine
 10
78
 20
120
 30
0.0
 11
-65.7499999999999
 21
120
 31
0.0
  0
SOLID
  5
142B
330
1426
100
AcDbEntity
  8
SK2
 62
     0
100
AcDbTrace
 10
78
 20
120.416666666667
 30
0.0
 11
78
 21
119.583333333333
 31
0.0
 12
80.5
 22
120
 32
0.0
 13
80.5
 23
120
 33
0.0
  0
SOLID
  5
142C
330
1426
100
AcDbEntity
  8
SK2
 62
     0
100
AcDbTrace
 10
-65.7499999999999
 20
120.416666666667
 30
0.0
 11
-65.7499999999999
 21
119.583333333333
 31
0.0
 12
-68.2499999999999
 22
120
 32
0.0
 13
-68.2499999999999
 23
120
 33
0.0
  0
MTEXT
  5
142D
330
1426
100
AcDbEntity
  8
SK2
 62
     0
100
AcDbMText
 10
6.12500000000003
 20
122.81148981026
 30
0.0
 40
3.5
 41
0.0
 71
     5
 72
     1
  1
\A1;148.75
  7
STANDARD 3.5 mm
 73
     1
 44
1.0
1001
ACAD
1000
MTEXTBEGIN
1070
    73
1070
     1
1070
    44
1040
1.0
1070
    74
1070
     0
1000
MTEXTEND
  0
POINT
  5
142E
330
1426
100
AcDbEntity
  8
DEFPOINTS
 62
     0
100
AcDbPoint
 10
80.5
 20
11.895
 30
0.0
  0
POINT
  5
142F
330
1426
100
AcDbEntity
  8
DEFPOINTS
 62
     0
100
AcDbPoint
 10
-68.2499999999999
 20
11.407305
 30
0.0
  0
POINT
  5
1430
330
1426
100
AcDbEntity
  8
DEFPOINTS
 62
     0
100
AcDbPoint
 10
-68.2499999999999
 20
120
 30
0.0
  0
ENDBLK
  5
1431
330
1426
100
AcDbEntity
  8
0
100
AcDbBlockEnd
  0
BLOCK
  5
1433
330
1432
100
AcDbEntity
  8
0
100
AcDbBlockBegin
  2
*D11
 70
     1
 10
0.0
 20
0.0
 30
0.0
  3
*D11
  1

  0
LINE
  5
1434
330
1432
100
AcDbEntity
  8
SK2
 62
     0
100
AcDbLine
 10
30.25
 20
4.99999999999997
 30
0.0
 11
27.0259876718478
 21
4.99999999999997
 31
0.0
  0
LINE
  5
1435
330
1432
100
AcDbEntity
  8
SK2
 62
     0
100
AcDbLine
 10
30.25
 20
-5.00000000000003
 30
0.0
 11
27.0259876718478
 21
-5.00000000000003
 31
0.0
  0
LINE
  5
1436
330
1432
100
AcDbEntity
  8
SK2
 62
     0
100
AcDbLine
 10
29.0259876718478
 20
2.49999999999997
 30
0.0
 11
29.0259876718478
 21
-2.50000000000002
 31
0.0
  0
LINE
  5
1437
330
1432
100
AcDbEntity
  8
SK2
 62
     0
100
AcDbLine
 10
29.0259876718478
 20
-5.00000000000003
 30
0.0
 11
29.0259876718478
 21
-18.03478566409
 31
0.0
  0
SOLID
  5
1438
330
1432
100
AcDbEntity
  8
SK2
 62
     0
100
AcDbTrace
 10
28.6093210051812
 20
2.49999999999997
 30
0.0
 11
29.4426543385145
 21
2.49999999999997
 31
0.0
 12
29.0259876718478
 22
4.99999999999997
 32
0.0
 13
29.0259876718478
 23
4.99999999999997
 33
0.0
  0
SOLID
  5
1439
330
1432
100
AcDbEntity
  8
SK2
 62
     0
100
AcDbTrace
 10
28.6093210051812
 20
-2.50000000000002
 30
0.0
 11
29.4426543385145
 21
-2.50000000000002
 31
0.0
 12
29.0259876718478
 22
-5.00000000000003
 32
0.0
 13
29.0259876718478
 23
-5.00000000000003
 33
0.0
  0
MTEXT
  5
143A
330
1432
100
AcDbEntity
  8
SK2
 62
     0
100
AcDbMText
 10
26.2144978615878
 20
-12.767392832045
 30
0.0
 40
3.5
 41
0.0
 71
     5
 72
     1
  1
\A1;M10
  7
STANDARD 3.5 mm
 11
0.0000000000000001
 21
1.0
 31
0.0
 73
     1
 44
1.0
1001
ACAD
1000
MTEXTBEGIN
1070
    73
1070
     1
1070
    44
1040
1.0
1070
    74
1070
     0
1000
MTEXTEND
  0
POINT
  5
143B
330
1432
100
AcDbEntity
  8
DEFPOINTS
 62
     0
100
AcDbPoint
 10
31.25
 20
4.99999999999997
 30
0.0
  0
POINT
  5
143C
330
1432
100
AcDbEntity
  8
DEFPOINTS
 62
     0
100
AcDbPoint
 10
31.25
 20
-5.00000000000003
 30
0.0
  0
POINT
  5
143D
330
1432
100
AcDbEntity
  8
DEFPOINTS
 62
     0
100
AcDbPoint
 10
29.0259876718478
 20
-5.00000000000003
 30
0.0
  0
ENDBLK
  5
143E
330
1432
100
AcDbEntity
  8
0
100
AcDbBlockEnd
  0
BLOCK
  5
1440
330
143F
100
AcDbEntity
  8
0
100
AcDbBlockBegin
  2
*D12
 70
     1
 10
0.0
 20
0.0
 30
0.0
  3
*D12
  1

  0
LINE
  5
1441
330
143F
100
AcDbEntity
  8
2
 62
     0
100
AcDbLine
 10
79.4043238606034
 20
12.9694738019272
 30
0.0
 11
89.3034452997473
 21
11.6662296810936
 31
0.0
  0
LINE
  5
1442
330
143F
100
AcDbEntity
  8
2
 62
     0
100
AcDbLine
 10
64.791053
 20
15.025
 30
0.0
 11
89.5235907472058
 21
15.025
 31
0.0
  0
ARC
  5
1443
330
143F
100
AcDbEntity
  8
2
 62
     0
100
AcDbCircle
 10
63.791053
 20
15.025
 30
0.0
 40
23.73253774720577
100
AcDbArc
 50
340.4232667527696
 51
346.4616332072704
  0
ARC
  5
1444
330
143F
100
AcDbEntity
  8
2
 62
     0
100
AcDbCircle
 10
63.791053
 20
15.025
 30
0.0
 40
23.73253774720577
100
AcDbArc
 50
6.038366454500851
 51
12.0767329090017
  0
ARC
  5
1445
330
143F
100
AcDbEntity
  8
2
 62
     0
100
AcDbCircle
 10
63.791053
 20
15.025
 30
0.0
 40
23.73253774720577
100
AcDbArc
 50
352.4999996617713
 51
0.0
  0
SOLID
  5
1446
330
143F
100
AcDbEntity
  8
2
 62
     0
100
AcDbTrace
 10
86.4544796669845
 20
9.54536612017152
 30
0.0
 11
87.273807864496
 21
9.39322884923804
 31
0.0
 12
87.3205555785407
 22
11.9272820772391
 32
0.0
 13
87.3205555785407
 23
11.9272820772391
 33
0.0
  0
SOLID
  5
1447
330
143F
100
AcDbEntity
  8
2
 62
     0
100
AcDbTrace
 10
87.8080032999362
 20
17.5434758507797
 30
0.0
 11
86.975826669806
 21
17.4995839300015
 31
0.0
 12
87.5235907472058
 22
15.025
 32
0.0
 13
87.5235907472058
 23
15.025
 33
0.0
  0
MTEXT
  5
1448
102
{ACAD_XDICTIONARY
360
19F9
102
}
330
143F
100
AcDbEntity
  8
2
 62
     0
100
AcDbMText
 10
89.9037372093466
 20
19.7287918172728
 30
0.0
 40
3.5
 41
0.0
 71
     5
 72
     1
  1
\A1;7.5\U+00B0
  7
STANDARD 3.5 mm
 11
0.1772810845502058
 21
-0.9841602598462827
 31
0.0
 73
     1
 44
1.0
1001
ACAD
1000
MTEXTBEGIN
1070
    73
1070
     1
1070
    44
1040
1.0
1070
    74
1070
     0
1000
MTEXTEND
  0
POINT
  5
1449
330
143F
100
AcDbEntity
  8
DEFPOINTS
 62
     0
100
AcDbPoint
 10
87.4332812678884
 20
12.9565729523122
 30
0.0
  0
POINT
  5
144A
330
143F
100
AcDbEntity
  8
DEFPOINTS
 62
     0
100
AcDbPoint
 10
63.791053
 20
15.025
 30
0.0
  0
POINT
  5
144B
330
143F
100
AcDbEntity
  8
DEFPOINTS
 62
     0
100
AcDbPoint
 10
63.791053
 20
15.025
 30
0.0
  0
POINT
  5
144C
330
143F
100
AcDbEntity
  8
DEFPOINTS
 62
     0
100
AcDbPoint
 10
78.4128790000001
 20
13.1
 30
0.0
  0
POINT
  5
144D
330
143F
100
AcDbEntity
  8
DEFPOINTS
 62
     0
100
AcDbPoint
 10
50.0601660000001
 20
15.025
 30
0.0
  0
ENDBLK
  5
144E
330
143F
100
AcDbEntity
  8
0
100
AcDbBlockEnd
  0
BLOCK
  5
1618
330
1617
100
AcDbEntity
  8
0
100
AcDbBlockBegin
  2
*D13
 70
     1
 10
0.0
 20
0.0
 30
0.0
  3
*D13
  1

  0
LINE
  5
1CEA
330
1617
100
AcDbEntity
  8
2
 62
     0
100
AcDbLine
 10
64.791052389354
 20
19.0250003461855
 30
0.0
 11
122
 21
19.0250003461855
 31
0.0
  0
LINE
  5
1CEB
330
1617
100
AcDbEntity
  8
2
 62
     0
100
AcDbLine
 10
64.791052389354
 20
-19.0249996538144
 30
0.0
 11
122
 21
-19.0249996538145
 31
0.0
  0
LINE
  5
1CEC
330
1617
100
AcDbEntity
  8
2
 62
     0
100
AcDbLine
 10
120
 20
16.5250003461855
 30
0.0
 11
120
 21
-16.5249996538145
 31
0.0
  0
SOLID
  5
1CED
330
1617
100
AcDbEntity
  8
2
 62
     0
100
AcDbTrace
 10
119.583333333333
 20
16.5250003461855
 30
0.0
 11
120.416666666667
 21
16.5250003461855
 31
0.0
 12
120
 22
19.0250003461855
 32
0.0
 13
120
 23
19.0250003461855
 33
0.0
  0
SOLID
  5
1CEE
330
1617
100
AcDbEntity
  8
2
 62
     0
100
AcDbTrace
 10
119.583333333333
 20
-16.5249996538145
 30
0.0
 11
120.416666666667
 21
-16.5249996538145
 31
0.0
 12
120
 22
-19.0249996538145
 32
0.0
 13
120
 23
-19.0249996538145
 33
0.0
  0
MTEXT
  5
1CEF
330
1617
100
AcDbEntity
  8
2
 62
     0
100
AcDbMText
 10
117.136858749122
 20
4E-16
 30
0.0
 40
3.5
 41
0.0
 71
     5
 72
     1
  1
\A1;%%c38
  7
STANDARD 3.5 mm
 11
0.0000000000000001
 21
1.0
 31
0.0
 73
     1
 44
1.0
1001
ACAD
1000
MTEXTBEGIN
1070
    73
1070
     1
1070
    44
1040
1.0
1070
    74
1070
     0
1000
MTEXTEND
  0
POINT
  5
1CF0
330
1617
100
AcDbEntity
  8
DEFPOINTS
 62
     0
100
AcDbPoint
 10
63.791052389354
 20
19.0250003461855
 30
0.0
  0
POINT
  5
1CF1
330
1617
100
AcDbEntity
  8
DEFPOINTS
 62
     0
100
AcDbPoint
 10
63.791052389354
 20
-19.0249996538144
 30
0.0
  0
POINT
  5
1CF2
330
1617
100
AcDbEntity
  8
DEFPOINTS
 62
     0
100
AcDbPoint
 10
120
 20
-19.0249996538145
 30
0.0
  0
ENDBLK
  5
1619
330
1617
100
AcDbEntity
  8
0
100
AcDbBlockEnd
  0
BLOCK
  5
1624
330
1623
100
AcDbEntity
  8
0
100
AcDbBlockBegin
  2
*D14
 70
     1
 10
0.0
 20
0.0
 30
0.0
  3
*D14
  1

  0
LINE
  5
1CD8
330
1623
100
AcDbEntity
  8
2
 62
     0
100
AcDbLine
 10
80.5
 20
12.895
 30
0.0
 11
80.5
 21
62
 31
0.0
  0
LINE
  5
1CD9
330
1623
100
AcDbEntity
  8
2
 62
     0
100
AcDbLine
 10
48.060166389354
 20
20.0250003461855
 30
0.0
 11
48.060166389354
 21
62
 31
0.0
  0
LINE
  5
1CDA
330
1623
100
AcDbEntity
  8
2
 62
     0
100
AcDbLine
 10
78
 20
60
 30
0.0
 11
50.560166389354
 21
60
 31
0.0
  0
SOLID
  5
1CDB
330
1623
100
AcDbEntity
  8
2
 62
     0
100
AcDbTrace
 10
78
 20
60.4166666666667
 30
0.0
 11
78
 21
59.5833333333333
 31
0.0
 12
80.5
 22
60
 32
0.0
 13
80.5
 23
60
 33
0.0
  0
SOLID
  5
1CDC
330
1623
100
AcDbEntity
  8
2
 62
     0
100
AcDbTrace
 10
50.560166389354
 20
60.4166666666667
 30
0.0
 11
50.560166389354
 21
59.5833333333333
 31
0.0
 12
48.060166389354
 22
60
 32
0.0
 13
48.060166389354
 23
60
 33
0.0
  0
MTEXT
  5
1CDD
330
1623
100
AcDbEntity
  8
2
 62
     0
100
AcDbMText
 10
64.280083194677
 20
62.81148981026
 30
0.0
 40
3.5
 41
0.0
 71
     5
 72
     1
  1
\A1;32.4
  7
STANDARD 3.5 mm
 73
     1
 44
1.0
1001
ACAD
1000
MTEXTBEGIN
1070
    73
1070
     1
1070
    44
1040
1.0
1070
    74
1070
     0
1000
MTEXTEND
  0
POINT
  5
1CDE
330
1623
100
AcDbEntity
  8
DEFPOINTS
 62
     0
100
AcDbPoint
 10
80.5
 20
11.895
 30
0.0
  0
POINT
  5
1CDF
330
1623
100
AcDbEntity
  8
DEFPOINTS
 62
     0
100
AcDbPoint
 10
48.060166389354
 20
19.0250003461855
 30
0.0
  0
POINT
  5
1CE0
330
1623
100
AcDbEntity
  8
DEFPOINTS
 62
     0
100
AcDbPoint
 10
48.060166389354
 20
60
 30
0.0
  0
ENDBLK
  5
1625
330
1623
100
AcDbEntity
  8
0
100
AcDbBlockEnd
  0
BLOCK
  5
1630
330
162F
100
AcDbEntity
  8
0
100
AcDbBlockBegin
  2
*D15
 70
     1
 10
0.0
 20
0.0
 30
0.0
  3
*D15
  1

  0
LINE
  5
1C81
330
162F
100
AcDbEntity
  8
SK2
 62
     0
100
AcDbLine
 10
80.5000003893539
 20
16.8950003461855
 30
0.0
 11
80.5000003893539
 21
77
 31
0.0
  0
LINE
  5
1C82
330
162F
100
AcDbEntity
  8
SK2
 62
     0
100
AcDbLine
 10
31.5000003893539
 20
9.00000034618553
 30
0.0
 11
31.500000389354
 21
77
 31
0.0
  0
LINE
  5
1C83
330
162F
100
AcDbEntity
  8
SK2
 62
     0
100
AcDbLine
 10
78.0000003893539
 20
75
 30
0.0
 11
34.0000003893539
 21
75
 31
0.0
  0
SOLID
  5
1C84
330
162F
100
AcDbEntity
  8
SK2
 62
     0
100
AcDbTrace
 10
78.0000003893539
 20
75.4166666666667
 30
0.0
 11
78.0000003893539
 21
74.5833333333333
 31
0.0
 12
80.5000003893539
 22
75
 32
0.0
 13
80.5000003893539
 23
75
 33
0.0
  0
SOLID
  5
1C85
330
162F
100
AcDbEntity
  8
SK2
 62
     0
100
AcDbTrace
 10
34.0000003893539
 20
75.4166666666667
 30
0.0
 11
34.0000003893539
 21
74.5833333333333
 31
0.0
 12
31.500000389354
 22
75
 32
0.0
 13
31.500000389354
 23
75
 33
0.0
  0
MTEXT
  5
1C86
330
162F
100
AcDbEntity
  8
SK2
 62
     0
100
AcDbMText
 10
57.5
 20
77.81148981026
 30
0.0
 40
3.5
 41
0.0
 71
     5
 72
     1
  1
\A1;49
  7
STANDARD 3.5 mm
 73
     1
 44
1.0
1001
ACAD
1000
MTEXTBEGIN
1070
    73
1070
     1
1070
    44
1040
1.0
1070
    74
1070
     0
1000
MTEXTEND
  0
POINT
  5
1C87
330
162F
100
AcDbEntity
  8
DEFPOINTS
 62
     0
100
AcDbPoint
 10
80.5000003893539
 20
15.8950003461855
 30
0.0
  0
POINT
  5
1C88
330
162F
100
AcDbEntity
  8
DEFPOINTS
 62
     0
100
AcDbPoint
 10
31.5000003893539
 20
8.00000034618553
 30
0.0
  0
POINT
  5
1C89
330
162F
100
AcDbEntity
  8
DEFPOINTS
 62
     0
100
AcDbPoint
 10
31.500000389354
 20
75
 30
0.0
  0
ENDBLK
  5
1631
330
162F
100
AcDbEntity
  8
0
100
AcDbBlockEnd
  0
BLOCK
  5
163C
330
163B
100
AcDbEntity
  8
0
100
AcDbBlockBegin
  2
*D16
 70
     1
 10
0.0
 20
0.0
 30
0.0
  3
*D16
  1

  0
LINE
  5
1794
330
163B
100
AcDbEntity
  8
SK2
 62
     0
100
AcDbLine
 10
271.893056706641
 20
63.191930831207
 30
0.0
 11
268.669044378489
 21
63.191930831207
 31
0.0
  0
LINE
  5
1795
330
163B
100
AcDbEntity
  8
SK2
 62
     0
100
AcDbLine
 10
271.893056706641
 20
53.191930831207
 30
0.0
 11
268.669044378489
 21
53.191930831207
 31
0.0
  0
LINE
  5
1796
330
163B
100
AcDbEntity
  8
SK2
 62
     0
100
AcDbLine
 10
270.669044378489
 20
60.691930831207
 30
0.0
 11
270.669044378489
 21
55.691930831207
 31
0.0
  0
LINE
  5
1797
330
163B
100
AcDbEntity
  8
SK2
 62
     0
100
AcDbLine
 10
270.669044378489
 20
53.191930831207
 30
0.0
 11
270.669044378489
 21
40.157145167117
 31
0.0
  0
SOLID
  5
1798
330
163B
100
AcDbEntity
  8
SK2
 62
     0
100
AcDbTrace
 10
270.252377711822
 20
60.691930831207
 30
0.0
 11
271.085711045156
 21
60.691930831207
 31
0.0
 12
270.669044378489
 22
63.191930831207
 32
0.0
 13
270.669044378489
 23
63.191930831207
 33
0.0
  0
SOLID
  5
1799
330
163B
100
AcDbEntity
  8
SK2
 62
     0
100
AcDbTrace
 10
270.252377711822
 20
55.691930831207
 30
0.0
 11
271.085711045156
 21
55.691930831207
 31
0.0
 12
270.669044378489
 22
53.191930831207
 32
0.0
 13
270.669044378489
 23
53.191930831207
 33
0.0
  0
MTEXT
  5
179A
330
163B
100
AcDbEntity
  8
SK2
 62
     0
100
AcDbMText
 10
267.857554568229
 20
45.424537999162
 30
0.0
 40
3.5
 41
0.0
 71
     5
 72
     1
  1
\A1;M10
  7
STANDARD 3.5 mm
 11
0.0000000000000001
 21
1.0
 31
0.0
 73
     1
 44
1.0
1001
ACAD
1000
MTEXTBEGIN
1070
    73
1070
     1
1070
    44
1040
1.0
1070
    74
1070
     0
1000
MTEXTEND
  0
POINT
  5
179B
330
163B
100
AcDbEntity
  8
DEFPOINTS
 62
     0
100
AcDbPoint
 10
272.893056706641
 20
63.191930831207
 30
0.0
  0
POINT
  5
179C
330
163B
100
AcDbEntity
  8
DEFPOINTS
 62
     0
100
AcDbPoint
 10
272.893056706641
 20
53.191930831207
 30
0.0
  0
POINT
  5
179D
330
163B
100
AcDbEntity
  8
DEFPOINTS
 62
     0
100
AcDbPoint
 10
270.669044378489
 20
53.191930831207
 30
0.0
  0
ENDBLK
  5
163D
330
163B
100
AcDbEntity
  8
0
100
AcDbBlockEnd
  0
BLOCK
  5
1649
330
1648
100
AcDbEntity
  8
0
100
AcDbBlockBegin
  2
*D17
 70
     1
 10
0.0
 20
0.0
 30
0.0
  3
*D17
  1

  0
LINE
  5
179E
330
1648
100
AcDbEntity
  8
2
 62
     0
100
AcDbLine
 10
79.4043238606034
 20
12.9694738019272
 30
0.0
 11
89.3034452997472
 21
11.6662296810936
 31
0.0
  0
LINE
  5
179F
330
1648
100
AcDbEntity
  8
2
 62
     0
100
AcDbLine
 10
64.791053
 20
15.025
 30
0.0
 11
89.5235907472057
 21
15.025
 31
0.0
  0
ARC
  5
17A0
330
1648
100
AcDbEntity
  8
2
 62
     0
100
AcDbCircle
 10
63.791053
 20
15.025
 30
0.0
 40
23.73253774720567
100
AcDbArc
 50
340.4232667527696
 51
346.4616332072704
  0
ARC
  5
17A1
330
1648
100
AcDbEntity
  8
2
 62
     0
100
AcDbCircle
 10
63.791053
 20
15.025
 30
0.0
 40
23.73253774720567
100
AcDbArc
 50
6.038366454500862
 51
12.07673290900174
  0
ARC
  5
17A2
330
1648
100
AcDbEntity
  8
2
 62
     0
100
AcDbCircle
 10
63.791053
 20
15.025
 30
0.0
 40
23.73253774720567
100
AcDbArc
 50
352.4999996617713
 51
0.0
  0
SOLID
  5
17A3
330
1648
100
AcDbEntity
  8
2
 62
     0
100
AcDbTrace
 10
86.4544796669844
 20
9.54536612017154
 30
0.0
 11
87.2738078644959
 21
9.39322884923807
 31
0.0
 12
87.3205555785406
 22
11.9272820772392
 32
0.0
 13
87.3205555785406
 23
11.9272820772392
 33
0.0
  0
SOLID
  5
17A4
330
1648
100
AcDbEntity
  8
2
 62
     0
100
AcDbTrace
 10
87.8080032999361
 20
17.5434758507797
 30
0.0
 11
86.9758266698059
 21
17.4995839300015
 31
0.0
 12
87.5235907472057
 22
15.025
 32
0.0
 13
87.5235907472057
 23
15.025
 33
0.0
  0
MTEXT
  5
17A5
102
{ACAD_XDICTIONARY
360
1AA6
102
}
330
1648
100
AcDbEntity
  8
2
 62
     0
100
AcDbMText
 10
89.9037372093465
 20
19.7287918172727
 30
0.0
 40
3.5
 41
0.0
 71
     5
 72
     1
  1
\A1;7.5\U+00B0
  7
STANDARD 3.5 mm
 11
0.1772810845502045
 21
-0.9841602598462829
 31
0.0
 73
     1
 44
1.0
1001
ACAD
1000
MTEXTBEGIN
1070
    73
1070
     1
1070
    44
1040
1.0
1070
    74
1070
     0
1000
MTEXTEND
  0
POINT
  5
17A6
330
1648
100
AcDbEntity
  8
DEFPOINTS
 62
     0
100
AcDbPoint
 10
87.4332812678883
 20
12.9565729523122
 30
0.0
  0
POINT
  5
17A7
330
1648
100
AcDbEntity
  8
DEFPOINTS
 62
     0
100
AcDbPoint
 10
63.791053
 20
15.025
 30
0.0
  0
POINT
  5
17A8
330
1648
100
AcDbEntity
  8
DEFPOINTS
 62
     0
100
AcDbPoint
 10
63.791053
 20
15.025
 30
0.0
  0
POINT
  5
17A9
330
1648
100
AcDbEntity
  8
DEFPOINTS
 62
     0
100
AcDbPoint
 10
78.4128790000001
 20
13.1
 30
0.0
  0
POINT
  5
17AA
330
1648
100
AcDbEntity
  8
DEFPOINTS
 62
     0
100
AcDbPoint
 10
50.0601660000001
 20
15.025
 30
0.0
  0
ENDBLK
  5
164A
330
1648
100
AcDbEntity
  8
0
100
AcDbBlockEnd
  0
BLOCK
  5
1659
330
1658
100
AcDbEntity
  8
0
100
AcDbBlockBegin
  2
*D18
 70
     1
 10
0.0
 20
0.0
 30
0.0
  3
*D18
  1

  0
LINE
  5
1C9C
330
1658
100
AcDbEntity
  8
2
 62
     0
100
AcDbLine
 10
1E-16
 20
23.225
 30
0.0
 11
5.2E-15
 21
107
 31
0.0
  0
LINE
  5
1C9D
330
1658
100
AcDbEntity
  8
2
 62
     0
100
AcDbLine
 10
80.5
 20
12.895
 30
0.0
 11
80.5
 21
107
 31
0.0
  0
LINE
  5
1C9E
330
1658
100
AcDbEntity
  8
2
 62
     0
100
AcDbLine
 10
2.5
 20
105
 30
0.0
 11
78
 21
105
 31
0.0
  0
SOLID
  5
1C9F
330
1658
100
AcDbEntity
  8
2
 62
     0
100
AcDbTrace
 10
2.5
 20
105.416666666667
 30
0.0
 11
2.5
 21
104.583333333333
 31
0.0
 12
5.1E-15
 22
105
 32
0.0
 13
5.1E-15
 23
105
 33
0.0
  0
SOLID
  5
1CA0
330
1658
100
AcDbEntity
  8
2
 62
     0
100
AcDbTrace
 10
78
 20
105.416666666667
 30
0.0
 11
78
 21
104.583333333333
 31
0.0
 12
80.5
 22
105
 32
0.0
 13
80.5
 23
105
 33
0.0
  0
MTEXT
  5
1CA1
330
1658
100
AcDbEntity
  8
2
 62
     0
100
AcDbMText
 10
40.25
 20
107.81148981026
 30
0.0
 40
3.5
 41
0.0
 71
     5
 72
     1
  1
\A1;80.5
  7
STANDARD 3.5 mm
 73
     1
 44
1.0
1001
ACAD
1000
MTEXTBEGIN
1070
    73
1070
     1
1070
    44
1040
1.0
1070
    74
1070
     0
1000
MTEXTEND
  0
POINT
  5
1CA2
330
1658
100
AcDbEntity
  8
DEFPOINTS
 62
     0
100
AcDbPoint
 10
0
 20
22.225
 30
0.0
  0
POINT
  5
1CA3
330
1658
100
AcDbEntity
  8
DEFPOINTS
 62
     0
100
AcDbPoint
 10
80.5
 20
11.895
 30
0.0
  0
POINT
  5
1CA4
330
1658
100
AcDbEntity
  8
DEFPOINTS
 62
     0
100
AcDbPoint
 10
80.5
 20
105
 30
0.0
  0
ENDBLK
  5
165A
330
1658
100
AcDbEntity
  8
0
100
AcDbBlockEnd
  0
BLOCK
  5
1665
330
1664
100
AcDbEntity
  8
0
100
AcDbBlockBegin
  2
*D19
 70
     1
 10
0.0
 20
0.0
 30
0.0
  3
*D19
  1

  0
LINE
  5
1CE1
330
1664
100
AcDbEntity
  8
SK2
 62
     0
100
AcDbLine
 10
81.5000003893539
 20
7.94750034618552
 30
0.0
 11
107
 21
7.94750034618551
 31
0.0
  0
LINE
  5
1CE2
330
1664
100
AcDbEntity
  8
SK2
 62
     0
100
AcDbLine
 10
81.5000003893539
 20
-7.99999965381448
 30
0.0
 11
107
 21
-7.99999965381449
 31
0.0
  0
LINE
  5
1CE3
330
1664
100
AcDbEntity
  8
SK2
 62
     0
100
AcDbLine
 10
105
 20
5.44750034618551
 30
0.0
 11
105
 21
-5.49999965381449
 31
0.0
  0
SOLID
  5
1CE4
330
1664
100
AcDbEntity
  8
SK2
 62
     0
100
AcDbTrace
 10
104.583333333333
 20
5.44750034618551
 30
0.0
 11
105.416666666667
 21
5.44750034618551
 31
0.0
 12
105
 22
7.94750034618551
 32
0.0
 13
105
 23
7.94750034618551
 33
0.0
  0
SOLID
  5
1CE5
330
1664
100
AcDbEntity
  8
SK2
 62
     0
100
AcDbTrace
 10
104.583333333333
 20
-5.49999965381449
 30
0.0
 11
105.416666666667
 21
-5.49999965381449
 31
0.0
 12
105
 22
-7.99999965381449
 32
0.0
 13
105
 23
-7.99999965381449
 33
0.0
  0
MTEXT
  5
1CE6
330
1664
100
AcDbEntity
  8
SK2
 62
     0
100
AcDbMText
 10
102.136858749122
 20
-0.0262496538144691
 30
0.0
 40
3.5
 41
0.0
 71
     5
 72
     1
  1
\A1;%%c16
  7
STANDARD 3.5 mm
 11
0.0000000000000001
 21
1.0
 31
0.0
 73
     1
 44
1.0
1001
ACAD
1000
MTEXTBEGIN
1070
    73
1070
     1
1070
    44
1040
1.0
1070
    74
1070
     0
1000
MTEXTEND
  0
POINT
  5
1CE7
330
1664
100
AcDbEntity
  8
DEFPOINTS
 62
     0
100
AcDbPoint
 10
80.5000003893539
 20
7.94750034618552
 30
0.0
  0
POINT
  5
1CE8
330
1664
100
AcDbEntity
  8
DEFPOINTS
 62
     0
100
AcDbPoint
 10
80.5000003893539
 20
-7.99999965381448
 30
0.0
  0
POINT
  5
1CE9
330
1664
100
AcDbEntity
  8
DEFPOINTS
 62
     0
100
AcDbPoint
 10
105
 20
-7.99999965381449
 30
0.0
  0
ENDBLK
  5
1666
330
1664
100
AcDbEntity
  8
0
100
AcDbBlockEnd
  0
BLOCK
  5
167B
330
167A
100
AcDbEntity
  8
0
100
AcDbBlockBegin
  2
*D20
 70
     1
 10
0.0
 20
0.0
 30
0.0
  3
*D20
  1

  0
LINE
  5
1CB2
330
167A
100
AcDbEntity
  8
2
 62
     0
100
AcDbLine
 10
45.6054710000001
 20
24.625
 30
0.0
 11
137
 21
24.625
 31
0.0
  0
LINE
  5
1CB3
330
167A
100
AcDbEntity
  8
2
 62
     0
100
AcDbLine
 10
45.6054710000001
 20
-24.625
 30
0.0
 11
137
 21
-24.6250000000001
 31
0.0
  0
LINE
  5
1CB4
330
167A
100
AcDbEntity
  8
2
 62
     0
100
AcDbLine
 10
135
 20
22.125
 30
0.0
 11
135
 21
-22.1250000000001
 31
0.0
  0
SOLID
  5
1CB5
330
167A
100
AcDbEntity
  8
2
 62
     0
100
AcDbTrace
 10
134.583333333333
 20
22.125
 30
0.0
 11
135.416666666667
 21
22.125
 31
0.0
 12
135
 22
24.625
 32
0.0
 13
135
 23
24.625
 33
0.0
  0
SOLID
  5
1CB6
330
167A
100
AcDbEntity
  8
2
 62
     0
100
AcDbTrace
 10
134.583333333333
 20
-22.1250000000001
 30
0.0
 11
135.416666666667
 21
-22.1250000000001
 31
0.0
 12
135
 22
-24.6250000000001
 32
0.0
 13
135
 23
-24.6250000000001
 33
0.0
  0
MTEXT
  5
1CB7
330
167A
100
AcDbEntity
  8
2
 62
     0
100
AcDbMText
 10
132.136858749122
 20
-2.8E-14
 30
0.0
 40
3.5
 41
0.0
 71
     5
 72
     1
  1
\A1;%%c49.25
  7
STANDARD 3.5 mm
 11
0.0000000000000001
 21
1.0
 31
0.0
 73
     1
 44
1.0
1001
ACAD
1000
MTEXTBEGIN
1070
    73
1070
     1
1070
    44
1040
1.0
1070
    74
1070
     0
1000
MTEXTEND
  0
POINT
  5
1CB8
330
167A
100
AcDbEntity
  8
DEFPOINTS
 62
     0
100
AcDbPoint
 10
44.6054710000001
 20
24.625
 30
0.0
  0
POINT
  5
1CB9
330
167A
100
AcDbEntity
  8
DEFPOINTS
 62
     0
100
AcDbPoint
 10
44.6054710000001
 20
-24.625
 30
0.0
  0
POINT
  5
1CBA
330
167A
100
AcDbEntity
  8
DEFPOINTS
 62
     0
100
AcDbPoint
 10
135
 20
-24.6250000000001
 30
0.0
  0
ENDBLK
  5
167C
330
167A
100
AcDbEntity
  8
0
100
AcDbBlockEnd
  0
BLOCK
  5
1690
330
168F
100
AcDbEntity
  8
0
100
AcDbBlockBegin
  2
*D21
 70
     1
 10
0.0
 20
0.0
 30
0.0
  3
*D21
  1

  0
LINE
  5
1C8A
330
168F
100
AcDbEntity
  8
2
 62
     0
100
AcDbLine
 10
80.5
 20
12.895
 30
0.0
 11
80.5
 21
92
 31
0.0
  0
LINE
  5
1C8B
330
168F
100
AcDbEntity
  8
2
 62
     0
100
AcDbLine
 10
19.0500000000001
 20
32.035926
 30
0.0
 11
19.0500000000001
 21
92
 31
0.0
  0
LINE
  5
1C8C
330
168F
100
AcDbEntity
  8
2
 62
     0
100
AcDbLine
 10
78
 20
90
 30
0.0
 11
21.5500000000001
 21
90
 31
0.0
  0
SOLID
  5
1C8D
330
168F
100
AcDbEntity
  8
2
 62
     0
100
AcDbTrace
 10
78
 20
90.4166666666667
 30
0.0
 11
78
 21
89.5833333333333
 31
0.0
 12
80.5
 22
90
 32
0.0
 13
80.5
 23
90
 33
0.0
  0
SOLID
  5
1C8E
330
168F
100
AcDbEntity
  8
2
 62
     0
100
AcDbTrace
 10
21.5500000000001
 20
90.4166666666667
 30
0.0
 11
21.5500000000001
 21
89.5833333333333
 31
0.0
 12
19.0500000000001
 22
90
 32
0.0
 13
19.0500000000001
 23
90
 33
0.0
  0
MTEXT
  5
1C8F
330
168F
100
AcDbEntity
  8
2
 62
     0
100
AcDbMText
 10
49.775
 20
92.8114898102601
 30
0.0
 40
3.5
 41
0.0
 71
     5
 72
     1
  1
\A1;61.45
  7
STANDARD 3.5 mm
 73
     1
 44
1.0
1001
ACAD
1000
MTEXTBEGIN
1070
    73
1070
     1
1070
    44
1040
1.0
1070
    74
1070
     0
1000
MTEXTEND
  0
POINT
  5
1C90
330
168F
100
AcDbEntity
  8
DEFPOINTS
 62
     0
100
AcDbPoint
 10
80.5
 20
11.895
 30
0.0
  0
POINT
  5
1C91
330
168F
100
AcDbEntity
  8
DEFPOINTS
 62
     0
100
AcDbPoint
 10
19.0500000000001
 20
31.035926
 30
0.0
  0
POINT
  5
1C92
330
168F
100
AcDbEntity
  8
DEFPOINTS
 62
     0
100
AcDbPoint
 10
19.0500000000001
 20
90
 30
0.0
  0
ENDBLK
  5
1691
330
168F
100
AcDbEntity
  8
0
100
AcDbBlockEnd
  0
BLOCK
  5
16A5
330
16A4
100
AcDbEntity
  8
0
100
AcDbBlockBegin
  2
*D22
 70
     1
 10
0.0
 20
0.0
 30
0.0
  3
*D22
  1

  0
LINE
  5
1C78
330
16A4
100
AcDbEntity
  8
SK2
 62
     0
100
AcDbLine
 10
80.5
 20
12.895
 30
0.0
 11
80.5
 21
122
 31
0.0
  0
LINE
  5
1C79
330
16A4
100
AcDbEntity
  8
SK2
 62
     0
100
AcDbLine
 10
-68.2499999999999
 20
12.407305
 30
0.0
 11
-68.2499999999999
 21
122
 31
0.0
  0
LINE
  5
1C7A
330
16A4
100
AcDbEntity
  8
SK2
 62
     0
100
AcDbLine
 10
78
 20
120
 30
0.0
 11
-65.7499999999999
 21
120
 31
0.0
  0
SOLID
  5
1C7B
330
16A4
100
AcDbEntity
  8
SK2
 62
     0
100
AcDbTrace
 10
78
 20
120.416666666667
 30
0.0
 11
78
 21
119.583333333333
 31
0.0
 12
80.5
 22
120
 32
0.0
 13
80.5
 23
120
 33
0.0
  0
SOLID
  5
1C7C
330
16A4
100
AcDbEntity
  8
SK2
 62
     0
100
AcDbTrace
 10
-65.7499999999999
 20
120.416666666667
 30
0.0
 11
-65.7499999999999
 21
119.583333333333
 31
0.0
 12
-68.2499999999999
 22
120
 32
0.0
 13
-68.2499999999999
 23
120
 33
0.0
  0
MTEXT
  5
1C7D
330
16A4
100
AcDbEntity
  8
SK2
 62
     0
100
AcDbMText
 10
6.125
 20
122.81148981026
 30
0.0
 40
3.5
 41
0.0
 71
     5
 72
     1
  1
\A1;148.75
  7
STANDARD 3.5 mm
 73
     1
 44
1.0
1001
ACAD
1000
MTEXTBEGIN
1070
    73
1070
     1
1070
    44
1040
1.0
1070
    74
1070
     0
1000
MTEXTEND
  0
POINT
  5
1C7E
330
16A4
100
AcDbEntity
  8
DEFPOINTS
 62
     0
100
AcDbPoint
 10
80.5
 20
11.895
 30
0.0
  0
POINT
  5
1C7F
330
16A4
100
AcDbEntity
  8
DEFPOINTS
 62
     0
100
AcDbPoint
 10
-68.2499999999999
 20
11.407305
 30
0.0
  0
POINT
  5
1C80
330
16A4
100
AcDbEntity
  8
DEFPOINTS
 62
     0
100
AcDbPoint
 10
-68.2499999999999
 20
120
 30
0.0
  0
ENDBLK
  5
16A6
330
16A4
100
AcDbEntity
  8
0
100
AcDbBlockEnd
  0
BLOCK
  5
17F4
330
17F3
100
AcDbEntity
  8
0
100
AcDbBlockBegin
  2
*D23
 70
     1
 10
0.0
 20
0.0
 30
0.0
  3
*D23
  1

  0
LINE
  5
1CCE
330
17F3
100
AcDbEntity
  8
SK2
 62
     0
100
AcDbLine
 10
24.2500003893539
 20
6.00000034618553
 30
0.0
 11
34.4889322235071
 21
6.00000034618553
 31
0.0
  0
LINE
  5
1CCF
330
17F3
100
AcDbEntity
  8
SK2
 62
     0
100
AcDbLine
 10
24.2500003893539
 20
-5.99999965381447
 30
0.0
 11
34.4889322235071
 21
-5.99999965381447
 31
0.0
  0
LINE
  5
1CD0
330
17F3
100
AcDbEntity
  8
SK2
 62
     0
100
AcDbLine
 10
32.4889322235071
 20
3.50000034618553
 30
0.0
 11
32.4889322235071
 21
-3.49999965381447
 31
0.0
  0
LINE
  5
1CD1
330
17F3
100
AcDbEntity
  8
SK2
 62
     0
100
AcDbLine
 10
32.4889322235071
 20
-5.99999965381447
 30
0.0
 11
32.4889322235071
 21
-19.0003510241588
 31
0.0
  0
SOLID
  5
1CD2
330
17F3
100
AcDbEntity
  8
SK2
 62
     0
100
AcDbTrace
 10
32.0722655568405
 20
3.50000034618553
 30
0.0
 11
32.9055988901738
 21
3.50000034618553
 31
0.0
 12
32.4889322235071
 22
6.00000034618553
 32
0.0
 13
32.4889322235071
 23
6.00000034618553
 33
0.0
  0
SOLID
  5
1CD3
330
17F3
100
AcDbEntity
  8
SK2
 62
     0
100
AcDbTrace
 10
32.0722655568405
 20
-3.49999965381447
 30
0.0
 11
32.9055988901738
 21
-3.49999965381447
 31
0.0
 12
32.4889322235071
 22
-5.99999965381447
 32
0.0
 13
32.4889322235071
 23
-5.99999965381447
 33
0.0
  0
MTEXT
  5
1CD4
330
17F3
100
AcDbEntity
  8
SK2
 62
     0
100
AcDbMText
 10
29.7278640576603
 20
-13.7501753389866
 30
0.0
 40
3.5
 41
0.0
 71
     5
 72
     1
  1
\A1;M12
  7
STANDARD 3.5 mm
 11
0.0000000000000001
 21
1.0
 31
0.0
 73
     1
 44
1.0
1001
ACAD
1000
MTEXTBEGIN
1070
    73
1070
     1
1070
    44
1040
1.0
1070
    74
1070
     0
1000
MTEXTEND
  0
POINT
  5
1CD5
330
17F3
100
AcDbEntity
  8
DEFPOINTS
 62
     0
100
AcDbPoint
 10
23.2500003893539
 20
6.00000034618553
 30
0.0
  0
POINT
  5
1CD6
330
17F3
100
AcDbEntity
  8
DEFPOINTS
 62
     0
100
AcDbPoint
 10
23.2500003893539
 20
-5.99999965381447
 30
0.0
  0
POINT
  5
1CD7
330
17F3
100
AcDbEntity
  8
DEFPOINTS
 62
     0
100
AcDbPoint
 10
32.4889322235071
 20
-5.99999965381447
 30
0.0
  0
ENDBLK
  5
17F5
330
17F3
100
AcDbEntity
  8
0
100
AcDbBlockEnd
  0
BLOCK
  5
1845
330
1844
100
AcDbEntity
  8
0
100
AcDbBlockBegin
  2
*D24
 70
     1
 10
0.0
 20
0.0
 30
0.0
  3
*D24
  1

  0
LINE
  5
1CA5
330
1844
100
AcDbEntity
  8
SK2
 62
     0
100
AcDbLine
 10
79.4043242511125
 20
16.9694741568875
 30
0.0
 11
90.3190842685101
 21
15.532518772756
 31
0.0
  0
LINE
  5
1CA6
330
1844
100
AcDbEntity
  8
SK2
 62
     0
100
AcDbLine
 10
64.791052389354
 20
19.0250003461855
 30
0.0
 11
90.5479935994824
 21
19.0250003461855
 31
0.0
  0
ARC
  5
1CA7
330
1844
100
AcDbEntity
  8
SK2
 62
     0
100
AcDbCircle
 10
63.791052389354
 20
19.0250003461855
 30
0.0
 40
24.75694121012844
100
AcDbArc
 50
340.923418210503
 51
346.7117091896835
  0
ARC
  5
1CA8
330
1844
100
AcDbEntity
  8
SK2
 62
     0
100
AcDbCircle
 10
63.791052389354
 20
19.0250003461855
 30
0.0
 40
24.75694121012844
100
AcDbArc
 50
5.788290979180517
 51
11.57658195836102
  0
ARC
  5
1CA9
330
1844
100
AcDbEntity
  8
SK2
 62
     0
100
AcDbCircle
 10
63.791052389354
 20
19.0250003461855
 30
0.0
 40
24.75694121012844
100
AcDbArc
 50
352.500000168864
 51
0.0000000000000127
  0
SOLID
  5
1CAA
330
1844
100
AcDbEntity
  8
SK2
 62
     0
100
AcDbTrace
 10
87.4753188160954
 20
13.4097708051599
 30
0.0
 11
88.2949770758819
 21
13.259421938825
 31
0.0
 12
88.3361945449931
 22
15.793571151352
 32
0.0
 13
88.3361945449931
 23
15.793571151352
 33
0.0
  0
SOLID
  5
1CAB
330
1844
100
AcDbEntity
  8
SK2
 62
     0
100
AcDbTrace
 10
88.8379015913412
 20
21.5428495210504
 30
0.0
 11
88.00563115669
 21
21.5007737792281
 31
0.0
 12
88.5479935994824
 22
19.0250003461855
 32
0.0
 13
88.5479935994824
 23
19.0250003461855
 33
0.0
  0
MTEXT
  5
1CAC
102
{ACAD_XDICTIONARY
360
1EE5
102
}
330
1844
100
AcDbEntity
  8
SK2
 62
     0
100
AcDbMText
 10
89.8328965770596
 20
27.8824359818946
 30
0.0
 40
3.5
 41
0.0
 71
     5
 72
     1
  1
\A1;7\U+00B0
  7
STANDARD 3.5 mm
 11
0.3220072914704027
 21
-0.9467371885797531
 31
0.0
 73
     1
 44
1.0
1001
ACAD
1000
MTEXTBEGIN
1070
    73
1070
     1
1070
    44
1040
1.0
1070
    74
1070
     0
1000
MTEXTEND
  0
POINT
  5
1CAD
330
1844
100
AcDbEntity
  8
DEFPOINTS
 62
     0
100
AcDbPoint
 10
88.4537859680925
 20
16.8672907953145
 30
0.0
  0
POINT
  5
1CAE
330
1844
100
AcDbEntity
  8
DEFPOINTS
 62
     0
100
AcDbPoint
 10
63.791052389354
 20
19.0250003461855
 30
0.0
  0
POINT
  5
1CAF
330
1844
100
AcDbEntity
  8
DEFPOINTS
 62
     0
100
AcDbPoint
 10
78.412879389354
 20
17.1000003461855
 30
0.0
  0
POINT
  5
1CB0
330
1844
100
AcDbEntity
  8
DEFPOINTS
 62
     0
100
AcDbPoint
 10
63.791052389354
 20
19.0250003461855
 30
0.0
  0
POINT
  5
1CB1
330
1844
100
AcDbEntity
  8
DEFPOINTS
 62
     0
100
AcDbPoint
 10
48.060166389354
 20
19.0250003461855
 30
0.0
  0
ENDBLK
  5
1846
330
1844
100
AcDbEntity
  8
0
100
AcDbBlockEnd
  0
ENDSEC
  0
SECTION
  2
ENTITIES
  0
LINE
  5
1132
330
18
100
AcDbEntity
  8
1
370
    18
100
AcDbLine
 10
9.190000389354
 20
-28.9582166538145
 30
0.0
 11
9.190000389354
 21
-8.0949996538145
 31
0.0
  0
LINE
  5
1133
330
18
100
AcDbEntity
  8
1
370
    18
100
AcDbLine
 10
7.86683838935397
 20
-31.2499996538145
 30
0.0
 11
9.190000389354
 21
-28.9582166538145
 31
0.0
  0
LINE
  5
1134
330
18
100
AcDbEntity
  8
1
370
    18
100
AcDbLine
 10
13.0100003893539
 20
8.0950003461855
 30
0.0
 11
13.0100003893539
 21
28.9582173461855
 31
0.0
  0
LINE
  5
1135
330
18
100
AcDbEntity
  8
1
370
    18
100
AcDbLine
 10
14.333161389354
 20
31.2500003461855
 30
0.0
 11
13.0100003893539
 21
28.9582173461855
 31
0.0
  0
LINE
  5
1136
330
18
100
AcDbEntity
  8
1
370
    18
100
AcDbLine
 10
7.86683838935397
 20
-8.0949996538145
 30
0.0
 11
7.86683838935397
 21
-31.2499996538145
 31
0.0
  0
LINE
  5
1137
330
18
100
AcDbEntity
  8
1
370
    18
100
AcDbLine
 10
7.15276438935399
 20
-31.7499996538145
 30
0.0
 11
7.86683838935397
 21
-31.2499996538145
 31
0.0
  0
LINE
  5
1138
330
18
100
AcDbEntity
  8
1
370
    18
100
AcDbLine
 10
19.050000389354
 20
8.0950003461855
 30
0.0
 11
19.050000389354
 21
31.0359263461855
 31
0.0
  0
LINE
  5
1139
330
18
100
AcDbEntity
  8
1
370
    18
100
AcDbLine
 10
19.050000389354
 20
31.0359263461855
 30
0.0
 11
18.550000389354
 21
31.7500003461855
 31
0.0
  0
LINE
  5
113A
330
18
100
AcDbEntity
  8
1
370
    18
100
AcDbLine
 10
7.86683838935397
 20
8.0950003461855
 30
0.0
 11
7.86683838935397
 21
31.2500003461855
 31
0.0
  0
LINE
  5
113B
330
18
100
AcDbEntity
  8
1
370
    18
100
AcDbLine
 10
7.86683838935397
 20
31.2500003461855
 30
0.0
 11
7.15276438935399
 21
31.7500003461855
 31
0.0
  0
LINE
  5
113C
330
18
100
AcDbEntity
  8
1
370
    18
100
AcDbLine
 10
18.550000389354
 20
-8.0949996538145
 30
0.0
 11
15.0472353893541
 21
-8.0949996538145
 31
0.0
  0
LINE
  5
113D
330
18
100
AcDbEntity
  8
1
370
    18
100
AcDbLine
 10
15.0472353893541
 20
-31.7499996538145
 30
0.0
 11
18.550000389354
 21
-31.7499996538145
 31
0.0
  0
LINE
  5
113E
330
18
100
AcDbEntity
  8
1
370
    18
100
AcDbLine
 10
7.15276438935399
 20
8.0950003461855
 30
0.0
 11
3.70000038935399
 21
8.0950003461855
 31
0.0
  0
LINE
  5
113F
330
18
100
AcDbEntity
  8
1
370
    18
100
AcDbLine
 10
7.15276438935399
 20
8.0950003461855
 30
0.0
 11
7.15276438935399
 21
31.7500003461855
 31
0.0
  0
LINE
  5
1140
330
18
100
AcDbEntity
  8
1
370
    18
100
AcDbLine
 10
7.15276438935399
 20
31.7500003461855
 30
0.0
 11
3.70000038935399
 21
31.7500003461855
 31
0.0
  0
LINE
  5
1141
330
18
100
AcDbEntity
  8
1
370
    18
100
AcDbLine
 10
18.550000389354
 20
8.0950003461855
 30
0.0
 11
15.0472353893541
 21
8.0950003461855
 31
0.0
  0
LINE
  5
1142
330
18
100
AcDbEntity
  8
1
370
    18
100
AcDbLine
 10
18.550000389354
 20
8.0950003461855
 30
0.0
 11
18.550000389354
 21
31.7500003461855
 31
0.0
  0
LINE
  5
1143
330
18
100
AcDbEntity
  8
1
370
    18
100
AcDbLine
 10
18.550000389354
 20
31.7500003461855
 30
0.0
 11
15.0472353893541
 21
31.7500003461855
 31
0.0
  0
LINE
  5
1144
330
18
100
AcDbEntity
  8
1
370
    18
100
AcDbLine
 10
14.333161389354
 20
-8.0949996538145
 30
0.0
 11
14.333161389354
 21
-31.2499996538145
 31
0.0
  0
LINE
  5
1145
330
18
100
AcDbEntity
  8
1
370
    18
100
AcDbLine
 10
15.0472353893541
 20
-31.7499996538145
 30
0.0
 11
15.0472353893541
 21
-8.0949996538145
 31
0.0
  0
LINE
  5
1146
330
18
100
AcDbEntity
  8
1
370
    18
100
AcDbLine
 10
14.333161389354
 20
-31.2499996538145
 30
0.0
 11
15.0472353893541
 21
-31.7499996538145
 31
0.0
  0
LINE
  5
1147
330
18
100
AcDbEntity
  8
1
370
    18
100
AcDbLine
 10
18.550000389354
 20
-31.7499996538145
 30
0.0
 11
18.550000389354
 21
-8.0949996538145
 31
0.0
  0
LINE
  5
1148
330
18
100
AcDbEntity
  8
1
370
    18
100
AcDbLine
 10
19.050000389354
 20
-31.0359256538144
 30
0.0
 11
19.050000389354
 21
-8.0949996538145
 31
0.0
  0
LINE
  5
116F
330
18
100
AcDbEntity
  8
1
370
    18
100
AcDbLine
 10
18.550000389354
 20
-31.7499996538145
 30
0.0
 11
19.050000389354
 21
-31.0359256538144
 31
0.0
  0
LINE
  5
1170
330
18
100
AcDbEntity
  8
1
370
    18
100
AcDbLine
 10
7.15276438935399
 20
-31.7499996538145
 30
0.0
 11
7.15276438935399
 21
-8.0949996538145
 31
0.0
  0
LINE
  5
1171
330
18
100
AcDbEntity
  8
1
370
    18
100
AcDbLine
 10
7.15276438935399
 20
-8.0949996538145
 30
0.0
 11
3.70000038935399
 21
-8.0949996538145
 31
0.0
  0
LINE
  5
1172
330
18
100
AcDbEntity
  8
1
370
    18
100
AcDbLine
 10
3.70000038935399
 20
-31.7499996538145
 30
0.0
 11
7.15276438935399
 21
-31.7499996538145
 31
0.0
  0
LINE
  5
1173
330
18
100
AcDbEntity
  8
1
370
    18
100
AcDbLine
 10
3.20000038935399
 20
8.0950003461855
 30
0.0
 11
3.20000038935399
 21
31.0359263461855
 31
0.0
  0
LINE
  5
1174
330
18
100
AcDbEntity
  8
1
370
    18
100
AcDbLine
 10
3.70000038935399
 20
8.0950003461855
 30
0.0
 11
3.70000038935399
 21
31.7500003461855
 31
0.0
  0
LINE
  5
1175
330
18
100
AcDbEntity
  8
1
370
    18
100
AcDbLine
 10
3.70000038935399
 20
31.7500003461855
 30
0.0
 11
3.20000038935399
 21
31.0359263461855
 31
0.0
  0
LINE
  5
1176
330
18
100
AcDbEntity
  8
1
370
    18
100
AcDbLine
 10
3.20000038935399
 20
-31.0359256538144
 30
0.0
 11
3.20000038935399
 21
-8.0949996538145
 31
0.0
  0
LINE
  5
1177
330
18
100
AcDbEntity
  8
1
370
    18
100
AcDbLine
 10
3.70000038935399
 20
-31.7499996538145
 30
0.0
 11
3.70000038935399
 21
-8.0949996538145
 31
0.0
  0
LINE
  5
1178
330
18
100
AcDbEntity
  8
1
370
    18
100
AcDbLine
 10
3.20000038935399
 20
-31.0359256538144
 30
0.0
 11
3.70000038935399
 21
-31.7499996538145
 31
0.0
  0
LINE
  5
1179
330
18
100
AcDbEntity
  8
1
370
    18
100
AcDbLine
 10
14.333161389354
 20
8.0950003461855
 30
0.0
 11
14.333161389354
 21
31.2500003461855
 31
0.0
  0
LINE
  5
117A
330
18
100
AcDbEntity
  8
1
370
    18
100
AcDbLine
 10
15.0472353893541
 20
31.7500003461855
 30
0.0
 11
15.0472353893541
 21
8.0950003461855
 31
0.0
  0
LINE
  5
117B
330
18
100
AcDbEntity
  8
1
370
    18
100
AcDbLine
 10
15.0472353893541
 20
31.7500003461855
 30
0.0
 11
14.333161389354
 21
31.2500003461855
 31
0.0
  0
LINE
  5
117D
330
18
100
AcDbEntity
  8
SK3
370
    13
100
AcDbLine
 10
4.39913938935404
 20
-4.49999965381447
 30
0.0
 11
4.39913938935404
 21
4.50000034618553
 31
0.0
  0
LINE
  5
117E
330
18
100
AcDbEntity
  8
SK3
370
    13
100
AcDbLine
 10
5.00000038935394
 20
5.50000034618553
 30
0.0
 11
4.39913938935404
 21
4.50000034618553
 31
0.0
  0
LINE
  5
117F
330
18
100
AcDbEntity
  8
SK3
370
    13
100
AcDbLine
 10
5.00000038935394
 20
-5.49999965381447
 30
0.0
 11
4.39913938935404
 21
-4.49999965381447
 31
0.0
  0
LINE
  5
1180
330
18
100
AcDbEntity
  8
SK3
370
    13
100
AcDbLine
 10
5.00000038935394
 20
5.50000034618553
 30
0.0
 11
5.00000038935394
 21
-5.49999965381447
 31
0.0
  0
LINE
  5
1181
330
18
100
AcDbEntity
  8
SK3
370
    13
100
AcDbLine
 10
5.00000038935394
 20
5.50000034618553
 30
0.0
 11
30.0000003893539
 21
5.50000034618553
 31
0.0
  0
LINE
  5
1182
330
18
100
AcDbEntity
  8
SK3
370
    13
100
AcDbLine
 10
5.00000038935394
 20
-5.49999965381447
 30
0.0
 11
30.0000003893539
 21
-5.49999965381447
 31
0.0
  0
LINE
  5
1185
330
18
100
AcDbEntity
  8
SK3
370
    13
100
AcDbLine
 10
80.5000003893539
 20
-7.99999965381448
 30
0.0
 11
39.5000003893539
 21
-7.99999965381447
 31
0.0
  0
LINE
  5
1186
330
18
100
AcDbEntity
  8
SK3
370
    13
100
AcDbLine
 10
80.5000003893539
 20
8.00000034618553
 30
0.0
 11
39.5000003893539
 21
8.00000034618553
 31
0.0
  0
LINE
  5
119E
330
18
100
AcDbEntity
  8
1
370
    13
100
AcDbLine
 10
47.308412389354
 20
-19.5513836538145
 30
0.0
 11
47.308412389354
 21
19.5513843461855
 31
0.0
  0
LINE
  5
119F
330
18
100
AcDbEntity
  8
1
370
    18
100
AcDbLine
 10
47.308412389354
 20
19.5513843461855
 30
0.0
 11
45.9407373893539
 21
23.3090403461855
 31
0.0
  0
LINE
  5
11A0
330
18
100
AcDbEntity
  8
1
370
    18
100
AcDbLine
 10
47.308412389354
 20
-19.5513836538145
 30
0.0
 11
45.9407373893539
 21
-23.3090396538145
 31
0.0
  0
LINE
  5
11A1
330
18
100
AcDbEntity
  8
1
370
    18
100
AcDbLine
 10
19.1500003893539
 20
-24.8795976538145
 30
0.0
 11
19.1500003893539
 21
-25.0377016538145
 31
0.0
  0
LINE
  5
11A2
330
18
100
AcDbEntity
  8
1
370
    18
100
AcDbLine
 10
3.20000038935399
 20
6.49500034618553
 30
0.0
 11
3.20000038935399
 21
8.0950003461855
 31
0.0
  0
LINE
  5
11A3
330
18
100
AcDbEntity
  8
1
370
    13
100
AcDbLine
 10
3.20000038935399
 20
6.49500034618553
 30
0.0
 11
19.455000389354
 21
6.49500034618553
 31
0.0
  0
LINE
  5
11A4
330
18
100
AcDbEntity
  8
1
370
    18
100
AcDbLine
 10
3.20000038935399
 20
-6.49499965381447
 30
0.0
 11
3.20000038935399
 21
-8.0949996538145
 31
0.0
  0
LINE
  5
11A5
330
18
100
AcDbEntity
  8
1
370
    13
100
AcDbLine
 10
19.455000389354
 20
-6.49499965381447
 30
0.0
 11
3.20000038935399
 21
-6.49499965381447
 31
0.0
  0
LINE
  5
11A6
330
18
100
AcDbEntity
  8
1
370
    13
100
AcDbLine
 10
19.455000389354
 20
6.49500034618553
 30
0.0
 11
19.455000389354
 21
7.89953734618554
 31
0.0
  0
LINE
  5
11A7
330
18
100
AcDbEntity
  8
1
370
    13
100
AcDbLine
 10
19.455000389354
 20
-6.49499965381447
 30
0.0
 11
19.455000389354
 21
-7.89953665381448
 31
0.0
  0
LINE
  5
11A8
330
18
100
AcDbEntity
  8
1
370
    13
100
AcDbLine
 10
45.9407373893539
 20
-23.3090396538145
 30
0.0
 11
45.9407373893539
 21
23.3090403461855
 31
0.0
  0
LINE
  5
11A9
330
18
100
AcDbEntity
  8
1
370
    13
100
AcDbLine
 10
19.850000389354
 20
-24.5389766538145
 30
0.0
 11
19.850000389354
 21
-7.83717965381446
 31
0.0
  0
LINE
  5
11AA
330
18
100
AcDbEntity
  8
1
370
    18
100
AcDbLine
 10
19.850000389354
 20
-24.5389766538145
 30
0.0
 11
44.061351389354
 21
-24.5389766538145
 31
0.0
  0
LINE
  5
11AD
330
18
100
AcDbEntity
  8
SK1
370
    18
100
AcDbLine
 10
-68.249999610646
 20
-11.4073046538145
 30
0.0
 11
-68.249999610646
 21
11.4073053461855
 31
0.0
  0
LINE
  5
11AE
330
18
100
AcDbEntity
  8
1
370
    18
100
AcDbLine
 10
80.5000003893539
 20
-15.8949996538145
 30
0.0
 11
80.5000003893539
 21
15.8950003461855
 31
0.0
  0
LINE
  5
11AF
330
18
100
AcDbEntity
  8
1
370
    18
100
AcDbLine
 10
80.5000003893539
 20
15.8950003461855
 30
0.0
 11
78.412879389354
 21
17.1000003461855
 31
0.0
  0
LINE
  5
11B0
330
18
100
AcDbEntity
  8
1
370
    18
100
AcDbLine
 10
80.5000003893539
 20
-15.8949996538145
 30
0.0
 11
78.412879389354
 21
-17.0999996538145
 31
0.0
  0
LINE
  5
11B1
330
18
100
AcDbEntity
  8
1
370
    18
100
AcDbLine
 10
63.791052389354
 20
19.0250003461855
 30
0.0
 11
48.060166389354
 21
19.0250003461855
 31
0.0
  0
LINE
  5
11B2
330
18
100
AcDbEntity
  8
1
370
    18
100
AcDbLine
 10
63.791052389354
 20
-19.0249996538144
 30
0.0
 11
48.060166389354
 21
-19.0249996538144
 31
0.0
  0
LINE
  5
11B3
330
18
100
AcDbEntity
  8
1
370
    18
100
AcDbLine
 10
78.412879389354
 20
-17.0999996538145
 30
0.0
 11
78.412879389354
 21
17.1000003461855
 31
0.0
  0
LINE
  5
11B4
330
18
100
AcDbEntity
  8
1
370
    18
100
AcDbLine
 10
63.791052389354
 20
19.0250003461855
 30
0.0
 11
78.412879389354
 21
17.1000003461855
 31
0.0
  0
LINE
  5
11B5
330
18
100
AcDbEntity
  8
1
370
    18
100
AcDbLine
 10
63.791052389354
 20
-19.0249996538144
 30
0.0
 11
63.791052389354
 21
19.0250003461855
 31
0.0
  0
LINE
  5
11B6
330
18
100
AcDbEntity
  8
1
370
    18
100
AcDbLine
 10
63.791052389354
 20
-19.0249996538144
 30
0.0
 11
78.412879389354
 21
-17.0999996538145
 31
0.0
  0
LINE
  5
11B7
330
18
100
AcDbEntity
  8
1
370
    13
100
AcDbLine
 10
48.060166389354
 20
-19.0249996538144
 30
0.0
 11
48.060166389354
 21
19.0250003461855
 31
0.0
  0
LINE
  5
11B8
330
18
100
AcDbEntity
  8
1
370
    18
100
AcDbLine
 10
3.893539429E-07
 20
22.2250003461855
 30
0.0
 11
2.40000038935392
 21
22.2250003461855
 31
0.0
  0
LINE
  5
11B9
330
18
100
AcDbEntity
  8
1
370
    18
100
AcDbLine
 10
3.893539429E-07
 20
-22.2249996538145
 30
0.0
 11
2.40000038935392
 21
-22.2249996538145
 31
0.0
  0
LINE
  5
11BA
330
18
100
AcDbEntity
  8
1
370
    18
100
AcDbLine
 10
3.893539429E-07
 20
-22.2249996538145
 30
0.0
 11
3.893539429E-07
 21
22.2250003461855
 31
0.0
  0
LINE
  5
11BB
330
18
100
AcDbEntity
  8
SK1
370
    18
100
AcDbLine
 10
3.893539429E-07
 20
22.2250003461855
 30
0.0
 11
-67.394304610646
 21
12.3968383461855
 31
0.0
  0
LINE
  5
11BC
330
18
100
AcDbEntity
  8
SK1
370
    13
100
AcDbLine
 10
-67.394304610646
 20
-12.3968376538145
 30
0.0
 11
-67.394304610646
 21
12.3968383461855
 31
0.0
  0
LINE
  5
11BD
330
18
100
AcDbEntity
  8
SK1
370
    18
100
AcDbLine
 10
3.893539429E-07
 20
-22.2249996538145
 30
0.0
 11
-67.394304610646
 21
-12.3968376538145
 31
0.0
  0
LINE
  5
11BE
330
18
100
AcDbEntity
  8
1
370
    13
100
AcDbLine
 10
2.40000038935392
 20
-22.2249996538145
 30
0.0
 11
2.40000038935392
 21
22.2250003461855
 31
0.0
  0
LINE
  5
11F9
330
18
100
AcDbEntity
  8
SK3
370
    13
100
AcDbLine
 10
30.4000003893539
 20
-8.17499965381448
 30
0.0
 11
30.4000003893539
 21
8.17500034618554
 31
0.0
  0
LINE
  5
11FA
330
18
100
AcDbEntity
  8
SK3
370
    13
100
AcDbLine
 10
39.5000003893539
 20
8.17500034618554
 30
0.0
 11
30.4000003893539
 21
8.17500034618554
 31
0.0
  0
LINE
  5
11FB
330
18
100
AcDbEntity
  8
SK3
370
    13
100
AcDbLine
 10
39.5000003893539
 20
-8.17499965381448
 30
0.0
 11
39.5000003893539
 21
8.17500034618554
 31
0.0
  0
LINE
  5
11FC
330
18
100
AcDbEntity
  8
SK3
370
    13
100
AcDbLine
 10
30.4000003893539
 20
-8.17499965381448
 30
0.0
 11
39.5000003893539
 21
-8.17499965381448
 31
0.0
  0
LINE
  5
1203
330
18
100
AcDbEntity
  8
SK3
370
    13
100
AcDbLine
 10
30.0000003893539
 20
-5.19999965381446
 30
0.0
 11
29.300000389354
 21
-5.19999965381446
 31
0.0
  0
LINE
  5
1204
330
18
100
AcDbEntity
  8
SK3
370
    13
100
AcDbLine
 10
30.0000003893539
 20
5.20000034618552
 30
0.0
 11
29.300000389354
 21
5.20000034618552
 31
0.0
  0
LINE
  5
1205
102
{ACAD_REACTORS
330
1800
102
}
330
18
100
AcDbEntity
  8
SK3
370
    13
100
AcDbLine
 10
28.5000003893539
 20
-5.99999965381447
 30
0.0
 11
18.0000003893539
 21
-5.99999965381447
 31
0.0
  0
LINE
  5
1206
102
{ACAD_REACTORS
330
1800
102
}
330
18
100
AcDbEntity
  8
SK3
370
    13
100
AcDbLine
 10
28.5000003893539
 20
6.00000034618553
 30
0.0
 11
18.0000003893539
 21
6.00000034618553
 31
0.0
  0
LINE
  5
1207
330
18
100
AcDbEntity
  8
SK3
370
    13
100
AcDbLine
 10
17.5000003893539
 20
5.50000034618553
 30
0.0
 11
18.0000003893539
 21
6.00000034618553
 31
0.0
  0
LINE
  5
1208
330
18
100
AcDbEntity
  8
SK3
370
    13
100
AcDbLine
 10
17.5000003893539
 20
5.50000034618553
 30
0.0
 11
17.5000003893539
 21
-5.49999965381447
 31
0.0
  0
LINE
  5
1209
330
18
100
AcDbEntity
  8
SK3
370
    13
100
AcDbLine
 10
17.5000003893539
 20
-5.49999965381447
 30
0.0
 11
18.0000003893539
 21
-5.99999965381447
 31
0.0
  0
LINE
  5
120A
330
18
100
AcDbEntity
  8
SK3
370
    13
100
AcDbLine
 10
18.0000003893539
 20
6.00000034618553
 30
0.0
 11
18.0000003893539
 21
-5.99999965381447
 31
0.0
  0
LINE
  5
120B
330
18
100
AcDbEntity
  8
SK3
370
    13
100
AcDbLine
 10
28.5000003893539
 20
-5.99999965381447
 30
0.0
 11
29.300000389354
 21
-5.19999965381446
 31
0.0
  0
LINE
  5
120C
330
18
100
AcDbEntity
  8
SK3
370
    13
100
AcDbLine
 10
29.300000389354
 20
5.20000034618552
 30
0.0
 11
29.300000389354
 21
-5.19999965381446
 31
0.0
  0
LINE
  5
120D
330
18
100
AcDbEntity
  8
SK3
370
    13
100
AcDbLine
 10
28.5000003893539
 20
6.00000034618553
 30
0.0
 11
29.300000389354
 21
5.20000034618552
 31
0.0
  0
LINE
  5
120E
330
18
100
AcDbEntity
  8
SK3
370
    13
100
AcDbLine
 10
31.5000003893539
 20
8.00000034618553
 30
0.0
 11
31.5000003893539
 21
-7.99999965381447
 31
0.0
  0
LINE
  5
120F
330
18
100
AcDbEntity
  8
SK3
370
    13
100
AcDbLine
 10
30.0000003893539
 20
8.00000034618553
 30
0.0
 11
30.0000003893539
 21
-7.99999965381447
 31
0.0
  0
LINE
  5
1210
330
18
100
AcDbEntity
  8
SK3
370
    13
100
AcDbLine
 10
30.0000003893539
 20
-7.99999965381447
 30
0.0
 11
31.5000003893539
 21
-7.99999965381447
 31
0.0
  0
LINE
  5
1211
330
18
100
AcDbEntity
  8
SK3
370
    13
100
AcDbLine
 10
30.0000003893539
 20
8.00000034618553
 30
0.0
 11
31.5000003893539
 21
8.00000034618553
 31
0.0
  0
LINE
  5
1214
330
18
100
AcDbEntity
  8
1
370
    13
100
AcDbLine
 10
44.061351389354
 20
-24.5389766538145
 30
0.0
 11
44.061351389354
 21
24.6250003461855
 31
0.0
  0
LINE
  5
1215
330
18
100
AcDbEntity
  8
1
370
    13
100
AcDbLine
 10
19.850000389354
 20
24.6250003461855
 30
0.0
 11
19.850000389354
 21
7.83718034618558
 31
0.0
  0
LINE
  5
1216
330
18
100
AcDbEntity
  8
1
370
    18
100
AcDbLine
 10
44.061351389354
 20
24.6250003461855
 30
0.0
 11
19.850000389354
 21
24.6250003461855
 31
0.0
  0
LINE
  5
1217
330
18
100
AcDbEntity
  8
1
370
    18
100
AcDbLine
 10
12.410000389354
 20
-8.0949996538145
 30
0.0
 11
9.79000038935402
 21
-8.0949996538145
 31
0.0
  0
LINE
  5
1218
330
18
100
AcDbEntity
  8
1
370
    18
100
AcDbLine
 10
9.79000038935402
 20
-27.9999996538145
 30
0.0
 11
12.410000389354
 21
-27.9999996538145
 31
0.0
  0
LINE
  5
1219
330
18
100
AcDbEntity
  8
1
370
    18
100
AcDbLine
 10
12.410000389354
 20
8.0950003461855
 30
0.0
 11
9.79000038935402
 21
8.0950003461855
 31
0.0
  0
LINE
  5
121A
330
18
100
AcDbEntity
  8
1
370
    18
100
AcDbLine
 10
12.410000389354
 20
28.0000003461855
 30
0.0
 11
9.79000038935402
 21
28.0000003461855
 31
0.0
  0
LINE
  5
121B
330
18
100
AcDbEntity
  8
1
370
    13
100
AcDbLine
 10
9.79000038935402
 20
-8.0949996538145
 30
0.0
 11
9.79000038935402
 21
-27.9999996538145
 31
0.0
  0
LINE
  5
121C
330
18
100
AcDbEntity
  8
1
370
    13
100
AcDbLine
 10
12.410000389354
 20
8.0950003461855
 30
0.0
 11
12.410000389354
 21
28.0000003461855
 31
0.0
  0
LINE
  5
121D
330
18
100
AcDbEntity
  8
1
370
    13
100
AcDbLine
 10
12.410000389354
 20
-8.0949996538145
 30
0.0
 11
12.410000389354
 21
-27.9999996538145
 31
0.0
  0
LINE
  5
121E
330
18
100
AcDbEntity
  8
1
370
    13
100
AcDbLine
 10
9.79000038935402
 20
8.0950003461855
 30
0.0
 11
9.79000038935402
 21
28.0000003461855
 31
0.0
  0
LINE
  5
121F
330
18
100
AcDbEntity
  8
1
370
    18
100
AcDbLine
 10
9.190000389354
 20
28.9582173461855
 30
0.0
 11
9.190000389354
 21
8.0950003461855
 31
0.0
  0
LINE
  5
1220
330
18
100
AcDbEntity
  8
1
370
    18
100
AcDbLine
 10
9.190000389354
 20
28.9582173461855
 30
0.0
 11
7.86683838935397
 21
31.2500003461855
 31
0.0
  0
LINE
  5
1221
330
18
100
AcDbEntity
  8
1
370
    18
100
AcDbLine
 10
13.0100003893539
 20
-28.9582166538145
 30
0.0
 11
13.0100003893539
 21
-8.0949996538145
 31
0.0
  0
LINE
  5
1222
330
18
100
AcDbEntity
  8
1
370
    18
100
AcDbLine
 10
13.0100003893539
 20
-28.9582166538145
 30
0.0
 11
14.333161389354
 21
-31.2499996538145
 31
0.0
  0
LINE
  5
124C
330
18
100
AcDbEntity
  8
1
370
    18
100
AcDbLine
 10
3.20000038935399
 20
-6.49499965381447
 30
0.0
 11
3.20000038935399
 21
-4.4043476538145
 31
0.0
  0
LINE
  5
124D
330
18
100
AcDbEntity
  8
1
370
    18
100
AcDbLine
 10
3.20000038935399
 20
4.40878534618555
 30
0.0
 11
3.20000038935399
 21
6.49500034618553
 31
0.0
  0
LINE
  5
1250
330
18
100
AcDbEntity
  8
SK3
370
    13
100
AcDbLine
 10
28.5000003893539
 20
-5.99999965381447
 30
0.0
 11
28.5000003893539
 21
5.99999734618554
 31
0.0
  0
ARC
  5
1257
330
18
100
AcDbEntity
  8
1
370
    18
100
AcDbCircle
 10
19.850000389354
 20
25.4250003461855
 30
0.0
 40
0.8
100
AcDbArc
 50
180.0
 51
270.0
  0
ARC
  5
1258
330
18
100
AcDbEntity
  8
1
370
    18
100
AcDbCircle
 10
19.850000389354
 20
-25.4249996538145
 30
0.0
 40
0.8
100
AcDbArc
 50
151.0449760000003
 51
180.0
  0
ARC
  5
1259
330
18
100
AcDbEntity
  8
1
370
    13
100
AcDbCircle
 10
19.455000389354
 20
3.4618553E-07
 30
0.0
 40
6.495
100
AcDbArc
 50
270.0
 51
90.0
  0
ARC
  5
125A
330
18
100
AcDbEntity
  8
1
370
    18
100
AcDbCircle
 10
44.061351389354
 20
22.6250003461855
 30
0.0
 40
2.0
100
AcDbArc
 50
20.00000000000009
 51
90.0
  0
ARC
  5
125B
330
18
100
AcDbEntity
  8
1
370
    18
100
AcDbCircle
 10
44.061351389354
 20
-22.6249996538145
 30
0.0
 40
2.0
100
AcDbArc
 50
330.3642719999981
 51
339.9999999999999
  0
ARC
  5
125C
330
18
100
AcDbEntity
  8
SK1
370
    18
100
AcDbCircle
 10
-67.249999610646
 20
-11.4073046538145
 30
0.0
 40
1.0
100
AcDbArc
 50
180.0
 51
261.7029999999989
  0
ARC
  5
125D
330
18
100
AcDbEntity
  8
SK1
370
    18
100
AcDbCircle
 10
-67.249999610646
 20
11.4073053461855
 30
0.0
 40
1.0
100
AcDbArc
 50
98.29700000000105
 51
180.0
  0
ARC
  5
125E
330
18
100
AcDbEntity
  8
1
370
    18
100
AcDbCircle
 10
48.060166389354
 20
19.8250003461855
 30
0.0
 40
0.8
100
AcDbArc
 50
200.0000000000001
 51
270.0
  0
ARC
  5
125F
330
18
100
AcDbEntity
  8
1
370
    18
100
AcDbCircle
 10
48.060166389354
 20
-19.8249996538145
 30
0.0
 40
0.8
100
AcDbArc
 50
90.0
 51
159.9999999999999
  0
ARC
  5
1260
330
18
100
AcDbEntity
  8
1
370
    18
100
AcDbCircle
 10
2.40000038935392
 20
23.0250003461855
 30
0.0
 40
0.8
100
AcDbArc
 50
270.0
 51
0.0
  0
ARC
  5
1261
330
18
100
AcDbEntity
  8
1
370
    18
100
AcDbCircle
 10
2.40000038935392
 20
-23.0249996538145
 30
0.0
 40
0.8
100
AcDbArc
 50
0.0
 51
90.0
  0
ARC
  5
1262
330
18
100
AcDbEntity
  8
SK3
370
    13
100
AcDbCircle
 10
30.4000003893539
 20
7.77500034618551
 30
0.0
 40
0.4
100
AcDbArc
 50
90.0
 51
180.0
  0
ARC
  5
1263
330
18
100
AcDbEntity
  8
SK3
370
    13
100
AcDbCircle
 10
30.4000003893539
 20
-7.77499965381445
 30
0.0
 40
0.4
100
AcDbArc
 50
180.0
 51
270.0
  0
ARC
  5
1264
330
18
100
AcDbEntity
  8
1
370
    18
100
AcDbCircle
 10
9.79000038935402
 20
-28.5999996538145
 30
0.0
 40
0.6
100
AcDbArc
 50
90.0
 51
180.0
  0
ARC
  5
1265
330
18
100
AcDbEntity
  8
1
370
    18
100
AcDbCircle
 10
12.410000389354
 20
28.6000003461855
 30
0.0
 40
0.6
100
AcDbArc
 50
270.0
 51
0.0
  0
ARC
  5
1266
330
18
100
AcDbEntity
  8
1
370
    18
100
AcDbCircle
 10
12.410000389354
 20
-28.5999996538145
 30
0.0
 40
0.6
100
AcDbArc
 50
0.0
 51
90.0
  0
ARC
  5
1267
330
18
100
AcDbEntity
  8
1
370
    18
100
AcDbCircle
 10
9.79000038935402
 20
28.6000003461855
 30
0.0
 40
0.6
100
AcDbArc
 50
180.0
 51
270.0
  0
SPLINE
  5
12DB
330
18
100
AcDbEntity
  8
1
370
    18
100
AcDbSpline
210
0.0
220
0.0
230
1.0
 70
    24
 71
     3
 72
    10
 73
     6
 74
     0
 42
0.000000001
 43
0.0000000001
 40
0.0
 40
0.0
 40
0.0
 40
0.0
 40
0.3333333333332999
 40
0.6666666666667
 40
1.0
 40
1.0
 40
1.0
 40
1.0
 10
9.19000022530105
 20
-8.09499982631148
 30
0.0
 10
9.04641903142107
 20
-8.09499982631148
 30
0.0
 10
8.75695704664116
 20
-8.09499982631148
 30
0.0
 10
8.31587048952116
 20
-8.09499982631148
 30
0.0
 10
8.01727240632118
 20
-8.09499982631148
 30
0.0
 10
7.86683871784106
 20
-8.09499982631148
 30
0.0
  0
SPLINE
  5
12DC
330
18
100
AcDbEntity
  8
1
370
    18
100
AcDbSpline
210
0.0
220
0.0
230
1.0
 70
    24
 71
     3
 72
    10
 73
     6
 74
     0
 42
0.000000001
 43
0.0000000001
 40
0.0
 40
0.0
 40
0.0
 40
0.0
 40
0.3333333333332999
 40
0.6666666666667
 40
1.0
 40
1.0
 40
1.0
 40
1.0
 10
14.3331617327611
 20
8.09500017368852
 30
0.0
 10
14.1827803595513
 20
8.09500017368852
 30
0.0
 10
13.8842518700611
 20
8.09500017368852
 30
0.0
 10
13.4431638397711
 20
8.09500017368852
 30
0.0
 10
13.1536329555611
 20
8.09500017368852
 30
0.0
 10
13.0100002253011
 20
8.09500017368852
 30
0.0
  0
SPLINE
  5
12DD
330
18
100
AcDbEntity
  8
1
370
    18
100
AcDbSpline
210
0.0
220
0.0
230
1.0
 70
    24
 71
     3
 72
    10
 73
     6
 74
     0
 42
0.000000001
 43
0.0000000001
 40
0.0
 40
0.0
 40
0.0
 40
0.0
 40
0.3333333333332999
 40
0.6666666666667
 40
1.0
 40
1.0
 40
1.0
 40
1.0
 10
7.86683871784106
 20
-8.09499982631148
 30
0.0
 10
7.7878405140811
 20
-8.09499982631148
 30
0.0
 10
7.62961511957116
 20
-8.09499982631148
 30
0.0
 10
7.39159037173107
 20
-8.09499982631148
 30
0.0
 10
7.23244951566113
 20
-8.09499982631148
 30
0.0
 10
7.15276471447106
 20
-8.09499982631148
 30
0.0
  0
SPLINE
  5
12DE
330
18
100
AcDbEntity
  8
1
370
    18
100
AcDbSpline
210
0.0
220
0.0
230
1.0
 70
    24
 71
     3
 72
    10
 73
     6
 74
     0
 42
0.000000001
 43
0.0000000001
 40
0.0
 40
0.0
 40
0.0
 40
0.0
 40
0.3333333333332999
 40
0.6666666666667
 40
1.0
 40
1.0
 40
1.0
 40
1.0
 10
18.5500002253011
 20
8.09500017368852
 30
0.0
 10
18.6059134319811
 20
8.09500017368852
 30
0.0
 10
18.7175016431411
 20
8.09500017368852
 30
0.0
 10
18.8841685308911
 20
8.09500017368852
 30
0.0
 10
18.9948026169911
 20
8.09500017368852
 30
0.0
 10
19.0500002253011
 20
8.09500017368852
 30
0.0
  0
SPLINE
  5
12DF
330
18
100
AcDbEntity
  8
1
370
    18
100
AcDbSpline
210
0.0
220
0.0
230
1.0
 70
    24
 71
     3
 72
    10
 73
     6
 74
     0
 42
0.000000001
 43
0.0000000001
 40
0.0
 40
0.0
 40
0.0
 40
0.0
 40
0.3333333333332999
 40
0.6666666666667
 40
1.0
 40
1.0
 40
1.0
 40
1.0
 10
7.15276471447106
 20
8.09500017368852
 30
0.0
 10
7.2324486701711
 20
8.09500017368852
 30
0.0
 10
7.39158839919111
 20
8.09500017368852
 30
0.0
 10
7.62961315197111
 20
8.09500017368852
 30
0.0
 10
7.78783967093119
 20
8.09500017368852
 30
0.0
 10
7.86683871784106
 20
8.09500017368852
 30
0.0
  0
SPLINE
  5
12E0
330
18
100
AcDbEntity
  8
1
370
    18
100
AcDbSpline
210
0.0
220
0.0
230
1.0
 70
    24
 71
     3
 72
    10
 73
     6
 74
     0
 42
0.000000001
 43
0.0000000001
 40
0.0
 40
0.0
 40
0.0
 40
0.0
 40
0.3333333333332999
 40
0.6666666666667
 40
1.0
 40
1.0
 40
1.0
 40
1.0
 10
14.3331617327611
 20
-8.09499982631148
 30
0.0
 10
14.4121599365212
 20
-8.09499982631148
 30
0.0
 10
14.5703853310311
 20
-8.09499982631148
 30
0.0
 10
14.8084100788711
 20
-8.09499982631148
 30
0.0
 10
14.9675509349411
 20
-8.09499982631148
 30
0.0
 10
15.0472357361311
 20
-8.09499982631148
 30
0.0
  0
SPLINE
  5
12E1
330
18
100
AcDbEntity
  8
1
370
    18
100
AcDbSpline
210
0.0
220
0.0
230
1.0
 70
    24
 71
     3
 72
    10
 73
     6
 74
     0
 42
0.000000001
 43
0.0000000001
 40
0.0
 40
0.0
 40
0.0
 40
0.0
 40
0.3333333333332999
 40
0.6666666666667
 40
1.0
 40
1.0
 40
1.0
 40
1.0
 10
19.0500002253011
 20
-8.09499982631148
 30
0.0
 10
18.9948040612612
 20
-8.09499982631148
 30
0.0
 10
18.8841719021211
 20
-8.09499982631148
 30
0.0
 10
18.7175050292911
 20
-8.09499982631148
 30
0.0
 10
18.6059148837011
 20
-8.09499982631148
 30
0.0
 10
18.5500002253011
 20
-8.09499982631148
 30
0.0
  0
SPLINE
  5
1301
330
18
100
AcDbEntity
  8
1
370
    18
100
AcDbSpline
210
0.0
220
0.0
230
1.0
 70
    24
 71
     3
 72
    10
 73
     6
 74
     0
 42
0.000000001
 43
0.0000000001
 40
0.0
 40
0.0
 40
0.0
 40
0.0
 40
0.3333333333332999
 40
0.6666666666667
 40
1.0
 40
1.0
 40
1.0
 40
1.0
 10
3.70000022530115
 20
8.09500017368852
 30
0.0
 10
3.64408701862106
 20
8.09500017368852
 30
0.0
 10
3.53249880746108
 20
8.09500017368852
 30
0.0
 10
3.36583191971107
 20
8.09500017368852
 30
0.0
 10
3.25519783361113
 20
8.09500017368852
 30
0.0
 10
3.20000022530115
 20
8.09500017368852
 30
0.0
  0
SPLINE
  5
1302
330
18
100
AcDbEntity
  8
1
370
    18
100
AcDbSpline
210
0.0
220
0.0
230
1.0
 70
    24
 71
     3
 72
    10
 73
     6
 74
     0
 42
0.000000001
 43
0.0000000001
 40
0.0
 40
0.0
 40
0.0
 40
0.0
 40
0.3333333333332999
 40
0.6666666666667
 40
1.0
 40
1.0
 40
1.0
 40
1.0
 10
3.20000022530115
 20
-8.09499982631148
 30
0.0
 10
3.25519638934116
 20
-8.09499982631148
 30
0.0
 10
3.36582854848115
 20
-8.09499982631148
 30
0.0
 10
3.53249542131113
 20
-8.09499982631148
 30
0.0
 10
3.64408556690108
 20
-8.09499982631148
 30
0.0
 10
3.70000022530115
 20
-8.09499982631148
 30
0.0
  0
SPLINE
  5
1303
330
18
100
AcDbEntity
  8
1
370
    18
100
AcDbSpline
210
0.0
220
0.0
230
1.0
 70
    24
 71
     3
 72
    10
 73
     6
 74
     0
 42
0.000000001
 43
0.0000000001
 40
0.0
 40
0.0
 40
0.0
 40
0.0
 40
0.3333333333332999
 40
0.6666666666667
 40
1.0
 40
1.0
 40
1.0
 40
1.0
 10
15.0472357361311
 20
8.09500017368852
 30
0.0
 10
14.9675517804311
 20
8.09500017368852
 30
0.0
 10
14.8084120514112
 20
8.09500017368852
 30
0.0
 10
14.5703872986311
 20
8.09500017368852
 30
0.0
 10
14.4121607796712
 20
8.09500017368852
 30
0.0
 10
14.3331617327611
 20
8.09500017368852
 30
0.0
  0
SPLINE
  5
130A
330
18
100
AcDbEntity
  8
1
370
    18
100
AcDbSpline
210
0.0
220
0.0
230
1.0
 70
     8
 71
     3
 72
    30
 73
    26
 74
     0
 42
0.000000001
 43
0.0000000001
 40
0.0
 40
0.0
 40
0.0
 40
0.0
 40
0.2500000000000125
 40
0.2500000000000125
 40
0.3750000000000239
 40
0.3750000000000239
 40
0.4375000000000222
 40
0.4375000000000222
 40
0.5000000000000206
 40
0.5000000000000206
 40
0.6249999999999984
 40
0.6249999999999984
 40
0.6874999999999979
 40
0.6874999999999979
 40
0.7499999999999975
 40
0.7499999999999975
 40
0.8124999999999971
 40
0.8124999999999971
 40
0.8437499999999978
 40
0.8437499999999978
 40
0.8749999999999989
 40
0.8749999999999989
 40
0.9374999999999994
 40
0.9374999999999994
 40
1.0
 40
1.0
 40
1.0
 40
1.0
 10
19.1500002253018
 20
-24.879597445675
 30
0.0
 10
19.1762290310724
 20
-24.8414179791623
 30
0.0
 10
19.2077572917778
 20
-24.8041919703339
 30
0.0
 10
19.2651057033764
 20
-24.7501621978935
 30
0.0
 10
19.2859151631944
 20
-24.7324569298832
 30
0.0
 10
19.3202390325189
 20
-24.7064585095413
 30
0.0
 10
19.3322014763974
 20
-24.6978861334826
 30
0.0
 10
19.3573145850143
 20
-24.6809551615231
 30
0.0
 10
19.3704993073054
 20
-24.6725774102423
 30
0.0
 10
19.4117276240841
 20
-24.6480517731509
 30
0.0
 10
19.4414696645853
 20
-24.6324508442078
 30
0.0
 10
19.4906447710564
 20
-24.6105647355813
 30
0.0
 10
19.5078761203384
 20
-24.6035008259356
 30
0.0
 10
19.5436204577248
 20
-24.5902009858611
 30
0.0
 10
19.5621675637685
 20
-24.5839446412299
 30
0.0
 10
19.6008356297338
 20
-24.5723497114871
 30
0.0
 10
19.6209547940998
 20
-24.5670100793355
 30
0.0
 10
19.6525586489357
 20
-24.5598316527904
 30
0.0
 10
19.6633317511442
 20
-24.5575779107893
 30
0.0
 10
19.6854118462439
 20
-24.5533817538191
 30
0.0
 10
19.6966421158866
 20
-24.5514554753716
 30
0.0
 10
19.7306172025863
 20
-24.5462744142161
 30
0.0
 10
19.75376915918
 20
-24.5435913720251
 30
0.0
 10
19.801188196517
 20
-24.5399383005984
 30
0.0
 10
19.8255953282448
 20
-24.5389765391513
 30
0.0
 10
19.8500002253011
 20
-24.5389765391513
 30
0.0
  0
SPLINE
  5
130B
330
18
100
AcDbEntity
  8
1
370
    18
100
AcDbSpline
210
0.0
220
0.0
230
1.0
 70
     8
 71
     3
 72
    26
 73
    22
 74
     0
 42
0.000000001
 43
0.0000000001
 40
0.0
 40
0.0
 40
0.0
 40
0.0
 40
0.1250000000000061
 40
0.1250000000000061
 40
0.2500000000000121
 40
0.2500000000000121
 40
0.3124999999999986
 40
0.3124999999999986
 40
0.3749999999999852
 40
0.3749999999999852
 40
0.4999999999999882
 40
0.4999999999999882
 40
0.6249999999999912
 40
0.6249999999999912
 40
0.7499999999999945
 40
0.7499999999999945
 40
0.8749999999999968
 40
0.8749999999999968
 40
0.9374999999999984
 40
0.9374999999999984
 40
1.0
 40
1.0
 40
1.0
 40
1.0
 10
19.4550002253005
 20
7.8995368942537
 30
0.0
 10
19.424077547262
 20
7.90807570493906
 30
0.0
 10
19.3946645380792
 20
7.91723206605918
 30
0.0
 10
19.3387164534646
 20
7.93634309432657
 30
0.0
 10
19.3121817502053
 20
7.94629922289995
 30
0.0
 10
19.2745558788593
 20
7.96153137680137
 30
0.0
 10
19.2623778516601
 20
7.9666585468109
 30
0.0
 10
19.2387684296825
 20
7.97696155288749
 30
0.0
 10
19.2274681174543
 20
7.98208007781541
 30
0.0
 10
19.1950781487174
 20
7.99724336846238
 30
0.0
 10
19.1754760722113
 20
8.00710324058907
 30
0.0
 10
19.1401990070785
 20
8.02593466160944
 30
0.0
 10
19.1245235844456
 20
8.03490780223616
 30
0.0
 10
19.0972533835844
 20
8.0515619149627
 30
0.0
 10
19.08598785828
 20
8.05904033151923
 30
0.0
 10
19.0680033412295
 20
8.07204201905149
 30
0.0
 10
19.061269690904
 20
8.07757579029966
 30
0.0
 10
19.0545098997368
 20
8.0842681072124
 30
0.0
 10
19.0528132024209
 20
8.08623360445382
 30
0.0
 10
19.0505574085983
 20
8.08958530235618
 30
0.0
 10
19.0500002253011
 20
8.09096637607833
 30
0.0
 10
19.0500002253011
 20
8.09205051992753
 30
0.0
  0
SPLINE
  5
130C
330
18
100
AcDbEntity
  8
1
370
    18
100
AcDbSpline
210
0.0
220
0.0
230
1.0
 70
     8
 71
     3
 72
    25
 73
    21
 74
     0
 42
0.000000001
 43
0.0000000001
 40
0.0
 40
0.0
 40
0.0
 40
0.0
 40
0.1249999999999774
 40
0.2499999999999548
 40
0.2499999999999548
 40
0.3124999999999487
 40
0.3124999999999487
 40
0.3749999999999425
 40
0.3749999999999425
 40
0.4999999999999477
 40
0.4999999999999477
 40
0.5624999999999431
 40
0.5624999999999431
 40
0.6249999999999384
 40
0.6249999999999384
 40
0.7499999999999593
 40
0.7499999999999593
 40
0.8749999999999793
 40
0.8749999999999793
 40
1.0
 40
1.0
 40
1.0
 40
1.0
 10
19.0500002253011
 20
-8.09205017255043
 30
0.0
 10
19.0500002253011
 20
-8.08988485577088
 30
0.0
 10
19.0544334080781
 20
-8.08322730478095
 30
0.0
 10
19.0677748651422
 20
-8.07221718035883
 30
0.0
 10
19.0813002879569
 20
-8.06242381161046
 30
0.0
 10
19.0864224692553
 20
-8.05888690187935
 30
0.0
 10
19.0977496666047
 20
-8.05141171557663
 30
0.0
 10
19.1039473375521
 20
-8.04747675442927
 30
0.0
 10
19.1241160441859
 20
-8.03515002979383
 30
0.0
 10
19.1396562676079
 20
-8.02623660336774
 30
0.0
 10
19.1661228799441
 20
-8.01208976501105
 30
0.0
 10
19.1754727497704
 20
-8.00724458802584
 30
0.0
 10
19.1952506604462
 20
-7.99733998127333
 30
0.0
 10
19.2056870226358
 20
-7.99227828021109
 30
0.0
 10
19.2381424860532
 20
-7.97707903059835
 30
0.0
 10
19.2614494853893
 20
-7.96685177408544
 30
0.0
 10
19.3113418302431
 20
-7.94662445610832
 30
0.0
 10
19.3379269821322
 20
-7.93662281183769
 30
0.0
 10
19.3944986770406
 20
-7.91727815506429
 30
0.0
 10
19.4241096203131
 20
-7.90806650109384
 30
0.0
 10
19.4550002253005
 20
-7.89953654687643
 30
0.0
  0
SPLINE
  5
130D
330
18
100
AcDbEntity
  8
1
370
    18
100
AcDbSpline
210
0.0
220
0.0
230
1.0
 70
     8
 71
     3
 72
    15
 73
    11
 74
     0
 42
0.000000001
 43
0.0000000001
 40
0.0
 40
0.0
 40
0.0
 40
0.0
 40
0.2500000000000254
 40
0.5000000000000508
 40
0.5000000000000508
 40
0.6250000000000627
 40
0.6250000000000627
 40
0.7500000000000743
 40
0.7500000000000743
 40
1.0
 40
1.0
 40
1.0
 40
1.0
 10
19.4550002253005
 20
-7.89953654687643
 30
0.0
 10
19.4851221313223
 20
-7.89121885677581
 30
0.0
 10
19.5469062841437
 20
-7.87583693070097
 30
0.0
 10
19.6116938123682
 20
-7.86339598019462
 30
0.0
 10
19.661437441587
 20
-7.85534028479507
 30
0.0
 10
19.6782113753254
 20
-7.85286768230672
 30
0.0
 10
19.7121562889351
 20
-7.84837857096396
 30
0.0
 10
19.7292943465055
 20
-7.84636804762049
 30
0.0
 10
19.7807422313307
 20
-7.84111397549149
 30
0.0
 10
19.81525971575
 20
-7.83862380826131
 30
0.0
 10
19.8500002253011
 20
-7.83717991876397
 30
0.0
  0
SPLINE
  5
130E
330
18
100
AcDbEntity
  8
1
370
    18
100
AcDbSpline
210
0.0
220
0.0
230
1.0
 70
     8
 71
     3
 72
    15
 73
    11
 74
     0
 42
0.000000001
 43
0.0000000001
 40
0.0
 40
0.0
 40
0.0
 40
0.0
 40
0.2500000000000037
 40
0.5000000000000073
 40
0.5000000000000073
 40
0.6250000000000055
 40
0.6250000000000055
 40
0.7500000000000037
 40
0.7500000000000037
 40
1.0
 40
1.0
 40
1.0
 40
1.0
 10
19.8500002253011
 20
7.83718026614106
 30
0.0
 10
19.8152552069558
 20
7.83862434303354
 30
0.0
 10
19.7465781658112
 20
7.84358944891421
 30
0.0
 10
19.6794514676681
 20
7.8524517705434
 30
0.0
 10
19.629684520366
 20
7.86046952341316
 30
0.0
 10
19.6131921349577
 20
7.86337065654915
 30
0.0
 10
19.5804031970309
 20
7.86961541695952
 30
0.0
 10
19.564140064966
 20
7.87295403118243
 30
0.0
 10
19.5161743818789
 20
7.88348343604362
 30
0.0
 10
19.4851248332984
 20
7.89121845804489
 30
0.0
 10
19.4550002253005
 20
7.8995368942537
 30
0.0
  0
SPLINE
  5
130F
330
18
100
AcDbEntity
  8
1
370
    18
100
AcDbSpline
210
0.0
220
0.0
230
1.0
 70
     8
 71
     3
 72
    37
 73
    33
 74
     0
 42
0.000000001
 43
0.0000000001
 40
0.0
 40
0.0
 40
0.0
 40
0.0
 40
0.0783177111502415
 40
0.0783177111502415
 40
0.0978971389378081
 40
0.0978971389378081
 40
0.1174765667253747
 40
0.1174765667253747
 40
0.156635422300508
 40
0.1957942778756413
 40
0.1957942778756413
 40
0.2153737056632079
 40
0.2153737056632079
 40
0.2349531334507747
 40
0.2349531334507747
 40
0.3132708446010206
 40
0.3132708446010206
 40
0.3915885557512663
 40
0.3915885557512663
 40
0.4699062669015122
 40
0.4699062669015122
 40
0.548223978051758
 40
0.548223978051758
 40
0.5873828336268842
 40
0.5873828336268842
 40
0.6265416892020104
 40
0.6265416892020104
 40
0.7831771115024985
 40
0.7831771115024985
 40
0.9398125338029863
 40
0.9398125338029863
 40
1.0
 40
1.0
 40
1.0
 40
1.0
 10
44.0613518370013
 20
-24.5389765391513
 30
0.0
 10
44.1422929297716
 20
-24.5389765391513
 30
0.0
 10
44.2219554272472
 20
-24.5348374712533
 30
0.0
 10
44.3200373834566
 20
-24.5248202499119
 30
0.0
 10
44.339490181532
 20
-24.5225816260108
 30
0.0
 10
44.3778665636737
 20
-24.5176825879213
 30
0.0
 10
44.3968254592817
 20
-24.515018616787
 30
0.0
 10
44.4530496253587
 20
-24.5064164233742
 30
0.0
 10
44.5262780314927
 20
-24.4933221373214
 30
0.0
 10
44.596335655738
 20
-24.4772623290018
 30
0.0
 10
44.6477771652678
 20
-24.4641870828901
 30
0.0
 10
44.6647255184575
 20
-24.4596593027921
 30
0.0
 10
44.697954663326
 20
-24.4503646146301
 30
0.0
 10
44.7142776454175
 20
-24.4455872181196
 30
0.0
 10
44.7945343674571
 20
-24.4210944689211
 30
0.0
 10
44.8544322478628
 20
-24.3995790794616
 30
0.0
 10
44.9674316172332
 20
-24.3535170368483
 30
0.0
 10
45.0205179086358
 20
-24.3289636054181
 30
0.0
 10
45.1209944234852
 20
-24.2773162349738
 30
0.0
 10
45.1677720458204
 20
-24.2505361450828
 30
0.0
 10
45.2555803654142
 20
-24.1955191319299
 30
0.0
 10
45.2966337402092
 20
-24.1672637369146
 30
0.0
 10
45.3546209559642
 20
-24.1239393403417
 30
0.0
 10
45.3733644189615
 20
-24.1093272967637
 30
0.0
 10
45.4096657626689
 20
-24.0798680111991
 30
0.0
 10
45.4271737758275
 20
-24.0650626083731
 30
0.0
 10
45.5117955794649
 20
-23.9906915738941
 30
0.0
 10
45.5702814444702
 20
-23.9301088362471
 30
0.0
 10
45.6738516087888
 20
-23.8073635127221
 30
0.0
 10
45.7188796933003
 20
-23.7451942999426
 30
0.0
 10
45.7738859751776
 20
-23.6582730617754
 30
0.0
 10
45.7883706493317
 20
-23.6340522839706
 30
0.0
 10
45.802125858203
 20
-23.6097455128973
 30
0.0
  0
SPLINE
  5
1310
330
18
100
AcDbEntity
  8
1
370
    13
100
AcDbSpline
210
0.0
220
0.0
230
1.0
 70
     8
 71
     3
 72
    10
 73
     6
 74
     0
 42
0.000000001
 43
0.0000000001
 40
0.0
 40
0.0
 40
0.0
 40
0.0
 40
0.3810929928903645
 40
0.3810929928903645
 40
1.0
 40
1.0
 40
1.0
 40
1.0
 10
45.8021254748821
 20
-23.6097461902617
 30
0.0
 10
45.8241677847296
 20
-23.5707953592471
 30
0.0
 10
45.8443368956402
 20
-23.5316237055247
 30
0.0
 10
45.8929393188633
 20
-23.4283265585329
 30
0.0
 10
45.9186655194372
 20
-23.363881936466
 30
0.0
 10
45.9407370785827
 20
-23.2990064857126
 30
0.0
  0
SPLINE
  5
1311
330
18
100
AcDbEntity
  8
1
370
    18
100
AcDbSpline
210
0.0
220
0.0
230
1.0
 70
     8
 71
     3
 72
    33
 73
    29
 74
     0
 42
0.000000001
 43
0.0000000001
 40
0.0
 40
0.0
 40
0.0
 40
0.0
 40
0.1250000000000187
 40
0.1250000000000187
 40
0.2500000000000373
 40
0.2500000000000373
 40
0.3125000000000444
 40
0.3125000000000444
 40
0.3281250000000428
 40
0.3281250000000428
 40
0.3437500000000412
 40
0.3437500000000412
 40
0.375000000000038
 40
0.375000000000038
 40
0.5000000000000259
 40
0.5000000000000259
 40
0.6250000000000139
 40
0.6250000000000139
 40
0.6562500000000082
 40
0.6562500000000082
 40
0.6718750000000055
 40
0.6718750000000055
 40
0.6875000000000027
 40
0.7500000000000023
 40
0.7500000000000023
 40
0.875000000000001
 40
0.875000000000001
 40
1.0
 40
1.0
 40
1.0
 40
1.0
 10
26.1466666844122
 20
4.55528556540732
 30
0.0
 10
25.9730700846422
 20
4.81029714957914
 30
0.0
 10
25.7852056432505
 20
5.05118660726386
 30
0.0
 10
25.3814915956797
 20
5.50576089547776
 30
0.0
 10
25.1656395740969
 20
5.71944250305667
 30
0.0
 10
24.8206459602498
 20
6.01970302394285
 30
0.0
 10
24.7021058081729
 20
6.11640663292344
 30
0.0
 10
24.5494303420753
 20
6.23302461527449
 30
0.0
 10
24.5186701014578
 20
6.25613500725184
 30
0.0
 10
24.4566969708752
 20
6.30192805015055
 30
0.0
 10
24.425503120501
 20
6.32459592917117
 30
0.0
 10
24.331562492242
 20
6.39173124987589
 30
0.0
 10
24.2683590071203
 20
6.43540317632592
 30
0.0
 10
23.9495105323851
 20
6.6484554420439
 30
0.0
 10
23.6853959502825
 20
6.80196233848666
 30
0.0
 10
23.1400029346091
 20
7.07728990722445
 30
0.0
 10
22.858723034305
 20
7.19910659289475
 30
0.0
 10
22.4966090807276
 20
7.33221516649804
 30
0.0
 10
22.4236592356785
 20
7.35787605750285
 30
0.0
 10
22.3134437743277
 20
7.394930021706
 30
0.0
 10
22.2765625248213
 20
7.40704483860067
 30
0.0
 10
22.2027473228432
 20
7.43072943685736
 30
0.0
 10
22.0179515187035
 20
7.48862061233133
 30
0.0
 10
21.8318833177622
 20
7.54000468942407
 30
0.0
 10
21.3829690170384
 20
7.65136239878753
 30
0.0
 10
21.0805677845743
 20
7.70969878675386
 30
0.0
 10
20.4697809069456
 20
7.79613478107554
 30
0.0
 10
20.1613961171615
 20
7.82423799029165
 30
0.0
 10
19.8500002253012
 20
7.83718026614146
 30
0.0
  0
SPLINE
  5
1312
330
18
100
AcDbEntity
  8
1
370
    18
100
AcDbSpline
210
0.0
220
0.0
230
1.0
 70
     8
 71
     3
 72
    40
 73
    36
 74
     0
 42
0.000000001
 43
0.0000000001
 40
0.0
 40
0.0
 40
0.0
 40
0.0
 40
0.0625000000000034
 40
0.125000000000007
 40
0.1875000000000105
 40
0.2500000000000141
 40
0.2500000000000141
 40
0.2656250000000145
 40
0.2656250000000145
 40
0.281250000000015
 40
0.281250000000015
 40
0.312500000000015
 40
0.312500000000015
 40
0.3750000000000148
 40
0.437500000000015
 40
0.5000000000000144
 40
0.5000000000000144
 40
0.5312500000000143
 40
0.5468750000000143
 40
0.5468750000000143
 40
0.5625000000000143
 40
0.5625000000000143
 40
0.6250000000000142
 40
0.6250000000000142
 40
0.6875000000000139
 40
0.7500000000000137
 40
0.8125000000000135
 40
0.8125000000000135
 40
0.8281250000000126
 40
0.8281250000000126
 40
0.8437500000000117
 40
0.8750000000000103
 40
0.8750000000000103
 40
0.9375000000000051
 40
1.0
 40
1.0
 40
1.0
 40
1.0
 10
26.1466666844122
 20
-4.55528521803022
 30
0.0
 10
26.2602345766942
 20
-4.38845517550509
 30
0.0
 10
26.4736739863037
 20
-4.0481343203446
 30
0.0
 10
26.7537962778986
 20
-3.51798979625595
 30
0.0
 10
26.9942005123696
 20
-2.96816550210785
 30
0.0
 10
27.1277367414595
 20
-2.58826781468245
 30
0.0
 10
27.2026093812147
 20
-2.34651625632681
 30
0.0
 10
27.2171539004323
 20
-2.29794986708548
 30
0.0
 10
27.2453744674653
 20
-2.20038007373891
 30
0.0
 10
27.2590648207464
 20
-2.15132184420564
 30
0.0
 10
27.2986803636453
 20
-2.00400816600943
 30
0.0
 10
27.3231662068914
 20
-1.90557864708983
 30
0.0
 10
27.3909348976849
 20
-1.60963708354471
 30
0.0
 10
27.4661393705872
 20
-1.21330870581498
 30
0.0
 10
27.5342273849557
 20
-0.613664134195276
 30
0.0
 10
27.5497967316324
 20
-0.210457777331484
 30
0.0
 10
27.5500960745962
 20
0.0932616219978542
 30
0.0
 10
27.5473983219461
 20
0.245450298449853
 30
0.0
 10
27.5403644087417
 20
0.398139865339843
 30
0.0
 10
27.5347022059493
 20
0.500045268501666
 30
0.0
 10
27.5313837241952
 20
0.551046553427128
 30
0.0
 10
27.5124368572053
 20
0.805171251272682
 30
0.0
 10
27.4897094668854
 20
1.00658412652719
 30
0.0
 10
27.4295608191051
 20
1.40575519738913
 30
0.0
 10
27.3547167200708
 20
1.80127120807983
 30
0.0
 10
27.1989105696885
 20
2.38375470075102
 30
0.0
 10
27.0658820152111
 20
2.76488661568972
 30
0.0
 10
26.9734257930241
 20
3.00081178659936
 30
0.0
 10
26.9544550539683
 20
3.04791268573599
 30
0.0
 10
26.9157052369954
 20
3.14157209500349
 30
0.0
 10
26.8563315943753
 20
3.28134487133634
 30
0.0
 10
26.79323653119
 20
3.41898721366671
 30
0.0
 10
26.6621301405582
 20
3.69146888234896
 30
0.0
 10
26.4742260969371
 20
4.04731093898722
 30
0.0
 10
26.2602561656171
 20
4.38842380898087
 30
0.0
 10
26.1466666844122
 20
4.55528556540732
 30
0.0
  0
SPLINE
  5
1313
330
18
100
AcDbEntity
  8
1
370
    18
100
AcDbSpline
210
0.0
220
0.0
230
1.0
 70
     8
 71
     3
 72
    32
 73
    28
 74
     0
 42
0.000000001
 43
0.0000000001
 40
0.0
 40
0.0
 40
0.0
 40
0.0
 40
0.124999999999998
 40
0.124999999999998
 40
0.2499999999999959
 40
0.2499999999999959
 40
0.3749999999999939
 40
0.3749999999999939
 40
0.3906249999999937
 40
0.3906249999999937
 40
0.4062499999999936
 40
0.4062499999999936
 40
0.4374999999999928
 40
0.499999999999992
 40
0.499999999999992
 40
0.6249999999999904
 40
0.6249999999999904
 40
0.7499999999999885
 40
0.7499999999999885
 40
0.781249999999991
 40
0.7968749999999925
 40
0.7968749999999925
 40
0.8124999999999936
 40
0.8124999999999936
 40
0.8749999999999957
 40
0.8749999999999957
 40
1.0
 40
1.0
 40
1.0
 40
1.0
 10
19.8500002253011
 20
-7.83717991876397
 30
0.0
 10
20.1617916042478
 20
-7.82422120562926
 30
0.0
 10
20.4701025360551
 20
-7.79608251315947
 30
0.0
 10
21.079869754517
 20
-7.70980362264508
 30
0.0
 10
21.3813245498794
 20
-7.65165748667879
 30
0.0
 10
21.9771369907732
 20
-7.5040840656096
 30
0.0
 10
22.2714953479064
 20
-7.41466140881248
 30
0.0
 10
22.5983348598806
 20
-7.29485543468892
 30
0.0
 10
22.6345902215051
 20
-7.28127580652146
 30
0.0
 10
22.7069791427451
 20
-7.25357326574958
 30
0.0
 10
22.7431452197849
 20
-7.23943723303431
 30
0.0
 10
22.851186899397
 20
-7.19631130179083
 30
0.0
 10
23.0653425439164
 20
-7.10723600599367
 30
0.0
 10
23.2737454042144
 20
-7.00970902102419
 30
0.0
 10
23.682904763811
 20
-6.80334602751945
 30
0.0
 10
23.9455010872113
 20
-6.6507221820181
 30
0.0
 10
24.4500088875511
 20
-6.31442665812584
 30
0.0
 10
24.6919230346363
 20
-6.13076015012534
 30
0.0
 10
24.9807884913104
 20
-5.88053604698858
 30
0.0
 10
25.0664310505262
 20
-5.8039165364588
 30
0.0
 10
25.1505229778408
 20
-5.72492022965365
 30
0.0
 10
25.2062365212302
 20
-5.67172184184157
 30
0.0
 10
25.2339412255307
 20
-5.64483377763297
 30
0.0
 10
25.3712233192982
 20
-5.50940468498258
 30
0.0
 10
25.4771807109283
 20
-5.39781499110687
 30
0.0
 10
25.7836201368394
 20
-5.05336272836409
 30
0.0
 10
25.9726988323461
 20
-4.810842167931
 30
0.0
 10
26.1466666844122
 20
-4.55528521803022
 30
0.0
  0
SPLINE
  5
1314
330
18
100
AcDbEntity
  8
1
370
    18
100
AcDbSpline
210
0.0
220
0.0
230
1.0
 70
     8
 71
     3
 72
    29
 73
    25
 74
     0
 42
0.000000001
 43
0.0000000001
 40
0.0
 40
0.0
 40
0.0
 40
0.0
 40
0.0625
 40
0.0625
 40
0.1249999999999999
 40
0.1249999999999999
 40
0.25
 40
0.25
 40
0.375
 40
0.375
 40
0.4375
 40
0.4375
 40
0.5
 40
0.5625
 40
0.5625
 40
0.625
 40
0.625
 40
0.75
 40
0.75
 40
0.875
 40
0.875
 40
0.9375
 40
0.9375
 40
1.0
 40
1.0
 40
1.0
 40
1.0
 10
3.20000022530115
 20
-4.40347856476346
 30
0.0
 10
3.20000022530115
 20
-4.21979438866394
 30
0.0
 10
3.19770000472687
 20
-4.03616865842348
 30
0.0
 10
3.19000690637102
 20
-3.66899577867029
 30
0.0
 10
3.1846093392931
 20
-3.48544874830695
 30
0.0
 10
3.16568332562446
 20
-2.93487710742322
 30
0.0
 10
3.14945996360581
 20
-2.56791289132705
 30
0.0
 10
3.11863174292756
 20
-1.83393358093512
 30
0.0
 10
3.10406952909199
 20
-1.46694769959241
 30
0.0
 10
3.08870990815018
 20
-0.916497600000852
 30
0.0
 10
3.08465173566248
 20
-0.733018936746348
 30
0.0
 10
3.07917972686692
 20
-0.366073324496583
 30
0.0
 10
3.07635623576488
 20
0.0008605549701457
 30
0.0
 10
3.07919710151094
 20
0.367769341657052
 30
0.0
 10
3.0846842821914
 20
0.734666405318834
 30
0.0
 10
3.08874892492378
 20
0.918109084962524
 30
0.0
 10
3.10412264325367
 20
1.46842303760367
 30
0.0
 10
3.11868664038963
 20
1.83527989148321
 30
0.0
 10
3.14950666591966
 20
2.56898610363988
 30
0.0
 10
3.1657214354172
 20
2.93583564469152
 30
0.0
 10
3.18463028673051
 20
3.48613393689392
 30
0.0
 10
3.19002133833175
 20
3.6695659683535
 30
0.0
 10
3.19770404624586
 20
4.03648114404753
 30
0.0
 10
3.20000022530115
 20
4.21996242427703
 30
0.0
 10
3.20000022530115
 20
4.4034789121405
 30
0.0
  0
SPLINE
  5
133D
330
18
100
AcDbEntity
  8
1
370
    18
100
AcDbSpline
210
0.0
220
0.0
230
1.0
 70
    24
 71
     3
 72
    33
 73
    29
 74
     0
 42
0.000000001
 43
0.0000000001
 40
0.0
 40
0.0
 40
0.0
 40
0.0
 40
0.1251134076853524
 40
0.1251134076853524
 40
0.1876701115280085
 40
0.1876701115280085
 40
0.2189484634493365
 40
0.2189484634493365
 40
0.2502268153706645
 40
0.2502268153706645
 40
0.3753402230559371
 40
0.3753402230559371
 40
0.4378969268985909
 40
0.4378969268985909
 40
0.5004536307412451
 40
0.5630103345838987
 40
0.5630103345838987
 40
0.5942886865052082
 40
0.5942886865052082
 40
0.625567038426518
 40
0.625567038426518
 40
0.7506804461117599
 40
0.7506804461117599
 40
0.8132371499543808
 40
0.8132371499543808
 40
0.8757938537970021
 40
0.8757938537970021
 40
1.0
 40
1.0
 40
1.0
 40
1.0
 10
9.79000022530107
 20
-8.09499982631148
 30
0.0
 10
9.74950637382989
 20
-8.09499982631148
 30
0.0
 10
9.70974124240905
 20
-8.09499982631148
 30
0.0
 10
9.65113645569983
 20
-8.09499982631148
 30
0.0
 10
9.6317767011356
 20
-8.09499982631148
 30
0.0
 10
9.60300558474438
 20
-8.09499982631148
 30
0.0
 10
9.59343800084315
 20
-8.09499982631148
 30
0.0
 10
9.57459843707926
 20
-8.09499982631148
 30
0.0
 10
9.56530646053801
 20
-8.09499982631148
 30
0.0
 10
9.5194713107922
 20
-8.09499982631148
 30
0.0
 10
9.48478412086018
 20
-8.09499982631148
 30
0.0
 10
9.43567935411062
 20
-8.09499982631148
 30
0.0
 10
9.4197402805716
 20
-8.09499982631148
 30
0.0
 10
9.38948556527049
 20
-8.09499982631148
 30
0.0
 10
9.36071400285544
 20
-8.09499982631148
 30
0.0
 10
9.33481584655311
 20
-8.09499982631148
 30
0.0
 10
9.31646657344237
 20
-8.09499982631148
 30
0.0
 10
9.31052952483475
 20
-8.09499982631148
 30
0.0
 10
9.29901751980111
 20
-8.09499982631148
 30
0.0
 10
9.29342880699647
 20
-8.09499982631148
 30
0.0
 10
9.2666149993708
 20
-8.09499982631148
 30
0.0
 10
9.24871879720359
 20
-8.09499982631148
 30
0.0
 10
9.22695124278635
 20
-8.09499982631148
 30
0.0
 10
9.22054777498016
 20
-8.09499982631148
 30
0.0
 10
9.20947623637238
 20
-8.09499982631148
 30
0.0
 10
9.20482600912982
 20
-8.09499982631148
 30
0.0
 10
9.19378127371391
 20
-8.09499982631148
 30
0.0
 10
9.19004363474284
 20
-8.09499982631148
 30
0.0
 10
9.19000522530149
 20
-8.09499982631148
 30
0.0
  0
SPLINE
  5
133E
330
18
100
AcDbEntity
  8
1
370
    18
100
AcDbSpline
210
0.0
220
0.0
230
1.0
 70
    24
 71
     3
 72
    33
 73
    29
 74
     0
 42
0.000000001
 43
0.0000000001
 40
0.0
 40
0.0
 40
0.0
 40
0.0
 40
0.1251134077794549
 40
0.1251134077794549
 40
0.1876701116691622
 40
0.1876701116691622
 40
0.2189484636140158
 40
0.2189484636140158
 40
0.2502268155588695
 40
0.2502268155588695
 40
0.3753402233382445
 40
0.3753402233382445
 40
0.4378969272279499
 40
0.4378969272279499
 40
0.5004536311176551
 40
0.5630103350073599
 40
0.5630103350073599
 40
0.594288686952195
 40
0.594288686952195
 40
0.62556703889703
 40
0.62556703889703
 40
0.7506804466763383
 40
0.7506804466763383
 40
0.8132371505659975
 40
0.8132371505659975
 40
0.8757938544556566
 40
0.8757938544556566
 40
1.0
 40
1.0
 40
1.0
 40
1.0
 10
12.4100002253011
 20
8.09500017368852
 30
0.0
 10
12.4504940767724
 20
8.09500017368852
 30
0.0
 10
12.4902592081931
 20
8.09500017368852
 30
0.0
 10
12.5488639949024
 20
8.09500017368852
 30
0.0
 10
12.5682237494667
 20
8.09500017368852
 30
0.0
 10
12.5969948658579
 20
8.09500017368852
 30
0.0
 10
12.6065624497591
 20
8.09500017368852
 30
0.0
 10
12.6254020135229
 20
8.09500017368852
 30
0.0
 10
12.6346939900641
 20
8.09500017368852
 30
0.0
 10
12.6805291398102
 20
8.09500017368852
 30
0.0
 10
12.715216329742
 20
8.09500017368852
 30
0.0
 10
12.7643210964916
 20
8.09500017368852
 30
0.0
 10
12.7802601700307
 20
8.09500017368852
 30
0.0
 10
12.8105148853316
 20
8.09500017368852
 30
0.0
 10
12.8392864477468
 20
8.09500017368852
 30
0.0
 10
12.8651846040489
 20
8.09500017368852
 30
0.0
 10
12.8835338771599
 20
8.09500017368852
 30
0.0
 10
12.8894709257675
 20
8.09500017368852
 30
0.0
 10
12.900982930801
 20
8.09500017368852
 30
0.0
 10
12.9065716436057
 20
8.09500017368852
 30
0.0
 10
12.9333854512313
 20
8.09500017368852
 30
0.0
 10
12.9512816533987
 20
8.09500017368852
 30
0.0
 10
12.973049207816
 20
8.09500017368852
 30
0.0
 10
12.9794526756221
 20
8.09500017368852
 30
0.0
 10
12.9905242142299
 20
8.09500017368852
 30
0.0
 10
12.9951744414723
 20
8.09500017368852
 30
0.0
 10
13.0062191768438
 20
8.09500017368869
 30
0.0
 10
13.0099568158143
 20
8.09500017368852
 30
0.0
 10
13.0099952253003
 20
8.09500017368852
 30
0.0
  0
SPLINE
  5
133F
330
18
100
AcDbEntity
  8
1
370
    18
100
AcDbSpline
210
0.0
220
0.0
230
1.0
 70
    24
 71
     3
 72
    35
 73
    31
 74
     0
 42
0.000000001
 43
0.0000000001
 40
0.0
 40
0.0
 40
0.0
 40
0.0
 40
0.1250000000000606
 40
0.1250000000000606
 40
0.1875000000000948
 40
0.1875000000000948
 40
0.2500000000001291
 40
0.2500000000001291
 40
0.3750000000001876
 40
0.3750000000001876
 40
0.4375000000002099
 40
0.4375000000002099
 40
0.468750000000208
 40
0.468750000000208
 40
0.5000000000002061
 40
0.5000000000002061
 40
0.6250000000001334
 40
0.6250000000001334
 40
0.6562500000001326
 40
0.6562500000001326
 40
0.6875000000001319
 40
0.6875000000001319
 40
0.7500000000000988
 40
0.7500000000000988
 40
0.875000000000028
 40
0.875000000000028
 40
0.9062500000000104
 40
0.9062500000000104
 40
0.9374999999999925
 40
1.0
 40
1.0
 40
1.0
 40
1.0
 10
13.0100052258012
 20
-8.09499982631148
 30
0.0
 10
13.0099952248011
 20
-8.09499982631148
 30
0.0
 10
13.0062680833674
 20
-8.09499982631148
 30
0.0
 10
12.9952831585256
 20
-8.09499982631148
 30
0.0
 10
12.9907173464028
 20
-8.09499982631148
 30
0.0
 10
12.9797361864624
 20
-8.09499982631148
 30
0.0
 10
12.9732779793411
 20
-8.09499982631148
 30
0.0
 10
12.9513902846314
 20
-8.09499982631148
 30
0.0
 10
12.9334897650188
 20
-8.09499982631148
 30
0.0
 10
12.9016995477334
 20
-8.09499982631148
 30
0.0
 10
12.8902739724097
 20
-8.09499982631148
 30
0.0
 10
12.871840933319
 20
-8.09499982631148
 30
0.0
 10
12.8654643743901
 20
-8.09499982631148
 30
0.0
 10
12.8524068988055
 20
-8.09499982631148
 30
0.0
 10
12.8457147974771
 20
-8.09499982631148
 30
0.0
 10
12.8114475882787
 20
-8.09499982631148
 30
0.0
 10
12.7814757501565
 20
-8.09499982631148
 30
0.0
 10
12.7407398264996
 20
-8.09499982631148
 30
0.0
 10
12.7324276031307
 20
-8.09499982631148
 30
0.0
 10
12.7154649825146
 20
-8.09499982631148
 30
0.0
 10
12.7067877094584
 20
-8.09499982631148
 30
0.0
 10
12.6804866561901
 20
-8.09499982631148
 30
0.0
 10
12.6625827687997
 20
-8.09499982631148
 30
0.0
 10
12.6077854957951
 20
-8.09499982631148
 30
0.0
 10
12.5698175874631
 20
-8.09499982631148
 30
0.0
 10
12.5204778179222
 20
-8.09499982631148
 30
0.0
 10
12.5104997112994
 20
-8.09499982631148
 30
0.0
 10
12.4905335702882
 20
-8.09499982631148
 30
0.0
 10
12.4605098217434
 20
-8.09499982631148
 30
0.0
 10
12.4302640954565
 20
-8.09499982631148
 30
0.0
 10
12.4100002253011
 20
-8.09499982631148
 30
0.0
  0
SPLINE
  5
1340
330
18
100
AcDbEntity
  8
1
370
    18
100
AcDbSpline
210
0.0
220
0.0
230
1.0
 70
    24
 71
     3
 72
    35
 73
    31
 74
     0
 42
0.000000001
 43
0.0000000001
 40
0.0
 40
0.0
 40
0.0
 40
0.0
 40
0.1250000000000606
 40
0.1250000000000606
 40
0.1875000000000948
 40
0.1875000000000948
 40
0.2500000000001291
 40
0.2500000000001291
 40
0.3750000000001876
 40
0.3750000000001876
 40
0.4375000000002099
 40
0.4375000000002099
 40
0.468750000000208
 40
0.468750000000208
 40
0.5000000000002061
 40
0.5000000000002061
 40
0.6250000000001334
 40
0.6250000000001334
 40
0.6562500000001326
 40
0.6562500000001326
 40
0.6875000000001319
 40
0.6875000000001319
 40
0.7500000000000988
 40
0.7500000000000988
 40
0.875000000000028
 40
0.875000000000028
 40
0.9062500000000104
 40
0.9062500000000104
 40
0.9374999999999925
 40
1.0
 40
1.0
 40
1.0
 40
1.0
 10
9.18999522480118
 20
8.09500017368852
 30
0.0
 10
9.19000522580102
 20
8.09500017368852
 30
0.0
 10
9.19373236723487
 20
8.09500017368852
 30
0.0
 10
9.20471729207651
 20
8.09500017368852
 30
0.0
 10
9.2092831041993
 20
8.09500017368852
 30
0.0
 10
9.22026426413987
 20
8.09500017368852
 30
0.0
 10
9.22672247126121
 20
8.09500017368852
 30
0.0
 10
9.24861016597077
 20
8.09500017368852
 30
0.0
 10
9.26651068558346
 20
8.09500017368852
 30
0.0
 10
9.29830090286879
 20
8.09500017368852
 30
0.0
 10
9.30972647819232
 20
8.09500017368852
 30
0.0
 10
9.32815951728327
 20
8.09500017368852
 30
0.0
 10
9.33453607621192
 20
8.09500017368852
 30
0.0
 10
9.3475935517967
 20
8.09500017368852
 30
0.0
 10
9.35428565312492
 20
8.09500017368852
 30
0.0
 10
9.38855286232348
 20
8.09500017368852
 30
0.0
 10
9.41852470044586
 20
8.09500017368852
 30
0.0
 10
9.45926062410257
 20
8.09500017368852
 30
0.0
 10
9.46757284747156
 20
8.09500017368852
 30
0.0
 10
9.4845354680877
 20
8.09500017368852
 30
0.0
 10
9.49321274114374
 20
8.09500017368852
 30
0.0
 10
9.51951379441192
 20
8.09500017368852
 30
0.0
 10
9.53741768180254
 20
8.09500017368852
 30
0.0
 10
9.59221495480716
 20
8.09500017368852
 30
0.0
 10
9.63018286313905
 20
8.09500017368852
 30
0.0
 10
9.67952263268006
 20
8.09500017368852
 30
0.0
 10
9.68950073930279
 20
8.09500017368852
 30
0.0
 10
9.7094668803141
 20
8.09500017368852
 30
0.0
 10
9.73949062885873
 20
8.09500017368852
 30
0.0
 10
9.76973635514576
 20
8.09500017368852
 30
0.0
 10
9.79000022530107
 20
8.09500017368852
 30
0.0
  0
SPLINE
  5
1341
330
18
100
AcDbEntity
  8
1
370
    18
100
AcDbSpline
210
0.0
220
0.0
230
1.0
 70
    24
 71
     3
 72
    10
 73
     6
 74
     0
 42
0.000000001
 43
0.0000000001
 40
0.0
 40
0.0
 40
0.0
 40
0.0
 40
0.3333333333332999
 40
0.6666666666667
 40
1.0
 40
1.0
 40
1.0
 40
1.0
 10
7.86683871784106
 20
8.09500017368852
 30
0.0
 10
8.01722009105112
 20
8.09500017368852
 30
0.0
 10
8.31574858054108
 20
8.09500017368852
 30
0.0
 10
8.75683661083093
 20
8.09500017368852
 30
0.0
 10
9.04636749504112
 20
8.09500017368852
 30
0.0
 10
9.19000022530105
 20
8.09500017368852
 30
0.0
  0
SPLINE
  5
1342
330
18
100
AcDbEntity
  8
1
370
    18
100
AcDbSpline
210
0.0
220
0.0
230
1.0
 70
    24
 71
     3
 72
    10
 73
     6
 74
     0
 42
0.000000001
 43
0.0000000001
 40
0.0
 40
0.0
 40
0.0
 40
0.0
 40
0.3333333333332999
 40
0.6666666666667
 40
1.0
 40
1.0
 40
1.0
 40
1.0
 10
13.0100002253011
 20
-8.09499982631148
 30
0.0
 10
13.1535814191811
 20
-8.09499982631148
 30
0.0
 10
13.4430434039611
 20
-8.09499982631148
 30
0.0
 10
13.8841299610811
 20
-8.09499982631148
 30
0.0
 10
14.1827280442811
 20
-8.09499982631148
 30
0.0
 10
14.3331617327611
 20
-8.09499982631148
 30
0.0
  0
LWPOLYLINE
  5
13B4
102
{ACAD_REACTORS
330
1856
102
}
330
18
100
AcDbEntity
  8
NOCUT
100
AcDbPolyline
 90
       56
 70
     1
 43
0.0
 10
45.9407366309258
 20
23.3090406328369
 42
0.3152987888789858
 10
44.061351389354
 20
24.6250003461855
 10
44.061351389354
 20
24.6250003461855
 10
19.850000389354
 20
24.6250003461855
 10
19.850000389354
 20
24.6250003461856
 42
-0.4142135623730951
 10
19.050000389354
 20
25.4250003461855
 10
19.050000389354
 20
25.4250003461855
 10
19.050000389354
 20
31.0359263461855
 10
19.050000389354
 20
31.0359263461855
 10
18.550000389354
 20
31.7500003461855
 10
18.550000389354
 20
31.7500003461855
 10
15.0472353893541
 20
31.7500003461855
 10
15.0472353893541
 20
31.7500003461855
 10
14.333161389354
 20
31.2500003461855
 10
14.333161389354
 20
31.2500003461855
 10
13.0100003893539
 20
28.9582173461855
 10
13.0100003893539
 20
28.9582173461855
 10
13.010000389354
 20
28.6000003461855
 10
13.010000389354
 20
28.6000003461855
 42
-0.4142135623730951
 10
12.410000389354
 20
28.0000003461856
 10
12.410000389354
 20
28.0000003461855
 10
9.79000038935402
 20
28.0000003461855
 10
9.79000038935402
 20
28.0000003461856
 42
-0.4142135623730951
 10
9.190000389354
 20
28.6000003461855
 10
9.190000389354
 20
28.6000003461855
 10
9.190000389354
 20
28.9582173461855
 10
9.190000389354
 20
28.9582173461855
 10
7.86683838935397
 20
31.2500003461855
 10
7.86683838935397
 20
31.2500003461855
 10
7.15276438935399
 20
31.7500003461855
 10
7.15276438935399
 20
31.7500003461855
 10
3.70000038935399
 20
31.7500003461855
 10
3.70000038935399
 20
31.7500003461855
 10
3.20000038935399
 20
31.0359263461855
 10
3.20000038935399
 20
31.0359263461855
 10
3.20000038935404
 20
23.0250003461855
 10
3.20000038935393
 20
23.0250003461855
 42
-0.4142135623730951
 10
2.40000038935392
 20
22.2250003461855
 10
2.40000038935392
 20
22.2250003461855
 10
3.893539429E-07
 20
22.2250003461855
 10
3.893539429E-07
 20
22.2250003461855
 10
3.89353886E-07
 20
3.461855442E-07
 10
3.893539429E-07
 20
3.4618553E-07
 10
80.5000003893539
 20
3.4618553E-07
 10
80.5000003893539
 20
3.4618553E-07
 10
80.5000003893539
 20
15.8950003461855
 10
80.5000003893539
 20
15.8950003461855
 10
78.412879389354
 20
17.1000003461855
 10
78.412879389354
 20
17.1000003461855
 10
63.791052389354
 20
19.0250003461855
 10
63.791052389354
 20
19.0250003461855
 10
48.060166389354
 20
19.0250003461855
 10
48.060166389354
 20
19.0250003461855
 42
-0.3152987888789856
 10
47.3084122927253
 20
19.551384231525
 10
47.308412389354
 20
19.5513843461855
 10
45.9407373893539
 20
23.3090403461855
  0
LINE
  5
153D
330
18
100
AcDbEntity
  8
SK3
100
AcDbLine
 10
-17.806624610646
 20
4.50000034618553
 30
0.0
 11
-14.277525610646
 21
4.50000034618553
 31
0.0
  0
LINE
  5
1540
330
18
100
AcDbEntity
  8
SK3
100
AcDbLine
 10
-12.7528316106461
 20
-4.49999965381447
 30
0.0
 11
5.00000038935394
 21
-4.49999965381447
 31
0.0
  0
LINE
  5
1541
330
18
100
AcDbEntity
  8
SK3
100
AcDbLine
 10
-14.277525610646
 20
-4.49999965381447
 30
0.0
 11
-17.806624610646
 21
-4.49999965381447
 31
0.0
  0
LINE
  5
154D
330
18
100
AcDbEntity
  8
SK1
100
AcDbLine
 10
-6.106460546E-07
 20
-22.2249996538144
 30
0.0
 11
-67.394304610646
 21
-12.3968376538145
 31
0.0
  0
LINE
  5
1551
330
18
100
AcDbEntity
  8
SK3
100
AcDbLine
 10
19.049999389354
 20
27.3161171816874
 30
0.0
 11
11.1000073893541
 21
22.0851823461856
 31
0.0
  0
LINE
  5
1552
330
18
100
AcDbEntity
  8
SK3
100
AcDbLine
 10
8.18914928528289
 20
20.1698968481558
 30
0.0
 11
-15.6260133334759
 21
4.50000034618553
 31
0.0
  0
LINE
  5
1554
330
18
100
AcDbEntity
  8
SK3
100
AcDbLine
 10
3.19999938935399
 20
23.4526568999698
 30
0.0
 11
8.18914928528295
 21
20.1698968481558
 31
0.0
  0
LINE
  5
1555
330
18
100
AcDbEntity
  8
SK3
100
AcDbLine
 10
-10.4959496106461
 20
4.0449063461855
 30
0.0
 11
-10.4883913952723
 21
4.04987949955448
 31
0.0
  0
LINE
  5
1556
330
18
100
AcDbEntity
  8
SK3
100
AcDbLine
 10
-9.80429620443266
 20
4.50000034618553
 30
0.0
 11
19.849999389354
 21
24.011929121096
 31
0.0
  0
LINE
  5
1557
330
18
100
AcDbEntity
  8
SK4
100
AcDbLine
 10
-12.7151541603753
 20
4.50000034618554
 30
0.0
 11
18.9705335965372
 21
25.3485442187457
 31
0.0
  0
LINE
  5
15B5
330
18
100
AcDbEntity
  8
SK3
100
AcDbLine
 10
-19.2500006106461
 20
-6.99999965381447
 30
0.0
 11
-58.9313766106461
 21
-6.99999965381447
 31
0.0
  0
LINE
  5
15B6
330
18
100
AcDbEntity
  8
SK3
100
AcDbLine
 10
-19.2500006106461
 20
7.00000034618553
 30
0.0
 11
-58.9313766106461
 21
7.00000034618553
 31
0.0
  0
LINE
  5
15B7
330
18
100
AcDbEntity
  8
SK3
100
AcDbLine
 10
-19.2500006106461
 20
-6.99999965381447
 30
0.0
 11
-17.806624610646
 21
-4.49999965381447
 31
0.0
  0
LINE
  5
15B8
330
18
100
AcDbEntity
  8
SK3
100
AcDbLine
 10
-19.2500006106461
 20
7.00000034618553
 30
0.0
 11
-19.2500006106461
 21
-6.99999965381447
 31
0.0
  0
LINE
  5
15B9
330
18
100
AcDbEntity
  8
SK3
100
AcDbLine
 10
-19.2500006106461
 20
7.00000034618553
 30
0.0
 11
-17.806624610646
 21
4.50000034618553
 31
0.0
  0
LINE
  5
15BA
330
18
100
AcDbEntity
  8
SK3
100
AcDbLine
 10
-17.806624610646
 20
-4.49999965381447
 30
0.0
 11
-17.806624610646
 21
4.50000034618553
 31
0.0
  0
LINE
  5
15BB
330
18
100
AcDbEntity
  8
SK3
100
AcDbLine
 10
-58.9313766106461
 20
7.00000034618553
 30
0.0
 11
-58.9313766106461
 21
-6.99999965381447
 31
0.0
  0
LINE
  5
15BC
330
18
100
AcDbEntity
  8
SK3
100
AcDbLine
 10
-59.800000610646
 20
-8.50449965381448
 30
0.0
 11
-58.9313766106461
 21
-6.99999965381447
 31
0.0
  0
LINE
  5
15BD
330
18
100
AcDbEntity
  8
SK3
100
AcDbLine
 10
-59.800000610646
 20
8.50450034618554
 30
0.0
 11
-58.9313766106461
 21
7.00000034618553
 31
0.0
  0
LINE
  5
15BE
330
18
100
AcDbEntity
  8
SK3
100
AcDbLine
 10
-59.800000610646
 20
8.50450034618554
 30
0.0
 11
-59.800000610646
 21
-8.50449965381448
 31
0.0
  0
LINE
  5
15BF
330
18
100
AcDbEntity
  8
SK3
100
AcDbLine
 10
-59.800000610646
 20
-8.50449965381448
 30
0.0
 11
-68.249999610646
 21
-8.50449965381448
 31
0.0
  0
LINE
  5
15C0
330
18
100
AcDbEntity
  8
SK3
100
AcDbLine
 10
-59.800000610646
 20
8.50450034618554
 30
0.0
 11
-68.249999610646
 21
8.50450034618554
 31
0.0
  0
LINE
  5
15C1
330
18
100
AcDbEntity
  8
SK3
100
AcDbLine
 10
11.1000073893541
 20
22.0851823461856
 30
0.0
 11
3.19999938935393
 21
27.2832289195969
 31
0.0
  0
LINE
  5
15C2
330
18
100
AcDbEntity
  8
SK4
100
AcDbLine
 10
11.1000072424095
 20
20.1698965197266
 30
0.0
 11
3.19999938935399
 21
25.3679429964513
 31
0.0
  0
SPLINE
  5
15D9
330
18
100
AcDbEntity
  8
SK3
100
AcDbSpline
210
0.0
220
0.0
230
1.0
 70
     8
 71
     3
 72
    14
 73
    10
 74
     0
 42
0.000000001
 43
0.0000000001
 40
0.0
 40
0.0
 40
0.0
 40
0.0
 40
0.25
 40
0.25
 40
0.5
 40
0.5
 40
0.75
 40
0.75
 40
1.0
 40
1.0
 40
1.0
 40
1.0
 10
-14.2775251674416
 20
-4.49999931967714
 30
0.0
 10
-14.1509099771994
 20
-4.49999931967714
 30
0.0
 10
-14.0241418946681
 20
-4.49982927321996
 30
0.0
 10
-13.7703583580233
 20
-4.49959276832679
 30
0.0
 10
-13.6433424854637
 20
-4.49951899086083
 30
0.0
 10
-13.3890966373562
 20
-4.49954412851967
 30
0.0
 10
-13.261866490856
 20
-4.499640224777
 30
0.0
 10
-13.0072100070251
 20
-4.49986826291483
 30
0.0
 10
-12.8796036232426
 20
-4.49999931967714
 30
0.0
 10
-12.7528314069425
 20
-4.49999931967714
 30
0.0
  0
SPLINE
  5
15DA
330
18
100
AcDbEntity
  8
SK3
100
AcDbSpline
210
0.0
220
0.0
230
1.0
 70
     8
 71
     3
 72
     8
 73
     4
 74
     0
 42
0.000000001
 43
0.0000000001
 40
0.0
 40
0.0
 40
0.0
 40
0.0
 40
0.0036112446238054
 40
0.0036112446238054
 40
0.0036112446238054
 40
0.0036112446238054
 10
-12.7528314069425
 20
4.50000068032285
 30
0.0
 10
-12.7491693149921
 20
4.50000068032287
 30
0.0
 10
-12.7455084163501
 20
4.50000057063434
 30
0.0
 10
-12.7418487099892
 20
4.50000034618529
 30
0.0
  0
SPLINE
  5
15DB
330
18
100
AcDbEntity
  8
SK3
100
AcDbSpline
210
0.0
220
0.0
230
1.0
 70
     8
 71
     3
 72
     8
 73
     4
 74
     0
 42
0.000000001
 43
0.0000000001
 40
0.9960880737697303
 40
0.9960880737697303
 40
0.9960880737697303
 40
0.9960880737697303
 40
1.0
 40
1.0
 40
1.0
 40
1.0
 10
-14.2870467238986
 20
4.50000034618509
 30
0.0
 10
-14.2838740430583
 20
4.50000057146799
 30
0.0
 10
-14.2807001888897
 20
4.50000068032285
 30
0.0
 10
-14.2775251674416
 20
4.50000068032285
 30
0.0
  0
SPLINE
  5
15F3
330
18
100
AcDbEntity
  8
SK3
100
AcDbSpline
210
0.0
220
0.0
230
1.0
 70
     8
 71
     3
 72
    14
 73
    10
 74
     0
 42
0.000000001
 43
0.0000000001
 40
0.0
 40
0.0
 40
0.0
 40
0.0
 40
0.25
 40
0.25
 40
0.5
 40
0.5
 40
0.75
 40
0.75
 40
1.0
 40
1.0
 40
1.0
 40
1.0
 10
-14.2775251674416
 20
4.50000068032285
 30
0.0
 10
-14.1509099771994
 20
4.50000068032285
 30
0.0
 10
-14.0241418946681
 20
4.4998306338659
 30
0.0
 10
-13.7703583580233
 20
4.49959412897262
 30
0.0
 10
-13.6433424854637
 20
4.49952035150689
 30
0.0
 10
-13.3890966373562
 20
4.49954548916567
 30
0.0
 10
-13.261866490856
 20
4.49964158542282
 30
0.0
 10
-13.0072100070251
 20
4.49986962356071
 30
0.0
 10
-12.8796036232425
 20
4.50000068032285
 30
0.0
 10
-12.7528314069425
 20
4.50000068032285
 30
0.0
  0
DIMENSION
  5
15F4
330
18
100
AcDbEntity
  8
2
100
AcDbDimension
  2
*D18
 10
80.5
 20
105
 30
0.0
 11
40.25
 21
105
 31
0.0
 70
   160
 71
     5
 42
80.5
  3
AM_DIN
100
AcDbAlignedDimension
 13
0
 23
22.225
 33
0.0
 14
80.5
 24
11.895
 34
0.0
100
AcDbRotatedDimension
1001
ACAD_DSTYLE_DIMINSPECT
1070
   396
1000
100%
1070
   395
1000

1070
   394
1070
    33
1070
   393
1070
     0
1001
ACAD
1000
DSTYLE
1002
{
1070
   286
1070
     8
1070
   274
1070
     3
1070
   284
1070
     8
1070
   283
1070
     1
1070
   146
1040
0.7071069999999999
1070
   272
1070
     2
1070
    47
1040
0.0
1070
    48
1040
0.000000001
1070
    72
1070
     0
1070
    71
1070
     0
1002
}
  0
LINE
  5
15F7
330
18
100
AcDbEntity
  8
4
100
AcDbLine
 10
0
 20
0
 30
0.0
 11
83.9641196332592
 21
0
 31
0.0
  0
LINE
  5
15F8
330
18
100
AcDbEntity
  8
SK4
100
AcDbLine
 10
83.9641196332592
 20
0
 30
0.0
 11
-70.742168719018
 21
0
 31
0.0
  0
DIMENSION
  5
15F9
330
18
100
AcDbEntity
  8
SK2
100
AcDbDimension
  2
*D19
 10
105
 20
-7.99999965381449
 30
0.0
 11
102.136858749122
 21
-0.0262496538144691
 31
0.0
 70
    32
  1
%%c<>
 71
     5
 42
15.9475
  3
AM_DIN
100
AcDbAlignedDimension
 13
80.5000003893539
 23
7.94750034618552
 33
0.0
 14
80.5000003893539
 24
-7.99999965381448
 34
0.0
 50
90.0
100
AcDbRotatedDimension
1001
ACAD_DSTYLE_DIMINSPECT
1070
   396
1000
100%
1070
   395
1000

1070
   394
1070
    33
1070
   393
1070
     0
1001
ACAD
1000
DSTYLE
1002
{
1070
   271
1070
     0
1002
}
  0
DIMENSION
  5
15FC
330
18
100
AcDbEntity
  8
2
100
AcDbDimension
  2
*D13
 10
120
 20
-19.0249996538145
 30
0.0
 11
120
 21
0
 31
0.0
 70
   160
  1
%%c<>
 71
     5
 42
38.04999999999996
  3
AM_DIN
100
AcDbAlignedDimension
 13
63.791052389354
 23
19.0250003461855
 33
0.0
 14
63.791052389354
 24
-19.0249996538144
 34
0.0
 50
90.0
100
AcDbRotatedDimension
1001
ACAD_DSTYLE_DIMINSPECT
1070
   396
1000
100%
1070
   395
1000

1070
   394
1070
    33
1070
   393
1070
     0
1001
ACAD
1000
DSTYLE
1002
{
1070
   271
1070
     0
1002
}
  0
DIMENSION
  5
15FD
330
18
100
AcDbEntity
  8
2
100
AcDbDimension
  2
*D20
 10
135
 20
-24.6250000000001
 30
0.0
 11
135
 21
-2.84E-14
 31
0.0
 70
   160
  1
%%c<>
 71
     5
 42
49.25
  3
AM_DIN
100
AcDbAlignedDimension
 13
44.6054710000001
 23
24.625
 33
0.0
 14
44.6054710000001
 24
-24.625
 34
0.0
 50
90.0
100
AcDbRotatedDimension
1001
ACAD_DSTYLE_DIMINSPECT
1070
   396
1000
100%
1070
   395
1000

1070
   394
1070
    33
1070
   393
1070
     0
1001
ACAD
1000
DSTYLE
1002
{
1070
   286
1070
     8
1070
   274
1070
     3
1070
   284
1070
     8
1070
   283
1070
     1
1070
   146
1040
0.7071069999999999
1070
   272
1070
     2
1070
    47
1040
0.0
1070
    48
1040
0.000000001
1070
    72
1070
     0
1070
    71
1070
     0
1002
}
  0
DIMENSION
  5
1600
330
18
100
AcDbEntity
  8
2
100
AcDbDimension
  2
*D14
 10
48.060166389354
 20
60
 30
0.0
 11
64.280083194677
 21
62.81148981026
 31
0.0
 70
    32
 71
     5
 42
32.43983361064597
  3
AM_DIN
100
AcDbAlignedDimension
 13
80.5
 23
11.895
 33
0.0
 14
48.060166389354
 24
19.0250003461855
 34
0.0
100
AcDbRotatedDimension
1001
ACAD_DSTYLE_DIMINSPECT
1070
   396
1000
100%
1070
   395
1000

1070
   394
1070
    33
1070
   393
1070
     0
1001
ACAD
1000
DSTYLE
1002
{
1070
   271
1070
     1
1002
}
  0
DIMENSION
  5
1601
330
18
100
AcDbEntity
  8
2
100
AcDbDimension
  2
*D21
 10
19.0500000000001
 20
90
 30
0.0
 11
49.775
 21
90
 31
0.0
 70
   160
 71
     5
 42
61.44999999999993
  3
AM_DIN
100
AcDbAlignedDimension
 13
80.5
 23
11.895
 33
0.0
 14
19.0500000000001
 24
31.035926
 34
0.0
100
AcDbRotatedDimension
1001
ACAD_DSTYLE_DIMINSPECT
1070
   396
1000
100%
1070
   395
1000

1070
   394
1070
    33
1070
   393
1070
     0
1001
ACAD
1000
DSTYLE
1002
{
1070
   286
1070
     8
1070
   274
1070
     3
1070
   284
1070
     8
1070
   283
1070
     1
1070
   146
1040
0.7071069999999999
1070
   272
1070
     2
1070
    47
1040
0.0
1070
    48
1040
0.000000001
1070
    72
1070
     0
1070
    71
1070
     0
1002
}
  0
DIMENSION
  5
1604
330
18
100
AcDbEntity
  8
SK2
100
AcDbDimension
  2
*D15
 10
31.500000389354
 20
75
 30
0.0
 11
57.5
 21
75
 31
0.0
 70
   160
 71
     5
 42
48.99999999999998
  3
AM_DIN
100
AcDbAlignedDimension
 13
80.5000003893539
 23
15.8950003461855
 33
0.0
 14
31.5000003893539
 24
8.00000034618553
 34
0.0
100
AcDbRotatedDimension
1001
ACAD_DSTYLE_DIMINSPECT
1070
   396
1000
100%
1070
   395
1000

1070
   394
1070
    33
1070
   393
1070
     0
1001
ACAD
1000
DSTYLE
1002
{
1070
   286
1070
     8
1070
   274
1070
     3
1070
   284
1070
     8
1070
   283
1070
     1
1070
   146
1040
0.7071069999999999
1070
   272
1070
     2
1070
    47
1040
0.0
1070
    48
1040
0.000000001
1070
    72
1070
     0
1070
    71
1070
     0
1002
}
  0
DIMENSION
  5
1605
330
18
100
AcDbEntity
  8
SK2
100
AcDbDimension
  2
*D22
 10
-68.2499999999999
 20
120
 30
0.0
 11
6.125
 21
120
 31
0.0
 70
   160
 71
     5
 42
148.7499999999999
  3
AM_DIN
100
AcDbAlignedDimension
 13
80.5
 23
11.895
 33
0.0
 14
-68.2499999999999
 24
11.407305
 34
0.0
100
AcDbRotatedDimension
1001
ACAD_DSTYLE_DIMINSPECT
1070
   396
1000
100%
1070
   395
1000

1070
   394
1070
    33
1070
   393
1070
     0
1001
ACAD
1000
DSTYLE
1002
{
1070
   286
1070
     8
1070
   274
1070
     3
1070
   284
1070
     8
1070
   283
1070
     1
1070
   146
1040
0.7071069999999999
1070
   272
1070
     2
1070
    47
1040
0.0
1070
    48
1040
0.000000001
1070
    72
1070
     0
1070
    71
1070
     0
1002
}
  0
MTEXT
  5
160A
330
18
100
AcDbEntity
  8
SK6
100
AcDbMText
 10
-67.394304
 20
-38.9599000365711
 30
0.0
 40
3.5
 41
70.87685399625167
 71
     1
 72
     5
  1
DIN40ADB-HC16-080
  7
STANDARD 3.5 mm
 73
     1
 44
1.0
1001
ACAD
1000
ACAD_MTEXT_COLUMN_INFO_BEGIN
1070
    75
1070
     2
1070
    79
1070
     0
1070
    76
1070
     1
1070
    78
1070
     0
1070
    48
1040
70.87685399625167
1070
    49
1040
25.0
1070
    50
1070
     1
1040
0.0
1000
ACAD_MTEXT_COLUMN_INFO_END
1000
MTEXTBEGIN
1070
    73
1070
     1
1070
    44
1040
1.0
1070
    74
1070
     0
1000
MTEXTEND
  0
LINE
  5
160C
330
18
100
AcDbEntity
  8
SK3
100
AcDbLine
 10
19.049999389354
 20
-27.3161164893163
 30
0.0
 11
11.1000073893541
 21
-22.0851816538144
 31
0.0
  0
LINE
  5
160D
330
18
100
AcDbEntity
  8
SK3
100
AcDbLine
 10
8.18914928528289
 20
-20.1698961557847
 30
0.0
 11
-15.6260133334759
 21
-4.49999965381441
 31
0.0
  0
LINE
  5
160E
330
18
100
AcDbEntity
  8
SK3
100
AcDbLine
 10
3.19999938935399
 20
-23.4526562075987
 30
0.0
 11
8.18914928528295
 21
-20.1698961557847
 31
0.0
  0
LINE
  5
160F
330
18
100
AcDbEntity
  8
SK3
100
AcDbLine
 10
-9.80429620443266
 20
-4.49999965381441
 30
0.0
 11
19.849999389354
 21
-24.0119284287249
 31
0.0
  0
LINE
  5
1610
330
18
100
AcDbEntity
  8
SK4
100
AcDbLine
 10
-12.7151541603753
 20
-4.49999965381443
 30
0.0
 11
18.9705335965372
 21
-25.3485435263746
 31
0.0
  0
LINE
  5
1611
330
18
100
AcDbEntity
  8
SK3
100
AcDbLine
 10
11.1000073893541
 20
-22.0851816538144
 30
0.0
 11
3.19999938935393
 21
-27.2832282272258
 31
0.0
  0
LINE
  5
1612
330
18
100
AcDbEntity
  8
SK4
100
AcDbLine
 10
11.1000072424095
 20
-20.1698958273555
 30
0.0
 11
3.19999938935399
 21
-25.3679423040802
 31
0.0
  0
LINE
  5
17AB
330
18
100
AcDbEntity
  8
SK3
100
AcDbLine
 10
5.00000038935394
 20
4.50000034618553
 30
0.0
 11
-12.7528316106461
 21
4.50000034618553
 31
0.0
  0
DIMENSION
  5
17F2
102
{ACAD_XDICTIONARY
360
17FF
102
}
102
{ACAD_REACTORS
330
1800
102
}
330
18
100
AcDbEntity
  8
SK2
100
AcDbDimension
  2
*D23
 10
32.4889322235071
 20
-5.99999965381447
 30
0.0
 11
32.4889322235071
 21
-13.7501753389866
 31
0.0
 70
   160
  1
M<>
 71
     5
 42
11.99999999999999
  3
AM_DIN
100
AcDbAlignedDimension
 13
23.2500003893539
 23
6.00000034618553
 33
0.0
 14
23.2500003893539
 24
-5.99999965381447
 34
0.0
 50
90.00000000000005
100
AcDbRotatedDimension
1001
ACAD_DSTYLE_DIMINSPECT
1070
   396
1000
100%
1070
   395
1000

1070
   394
1070
    33
1070
   393
1070
     0
1001
ACAD
1000
DSTYLE
1002
{
1070
   286
1070
     8
1070
   274
1070
     3
1070
   284
1070
     8
1070
   283
1070
     1
1070
   146
1040
0.7071069999999999
1070
   272
1070
     2
1070
    47
1040
0.0
1070
    48
1040
0.000000001
1070
    72
1070
     0
1070
    71
1070
     0
1002
}
  0
DIMENSION
  5
1843
102
{ACAD_XDICTIONARY
360
1855
102
}
102
{ACAD_REACTORS
330
1856
102
}
330
18
100
AcDbEntity
  8
SK2
100
AcDbDimension
  2
*D24
 10
48.060166389354
 20
19.0250003461855
 30
0.0
 11
87.2293693084652
 21
26.996915930351
 31
0.0
 70
   162
 71
     5
 42
0.1308996909523419
  3
AM_DIN
100
AcDb2LineAngularDimension
 13
78.412879389354
 23
17.1000003461855
 33
0.0
 14
63.791052389354
 24
19.0250003461855
 34
0.0
 15
63.791052389354
 25
19.0250003461855
 35
0.0
 16
88.4537859680925
 26
16.8672907953145
 36
0.0
1001
ACAD_DSTYLE_DIMINSPECT
1070
   396
1000
100%
1070
   395
1000

1070
   394
1070
    33
1070
   393
1070
     0
1001
ACAD
1000
DSTYLE
1002
{
1070
   286
1070
     8
1070
   274
1070
     3
1070
   284
1070
     8
1070
   283
1070
     1
1070
   146
1040
0.7071069999999999
1070
   272
1070
     2
1070
    47
1040
0.0
1070
    48
1040
0.000000001
1070
    72
1070
     0
1070
    71
1070
     0
1002
}
  0
VIEWPORT
  5
B5D
102
{ACAD_XDICTIONARY
360
B5E
102
}
330
B56
100
AcDbEntity
 67
     1
  8
0
100
AcDbViewport
 10
148.4886727696569
 20
104.9919908472322
 30
0.0
 40
360.5799308901367
 41
215.6936333192457
 68
     1
 69
     1
 12
148.4886727696569
 22
104.9919908472322
 13
0.0
 23
0.0
 14
10.0
 24
10.0
 15
10.0
 25
10.0
 16
0.0
 26
0.0
 36
1.0
 17
0.0
 27
0.0
 37
0.0
 42
50.0
 43
0.0
 44
0.0
 45
215.6936333192457
 50
0.0
 51
0.0
 72
  2000
 90
   819232
  1

281
     0
 71
     1
 74
     0
110
0.0
120
0.0
130
0.0
111
1.0
121
0.0
131
0.0
112
0.0
122
1.0
132
0.0
 79
     0
146
0.0
1001
GENIUS_GENOBJ-N-SDF_13
1002
{
1000
OWNER
1000
GEN
1002
}
1001
GENIUS_GENODEF_13
1002
{
1000
HIER
1070
     0
1002
}
1002
{
1000
MANEDIT
1070
     0
1002
}
1002
{
1000
NOSEL
1070
     0
1002
}
1002
{
1000
BEHIND
1070
     0
1002
}
1002
{
1000
OTHER
1070
     0
1002
}
1002
{
1000
REACTOR
1002
}
1001
GENIUS_GENSCREG_15
1000
PF
1040
1.0
1000
DF
1040
1.0
1000
MIN
1011
-31.80129267541145
1021
-2.854825812390629
1031
0.0
1000
MAX
1011
328.7786382147253
1021
212.8388075068551
1031
0.0
1000
FLAGS
1070
     4
  0
VIEWPORT
  5
B61
102
{ACAD_XDICTIONARY
360
B62
102
}
330
B56
100
AcDbEntity
 67
     1
  8
1
100
AcDbViewport
 10
148.5
 20
105.0
 30
0.0
 40
297.0
 41
210.0
 68
     2
 69
     2
 12
0.3212157160238718
 22
-0.0519849240370149
 13
0.0
 23
0.0
 14
5.0
 24
5.0
 15
5.0
 25
5.0
 16
0.0
 26
0.0
 36
1.0
 17
0.0
 27
0.0
 37
0.0
 42
50.0
 43
0.0
 44
0.0
 45
210.0000000373879
 50
0.0
 51
0.0
 72
  2000
 90
   819232
  1

281
     0
 71
     1
 74
     0
110
0.0
120
0.0
130
0.0
111
1.0
121
0.0
131
0.0
112
0.0
122
1.0
132
0.0
 79
     0
146
0.0
1001
GENIUS_GENODEF_13
1002
{
1000
HIER
1070
     0
1002
}
1002
{
1000
MANEDIT
1070
     0
1002
}
1002
{
1000
NOSEL
1070
     0
1002
}
1002
{
1000
BEHIND
1070
     0
1002
}
1002
{
1000
OTHER
1070
     0
1002
}
1002
{
1000
REACTOR
1002
}
1001
GENIUS_GENOBJ-N-SDF_13
1002
{
1000
OWNER
1000
GEN
1002
}
1001
GENIUS_GENSCREG_15
1000
PF
1040
0.0
1000
DF
1040
0.0
1000
MIN
1011
0.0
1021
0.0
1031
0.0
1000
MAX
1011
297.0
1021
210.0
1031
0.0
1000
FLAGS
1070
     4
  0
ENDSEC
  0
SECTION
  2
OBJECTS
  0
DICTIONARY
  5
C
330
0
100
AcDbDictionary
281
     1
  3
ACAD_2007HEADERVARS_RT
350
1E98
  3
ACAD_BACKGROUND
350
B0F
  3
ACAD_CIP_PREVIOUS_PRODUCT_INFO
350
CF7
  3
ACAD_COLOR
350
387
  3
ACAD_DETAILVIEWSTYLE
350
CEF
  3
ACAD_FIELDLIST
350
D13
  3
ACAD_GROUP
350
D
  3
ACAD_LAYOUT
350
301
  3
ACAD_MATERIAL
350
386
  3
ACAD_MLEADERSTYLE
350
46F
  3
ACAD_MLINESTYLE
350
E
  3
ACAD_PLOTSETTINGS
350
302
  3
ACAD_PLOTSTYLENAME
350
2FF
  3
ACAD_SCALELIST
350
44D
  3
ACAD_SECTIONVIEWSTYLE
350
CED
  3
ACAD_TABLESTYLE
350
388
  3
ACAD_VISUALSTYLE
350
3F2
  3
ACDB_RECOMPOSE_DATA
350
1E96
  3
AcDbVariableDictionary
350
357
  3
AcmDictionary
350
4D1
  3
AMG
350
478
  3
AMGSNAPSETTINGS
350
51E
  3
DWGPROPS
350
1E97
  0
DICTIONARY
  5
A45
330
8
100
AcDbDictionary
280
     1
281
     1
  0
DICTIONARY
  5
43C
330
2
100
AcDbDictionary
280
     1
281
     1
  3
ACAD_LAYERFILTERS
360
B21
  3
ACAD_LAYERSTATES
360
567
  3
ACLYDICTIONARY
360
B20
  3
AMLAYER_GROUPCOLORS
360
E31
  0
DICTIONARY
  5
52D
330
F
100
AcDbDictionary
280
     1
281
     1
  3
ADSK_XREC_LAYER_RECONCILED
360
1994
  0
DICTIONARY
  5
52F
330
23
100
AcDbDictionary
280
     1
281
     1
  3
ADSK_XREC_LAYER_RECONCILED
360
1995
  0
DICTIONARY
  5
531
330
24
100
AcDbDictionary
280
     1
281
     1
  3
ADSK_XREC_LAYER_RECONCILED
360
1996
  0
DICTIONARY
  5
533
330
25
100
AcDbDictionary
280
     1
281
     1
  3
ADSK_XREC_LAYER_RECONCILED
360
1997
  0
DICTIONARY
  5
537
330
27
100
AcDbDictionary
280
     1
281
     1
  3
ADSK_XREC_LAYER_RECONCILED
360
1998
  0
DICTIONARY
  5
53B
330
29
100
AcDbDictionary
280
     1
281
     1
  3
ADSK_XREC_LAYER_RECONCILED
360
1999
  0
DICTIONARY
  5
53D
330
2A
100
AcDbDictionary
280
     1
281
     1
  3
ADSK_XREC_LAYER_RECONCILED
360
199A
  0
DICTIONARY
  5
53F
330
2B
100
AcDbDictionary
280
     1
281
     1
  3
ADSK_XREC_LAYER_RECONCILED
360
199B
  0
DICTIONARY
  5
545
330
2E
100
AcDbDictionary
280
     1
281
     1
  3
ADSK_XREC_LAYER_RECONCILED
360
199C
  0
DICTIONARY
  5
199D
330
EB5
100
AcDbDictionary
280
     1
281
     1
  3
ADSK_XREC_LAYER_RECONCILED
360
199E
  0
DICTIONARY
  5
DB1
330
18
100
AcDbDictionary
280
     1
281
     1
  3
ACAD_SORTENTS
360
DB2
  0
DICTIONARY
  5
19F9
330
1448
100
AcDbDictionary
280
     1
281
     1
  3
ACAD_MTEXT_RT
360
1EE3
  0
DICTIONARY
  5
1AA6
330
17A5
100
AcDbDictionary
280
     1
281
     1
  3
ACAD_MTEXT_RT
360
1EE4
  0
DICTIONARY
  5
1EE5
330
1CAC
100
AcDbDictionary
280
     1
281
     1
  3
ACAD_MTEXT_RT
360
1EE6
  0
DICTIONARY
  5
17FF
330
17F2
100
AcDbDictionary
280
     1
281
     1
  3
ACAD_DIMASSOC
360
1800
  0
DICTIONARY
  5
1855
330
1843
100
AcDbDictionary
280
     1
281
     1
  3
ACAD_DIMASSOC
360
1856
  0
DICTIONARY
  5
B5E
330
B5D
100
AcDbDictionary
280
     1
281
     1
  3
ACAD_XREC_ROUNDTRIP
360
1EC9
  3
ASDK_XREC_ANNOTATION_SCALE_INFO
360
B5F
  0
DICTIONARY
  5
B62
330
B61
100
AcDbDictionary
280
     1
281
     1
  3
ACAD_XREC_ROUNDTRIP
360
1ECA
  3
ASDK_XREC_ANNOTATION_SCALE_INFO
360
B63
  0
DICTIONARY
  5
1E98
102
{ACAD_REACTORS
330
C
102
}
330
C
100
AcDbDictionary
281
     1
  3
DIMARCSYM
350
1E99
  3
DIMJOGANG
350
1E9A
  3
DIMLTEX1
350
1E9C
  3
DIMLTEX2
350
1E9D
  3
DIMLTYPE
350
1E9B
  0
DICTIONARY
  5
B0F
102
{ACAD_REACTORS
330
C
102
}
330
C
100
AcDbDictionary
281
     1
  0
XRECORD
  5
CF7
102
{ACAD_REACTORS
330
C
102
}
330
C
100
AcDbXrecord
280
     1
300
AMECH_PP
300
2020
300
87229AMECH_PP_2020_0F
  0
DICTIONARY
  5
387
102
{ACAD_REACTORS
330
C
102
}
330
C
100
AcDbDictionary
281
     1
  0
DICTIONARY
  5
CEF
102
{ACAD_REACTORS
330
C
102
}
330
C
100
AcDbDictionary
281
     1
  3
Metric50
350
CF0
  0
FIELDLIST
  5
D13
102
{ACAD_REACTORS
330
C
102
}
330
C
100
AcDbIdSet
 90
        3
330
1E37
330
1E38
330
1E39
100
AcDbFieldList
  0
DICTIONARY
  5
D
102
{ACAD_REACTORS
330
C
102
}
330
C
100
AcDbDictionary
281
     1
  0
DICTIONARY
  5
301
102
{ACAD_REACTORS
330
C
102
}
330
C
100
AcDbDictionary
281
     1
  3
Layout1
350
B57
  3
Model
350
303
  0
DICTIONARY
  5
386
102
{ACAD_REACTORS
330
C
102
}
330
C
100
AcDbDictionary
281
     1
  3
ByBlock
350
3F0
  3
ByLayer
350
3EF
  3
Global
350
3F1
  0
DICTIONARY
  5
46F
102
{ACAD_REACTORS
330
C
102
}
330
C
100
AcDbDictionary
281
     1
  3
Standard
350
470
  0
DICTIONARY
  5
E
102
{ACAD_REACTORS
330
C
102
}
330
C
100
AcDbDictionary
281
     1
  3
STANDARD
350
1B
  0
DICTIONARY
  5
302
102
{ACAD_REACTORS
330
C
102
}
330
C
100
AcDbDictionary
281
     1
  3
DWG To PDF A4 - landscape
350
7EF
  3
DWG To PDF A4 - portrait
350
7F8
  0
ACDBDICTIONARYWDFLT
  5
2FF
102
{ACAD_REACTORS
330
C
102
}
330
C
100
AcDbDictionary
281
     1
  3
Normal
350
300
100
AcDbDictionaryWithDefault
340
300
  0
DICTIONARY
  5
44D
102
{ACAD_REACTORS
330
C
102
}
330
C
100
AcDbDictionary
281
     1
  3
A0
350
BFC
  3
A1
350
BFD
  3
A2
350
BFE
  3
A3
350
BFF
  3
A4
350
C00
  3
A5
350
C01
  3
A6
350
44E
  3
A7
350
C02
  3
A8
350
C03
  3
A9
350
C04
  3
B0
350
C05
  3
B1
350
C06
  3
B2
350
C07
  0
DICTIONARY
  5
CED
102
{ACAD_REACTORS
330
C
102
}
330
C
100
AcDbDictionary
281
     1
  3
Metric50
350
CEE
  0
DICTIONARY
  5
388
102
{ACAD_REACTORS
330
C
102
}
330
C
100
AcDbDictionary
281
     1
  3
Standard
350
389
  0
DICTIONARY
  5
3F2
102
{ACAD_REACTORS
330
C
102
}
330
C
100
AcDbDictionary
281
     1
  3
2dWireframe
350
3F8
  3
3D Hidden
350
3FA
  3
3dWireframe
350
3F9
  3
Basic
350
3F7
  3
Brighten
350
3FE
  3
ColorChange
350
402
  3
Conceptual
350
3FB
  3
Dim
350
3FD
  3
EdgeColorOff
350
BDF
  3
Facepattern
350
401
  3
Flat
350
3F3
  3
FlatWithEdges
350
3F4
  3
Gouraud
350
3F5
  3
GouraudWithEdges
350
3F6
  3
Hidden
350
CE7
  3
JitterOff
350
BDD
  3
Linepattern
350
400
  3
OverhangOff
350
BDE
  3
Realistic
350
3FC
  3
Shaded
350
CEC
  3
Shaded with edges
350
CEB
  3
Shades of Gray
350
CE8
  3
Sketchy
350
CE9
  3
Thicken
350
3FF
  3
Wireframe
350
CE6
  3
X-Ray
350
CEA
  0
XRECORD
  5
1E96
102
{ACAD_REACTORS
330
C
102
}
330
C
100
AcDbXrecord
280
     1
 90
        1
330
389
330
160A
  0
DICTIONARY
  5
357
102
{ACAD_REACTORS
330
C
102
}
330
C
100
AcDbDictionary
281
     1
  3
CANNOSCALE
350
57C
  3
CMLEADERSTYLE
350
57A
  3
CTABLESTYLE
350
38E
  3
CVIEWDETAILSTYLE
350
D2C
  3
CVIEWSECTIONSTYLE
350
D2D
  3
DIMASSOC
350
359
  3
HIDETEXT
350
358
  3
INDEXCTL
350
ACC
  3
LAYEREVAL
350
BF1
  3
LAYERNOTIFY
350
BF2
  3
LIGHTINGUNITS
350
57D
  3
MSLTSCALE
350
57B
  3
SOLIDHIST
350
19A0
  3
SORTENTS
350
ACB
  3
XCLIPFRAME
350
1E94
  0
DICTIONARY
  5
4D1
102
{ACAD_REACTORS
330
C
102
}
330
C
100
AcDbDictionary
281
     1
  3
AcmStdDictionary
350
4DC
  3
AMDTSECTSYM_ARROWCOLOR
350
4F3
  0
DICTIONARY
  5
478
102
{ACAD_REACTORS
330
C
102
}
330
C
100
AcDbDictionary
281
     1
  0
DICTIONARY
  5
51E
102
{ACAD_REACTORS
330
C
102
}
330
C
100
AcDbDictionary
281
     1
  0
XRECORD
  5
1E97
102
{ACAD_REACTORS
330
C
102
}
330
C
100
AcDbXrecord
280
     1
  1
DWGPROPS COOKIE
  2

  3

  4
Philippe Vogel
  6
Secotools DIN Template metric
  7

  8
inpunganp
  9

300
=
301
=
302
=
303
=
304
=
305
=
306
=
307
=
308
=
309
=
 40
0.0345027314814815
 41
2459741.527210648
 42
2459745.469432871
  1
HTTP://WWW.SECOTOOLS.COM/
 90
        0
  0
DICTIONARY
  5
B21
102
{ACAD_REACTORS
330
43C
102
}
330
43C
100
AcDbDictionary
281
     1
  0
DICTIONARY
  5
567
102
{ACAD_REACTORS
330
43C
102
}
330
43C
100
AcDbDictionary
281
     1
  3
BMG3.0
350
8E9
  0
DICTIONARY
  5
B20
102
{ACAD_REACTORS
330
43C
102
}
330
43C
100
AcDbDictionary
281
     1
1001
ACAD
1000
<All
  0
DICTIONARY
  5
E31
102
{ACAD_REACTORS
330
43C
102
}
330
43C
100
AcDbDictionary
280
     1
281
     1
  0
XRECORD
  5
1994
102
{ACAD_REACTORS
330
52D
102
}
330
52D
100
AcDbXrecord
280
     1
290
     1
  0
XRECORD
  5
1995
102
{ACAD_REACTORS
330
52F
102
}
330
52F
100
AcDbXrecord
280
     1
290
     1
  0
XRECORD
  5
1996
102
{ACAD_REACTORS
330
531
102
}
330
531
100
AcDbXrecord
280
     1
290
     1
  0
XRECORD
  5
1997
102
{ACAD_REACTORS
330
533
102
}
330
533
100
AcDbXrecord
280
     1
290
     1
  0
XRECORD
  5
1998
102
{ACAD_REACTORS
330
537
102
}
330
537
100
AcDbXrecord
280
     1
290
     1
  0
XRECORD
  5
1999
102
{ACAD_REACTORS
330
53B
102
}
330
53B
100
AcDbXrecord
280
     1
290
     1
  0
XRECORD
  5
199A
102
{ACAD_REACTORS
330
53D
102
}
330
53D
100
AcDbXrecord
280
     1
290
     1
  0
XRECORD
  5
199B
102
{ACAD_REACTORS
330
53F
102
}
330
53F
100
AcDbXrecord
280
     1
290
     1
  0
XRECORD
  5
199C
102
{ACAD_REACTORS
330
545
102
}
330
545
100
AcDbXrecord
280
     1
290
     1
  0
XRECORD
  5
199E
102
{ACAD_REACTORS
330
199D
102
}
330
199D
100
AcDbXrecord
280
     1
290
     1
  0
SORTENTSTABLE
  5
DB2
102
{ACAD_REACTORS
330
DB1
102
}
330
DB1
100
AcDbSortentsTable
330
18
331
13B4
  5
13CF
331
1540
  5
1541
331
1541
  5
1543
331
154D
  5
154F
331
1551
  5
1553
331
1552
  5
1554
331
1554
  5
1556
331
1555
  5
1557
331
1556
  5
1558
331
1557
  5
1559
331
15B5
  5
15B7
331
15B6
  5
15B8
331
15B7
  5
15B9
331
15B8
  5
15BA
331
15B9
  5
15BB
331
15BA
  5
15BC
331
15BB
  5
15BD
331
15BC
  5
15BE
331
15BD
  5
15BF
331
15BE
  5
15C0
331
15BF
  5
15C1
331
15C0
  5
15C2
331
15C1
  5
15C3
331
15C2
  5
15C4
331
15D9
  5
15DB
331
15DA
  5
15DC
331
15DB
  5
15DD
331
15F3
  5
15F7
331
15F4
  5
15F8
331
15F7
  5
15F9
331
15F8
  5
15FC
331
15F9
  5
15FD
331
15FC
  5
1600
331
15FD
  5
1601
331
1600
  5
1604
331
1601
  5
1605
331
1604
  5
1608
331
1605
  5
1609
331
160A
  5
160C
331
160C
  5
160E
331
160D
  5
160F
331
160E
  5
1610
331
160F
  5
1611
331
1610
  5
1612
331
1611
  5
1613
331
1612
  5
1614
331
17AB
  5
153F
  0
XRECORD
  5
1EE3
102
{ACAD_REACTORS
330
19F9
102
}
330
19F9
100
AcDbXrecord
280
     1
 40
6092.0
  1
\A1;7.5°
  0
XRECORD
  5
1EE4
102
{ACAD_REACTORS
330
1AA6
102
}
330
1AA6
100
AcDbXrecord
280
     1
 40
6092.0
  1
\A1;7.5°
  0
XRECORD
  5
1EE6
102
{ACAD_REACTORS
330
1EE5
102
}
330
1EE5
100
AcDbXrecord
280
     1
 40
4585.0
  1
\A1;7°
  0
DIMASSOC
  5
1800
102
{ACAD_REACTORS
330
17FF
102
}
330
17FF
100
AcDbDimAssoc
330
17F2
 90
        3
 70
     0
 71
     0
  1
AcDbOsnapPointRef
 72
     2
331
1206
 73
     0
 91
        0
 40
0.0
 10
0.0
 20
0.0
 30
0.0
 75
     0
  1
AcDbOsnapPointRef
 72
     2
331
1205
 73
     0
 91
        0
 40
0.0
 10
0.0
 20
0.0
 30
0.0
 75
     0
  0
DIMASSOC
  5
1856
102
{ACAD_REACTORS
330
1855
102
}
330
1855
100
AcDbDimAssoc
330
1843
 90
       15
 70
     0
 71
     0
  1
AcDbOsnapPointRef
 72
    13
331
13B4
 73
     2
 91
       49
 40
0.0
 10
0.0
 20
0.0
 30
2.000000000000000E+50
 75
     0
  1
AcDbOsnapPointRef
 72
     1
331
13B4
 73
     2
 91
       49
 40
0.0
 10
0.0
 20
0.0
 30
2.000000000000000E+50
 75
     0
  1
AcDbOsnapPointRef
 72
    13
331
13B4
 73
     2
 91
       51
 40
0.0
 10
0.0
 20
0.0
 30
2.000000000000000E+50
 75
     0
  1
AcDbOsnapPointRef
 72
     1
331
13B4
 73
     2
 91
       51
 40
0.0
 10
0.0
 20
0.0
 30
2.000000000000000E+50
 75
     0
  0
XRECORD
  5
1EC9
102
{ACAD_REACTORS
330
B5E
102
}
330
B5E
100
AcDbXrecord
280
     1
102
SHADEPLOT
 70
     0
  0
XRECORD
  5
B5F
102
{ACAD_REACTORS
330
B5E
102
}
330
B5E
100
AcDbXrecord
280
     1
 90
        1
340
44E
  0
XRECORD
  5
1ECA
102
{ACAD_REACTORS
330
B62
102
}
330
B62
100
AcDbXrecord
280
     1
102
SHADEPLOT
 70
     0
  0
XRECORD
  5
B63
102
{ACAD_REACTORS
330
B62
102
}
330
B62
100
AcDbXrecord
280
     1
 90
        1
340
44E
  0
XRECORD
  5
1E99
102
{ACAD_REACTORS
330
1E98
102
}
330
1E98
100
AcDbXrecord
280
     1
 70
     1
  0
XRECORD
  5
1E9A
102
{ACAD_REACTORS
330
1E98
102
}
330
1E98
100
AcDbXrecord
280
     1
 40
1.570796326794896
  0
XRECORD
  5
1E9C
102
{ACAD_REACTORS
330
1E98
102
}
330
1E98
100
AcDbXrecord
280
     1
340
12
  0
XRECORD
  5
1E9D
102
{ACAD_REACTORS
330
1E98
102
}
330
1E98
100
AcDbXrecord
280
     1
340
12
  0
XRECORD
  5
1E9B
102
{ACAD_REACTORS
330
1E98
102
}
330
1E98
100
AcDbXrecord
280
     1
340
12
  0
ACDBDETAILVIEWSTYLE
  5
CF0
102
{ACAD_XDICTIONARY
360
1EE1
102
}
102
{ACAD_REACTORS
330
CEF
330
1E32
102
}
330
CEF
100
AcDbModelDocViewStyle
 70
     0
  3
Metric50
290
     0
100
AcDbDetailViewStyle
 70
     0
 71
     0
 90
        3
 71
     1
340
10
 40
5.0
340
0
 40
5.0
300

 40
0.0
280
     1
 71
     2
340
14
 90
       25
 71
     3
340
10
 40
5.0
 90
        0
 40
15.0
 90
        1
300
%<\AcVar ViewDetailId>% (%<\AcVar ViewScale \f "%sn">%)
 71
     4
340
14
 90
       25
340
14
 90
       25
280
     0
  0
LAYOUT
  5
B57
102
{ACAD_XDICTIONARY
360
1EC7
102
}
102
{ACAD_REACTORS
330
301
102
}
330
301
100
AcDbPlotSettings
  1

  2
DWG To PDF.pc3
  4
UserDefinedMetric (297.00 x 210.00mm)
  6

 40
0.0
 41
0.0
 42
0.0
 43
0.0
 44
297.0
 45
210.0
 46
0.0
 47
0.0
 48
0.0
 49
0.0
140
0.0
141
0.0
142
1.0
143
1.0
 70
   688
 72
     1
 73
     0
 74
     5
  7
monochrome.ctb
 75
    16
147
1.0
148
0.0
149
0.0
100
AcDbLayout
  1
Layout1
 70
     1
 71
     1
 10
0.0
 20
0.0
 11
297.0
 21
210.0
 12
0.0
 22
0.0
 32
0.0
 14
-0.0226558438690745
 24
-0.0160192835437556
 34
-0.000000000000013
 15
297.000001383183
 25
210.0000009780083
 35
0.0000000000000023
146
0.0
 13
0.0
 23
0.0
 33
0.0
 16
1.0
 26
0.0
 36
0.0
 17
0.0
 27
1.0
 37
0.0
 76
     0
330
B56
331
B5D
1001
ACAD_PSEXT
1000
DWG To PDF.pc3
1000
PDF
1000
Datei
1000

1070
     0
  0
LAYOUT
  5
303
102
{ACAD_XDICTIONARY
360
1E9E
102
}
102
{ACAD_REACTORS
330
301
102
}
330
301
100
AcDbPlotSettings
  1

  2
Default Windows System Printer.pc3
  4
A4
  6

 40
4.233333110809326
 41
4.995328426361083
 42
4.233322143554686
 43
4.995330810546875
 44
209.9733276367186
 45
296.9683227539062
 46
0.0
 47
97.55556227323861
 48
0.0
 49
0.0
140
0.0
141
0.0
142
1.0
143
6.090554118624327
 70
  3764
 72
     1
 73
     1
 74
     1
  7
monochrome.ctb
 75
     0
147
0.164188673234525
148
197.0402205952446
149
599.055175279564
100
AcDbLayout
  1
Model
 70
     1
 71
     0
 10
0.0
 20
0.0
 11
12.0
 21
9.0
 12
0.0
 22
0.0
 32
0.0
 14
0.0
 24
0.0
 34
0.0
 15
0.0
 25
0.0
 35
0.0
146
0.0
 13
0.0
 23
0.0
 33
0.0
 16
1.0
 26
0.0
 36
0.0
 17
0.0
 27
1.0
 37
0.0
 76
     0
330
18
331
AD1
1001
ACAD_PSEXT
1000
Default Windows System Printer.pc3
1000
HP LaserJet 5100 PCL 6
1000
HPLaserJet5100Series
1000

1070
     0
  0
MATERIAL
  5
3F0
102
{ACAD_XDICTIONARY
360
19B3
102
}
102
{ACAD_REACTORS
330
386
102
}
330
386
100
AcDbMaterial
  1
ByBlock
 73
     1
 78
     1
172
     1
176
     1
270
     1
274
     1
  0
MATERIAL
  5
3EF
102
{ACAD_XDICTIONARY
360
19B1
102
}
102
{ACAD_REACTORS
330
386
102
}
330
386
100
AcDbMaterial
  1
ByLayer
 73
     1
 78
     1
172
     1
176
     1
270
     1
274
     1
  0
MATERIAL
  5
3F1
102
{ACAD_XDICTIONARY
360
19B5
102
}
102
{ACAD_REACTORS
330
386
102
}
330
386
100
AcDbMaterial
  1
Global
 73
     1
 78
     1
172
     1
176
     1
270
     1
274
     1
  0
MLEADERSTYLE
  5
470
102
{ACAD_XDICTIONARY
360
1EC1
102
}
102
{ACAD_REACTORS
330
46F
102
}
330
46F
100
AcDbMLeaderStyle
170
     2
171
     1
172
     0
 90
        2
 40
0.0
 41
0.0
173
     1
 91
-1056964608
340
12
 92
       -2
290
     1
 42
2.0
291
     1
 43
0.36
  3
Standard
 44
5.0
300

342
10
174
     0
178
     6
175
     1
176
     0
 93
-1056964608
 45
3.5
292
     0
297
     0
 46
4.0
 94
-1056964608
 47
1.0
 49
1.0
140
1.0
293
     1
141
0.0
294
     1
177
     0
142
1.0
295
     0
296
     0
143
0.125
1001
ACAD_MLEADERVER
1070
     2
  0
MLINESTYLE
  5
1B
102
{ACAD_REACTORS
330
E
102
}
330
E
100
AcDbMlineStyle
  2
STANDARD
 70
     0
  3

 62
     0
 51
90.0
 52
90.0
 71
     2
 49
0.5
 62
   256
  6
BYLAYER
 49
-0.5
 62
   256
  6
BYLAYER
  0
PLOTSETTINGS
  5
7EF
102
{ACAD_XDICTIONARY
360
1EC3
102
}
102
{ACAD_REACTORS
330
302
102
}
330
302
100
AcDbPlotSettings
  1
DWG To PDF A4 - landscape
  2
DWG To PDF.pc3
  4
ISO_expand_A4_(297.00_x_210.00_MM)
  6

 40
5.793749809265136
 41
10.79374980926513
 42
5.79376220703125
 43
10.79374694824219
 44
297.0
 45
210.0
 46
99.7577788938406
 47
0.0
 48
0.0
 49
0.0
140
0.0
141
0.0
142
1.0
143
6.513831472368249
 70
 11956
 72
     1
 73
     0
 74
     1
  7
monochrome.ctb
 75
     0
147
0.153519476861201
148
197.0402205952446
149
599.055175279564
1001
ACAD_PSEXT
1000
DWG To PDF.pc3
1000
PDF
1000
Datei
1000

1070
     0
  0
PLOTSETTINGS
  5
7F8
102
{ACAD_XDICTIONARY
360
1EC5
102
}
102
{ACAD_REACTORS
330
302
102
}
330
302
100
AcDbPlotSettings
  1
DWG To PDF A4 - portrait
  2
DWG To PDF.pc3
  4
ISO_expand_A4_(210.00_x_297.00_MM)
  6

 40
5.793749809265136
 41
10.79374980926513
 42
5.793746948242187
 43
10.79376220703125
 44
210.0
 45
297.0
 46
36.42621619811505
 47
0.0
 48
0.0
 49
0.0
140
0.0
141
0.0
142
1.0
143
4.456178811620381
 70
 11956
 72
     1
 73
     0
 74
     1
  7
monochrome.ctb
 75
     0
147
0.2244075119679441
148
197.0402205952446
149
599.055175279564
1001
ACAD_PSEXT
1000
DWG To PDF.pc3
1000
PDF
1000
Datei
1000

1070
     0
  0
ACDBPLACEHOLDER
  5
300
102
{ACAD_REACTORS
330
2FF
102
}
330
2FF
  0
SCALE
  5
BFC
102
{ACAD_REACTORS
330
44D
102
}
330
44D
100
AcDbScale
 70
     0
300
100:1
140
100.0
141
1.0
290
     0
  0
SCALE
  5
BFD
102
{ACAD_REACTORS
330
44D
102
}
330
44D
100
AcDbScale
 70
     0
300
50:1
140
50.0
141
1.0
290
     0
  0
SCALE
  5
BFE
102
{ACAD_REACTORS
330
44D
102
}
330
44D
100
AcDbScale
 70
     0
300
20:1
140
20.0
141
1.0
290
     0
  0
SCALE
  5
BFF
102
{ACAD_REACTORS
330
44D
102
}
330
44D
100
AcDbScale
 70
     0
300
10:1
140
10.0
141
1.0
290
     0
  0
SCALE
  5
C00
102
{ACAD_REACTORS
330
44D
102
}
330
44D
100
AcDbScale
 70
     0
300
5:1
140
5.0
141
1.0
290
     0
  0
SCALE
  5
C01
102
{ACAD_REACTORS
330
44D
102
}
330
44D
100
AcDbScale
 70
     0
300
2:1
140
2.0
141
1.0
290
     0
  0
SCALE
  5
44E
102
{ACAD_REACTORS
330
44D
102
}
330
44D
100
AcDbScale
 70
     0
300
1:1
140
1.0
141
1.0
290
     1
  0
SCALE
  5
C02
102
{ACAD_REACTORS
330
44D
102
}
330
44D
100
AcDbScale
 70
     0
300
1:2
140
1.0
141
2.0
290
     0
  0
SCALE
  5
C03
102
{ACAD_REACTORS
330
44D
102
}
330
44D
100
AcDbScale
 70
     0
300
1:5
140
1.0
141
5.0
290
     0
  0
SCALE
  5
C04
102
{ACAD_REACTORS
330
44D
102
}
330
44D
100
AcDbScale
 70
     0
300
1:10
140
1.0
141
10.0
290
     0
  0
SCALE
  5
C05
102
{ACAD_REACTORS
330
44D
102
}
330
44D
100
AcDbScale
 70
     0
300
1:20
140
1.0
141
20.0
290
     0
  0
SCALE
  5
C06
102
{ACAD_REACTORS
330
44D
102
}
330
44D
100
AcDbScale
 70
     0
300
1:50
140
1.0
141
50.0
290
     0
  0
SCALE
  5
C07
102
{ACAD_REACTORS
330
44D
102
}
330
44D
100
AcDbScale
 70
     0
300
1:100
140
1.0
141
100.0
290
     0
  0
ACDBSECTIONVIEWSTYLE
  5
CEE
102
{ACAD_XDICTIONARY
360
1EDF
102
}
102
{ACAD_REACTORS
330
CED
330
1E31
102
}
330
CED
100
AcDbModelDocViewStyle
 70
     0
  3
Metric50
290
     0
100
AcDbSectionViewStyle
 70
     0
 71
     0
 90
      102
 71
     1
340
10
 40
5.0
340
0
340
0
 40
5.0
300
I, O, Q, S, X, Z
 40
10.0
 90
        0
 40
2.5
 90
        0
 71
     2
340
14
 90
       25
340
14
 90
       50
 40
5.0
 40
2.5
 40
5.0
 71
     3
340
10
 40
5.0
 90
        0
 40
15.0
 90
        1
300
%<\AcVar ViewSectionStartId>%-%<\AcVar ViewSectionEndId>% (%<\AcVar ViewScale \f "%sn">%)
 71
     4
300
ANSI31
 40
1.0
 90
        0
290
     0
290
     0
 90
        6
 40
0.0
 40
1.570796326794896
 40
0.2617993877991494
 40
1.308996938995747
 40
-0.2617993877991494
 40
1.832595714594044
  0
TABLESTYLE
  5
389
102
{ACAD_XDICTIONARY
360
577
102
}
102
{ACAD_REACTORS
330
388
102
}
330
388
100
AcDbTableStyle
  3
Standard
 70
     0
 71
     0
 40
1.5
 41
1.5
280
     0
281
     0
  7
STANDARD
140
4.5
170
     2
 62
     0
 63
     7
283
     0
274
    -2
284
     1
 64
     0
275
    -2
285
     1
 65
     0
276
    -2
286
     1
 66
     0
277
    -2
287
     1
 67
     0
278
    -2
288
     1
 68
     0
279
    -2
289
     1
 69
     0
  7
STANDARD 5 mm
140
6.0
170
     5
 62
     0
 63
     7
283
     0
274
    -2
284
     1
 64
     0
275
    -2
285
     1
 65
     0
276
    -2
286
     1
 66
     0
277
    -2
287
     1
 67
     0
278
    -2
288
     1
 68
     0
279
    -2
289
     1
 69
     0
  7
STANDARD
140
4.5
170
     5
 62
     0
 63
     7
283
     0
274
    -2
284
     1
 64
     0
275
    -2
285
     1
 65
     0
276
    -2
286
     1
 66
     0
277
    -2
287
     1
 67
     0
278
    -2
288
     1
 68
     0
279
    -2
289
     1
 69
     0
  0
VISUALSTYLE
  5
3F8
102
{ACAD_XDICTIONARY
360
1EAB
102
}
102
{ACAD_REACTORS
330
3F2
102
}
330
3F2
100
AcDbVisualStyle
  2

 70
     4
 71
     0
 72
     2
 73
     0
 90
        0
 40
-0.6
 41
-30.0
 62
     5
 63
     7
 74
     1
 91
        4
 64
     7
 65
   257
 75
     1
175
     1
 42
1.0
 92
        0
 66
   257
 43
1.0
 76
     1
 77
     6
 78
     2
 67
     7
 79
     5
170
     0
171
     0
290
     0
174
     0
 93
        1
 44
0.0
173
     0
291
     0
 45
0.0
1001
ACAD
1000
AcDbSavedByObjectVersion
1070
     0
  0
VISUALSTYLE
  5
3FA
102
{ACAD_XDICTIONARY
360
1EAF
102
}
102
{ACAD_REACTORS
330
3F2
102
}
330
3F2
100
AcDbVisualStyle
  2

 70
     6
 71
     1
 72
     2
 73
     2
 90
        0
 40
-0.6
 41
-30.0
 62
     5
 63
     7
 74
     2
 91
        2
 64
     7
 65
   257
 75
     2
175
     1
 42
40.0
 92
        0
 66
   257
 43
1.0
 76
     1
 77
     6
 78
     2
 67
     7
 79
     3
170
     0
171
     0
290
     0
174
     0
 93
        1
 44
0.0
173
     0
291
     0
 45
0.0
1001
ACAD
1000
AcDbSavedByObjectVersion
1070
     0
  0
VISUALSTYLE
  5
3F9
102
{ACAD_XDICTIONARY
360
1EAD
102
}
102
{ACAD_REACTORS
330
3F2
102
}
330
3F2
100
AcDbVisualStyle
  2

 70
     5
 71
     0
 72
     2
 73
     0
 90
        0
 40
-0.6
 41
-30.0
 62
     5
 63
     7
 74
     1
 91
        4
 64
     7
 65
   257
 75
     1
175
     1
 42
1.0
 92
        0
 66
   257
 43
1.0
 76
     1
 77
     6
 78
     2
 67
     7
 79
     5
170
     0
171
     0
290
     0
174
     0
 93
        1
 44
0.0
173
     0
291
     0
 45
0.0
1001
ACAD
1000
AcDbSavedByObjectVersion
1070
     0
  0
VISUALSTYLE
  5
3F7
102
{ACAD_XDICTIONARY
360
1EA9
102
}
102
{ACAD_REACTORS
330
3F2
102
}
330
3F2
100
AcDbVisualStyle
  2

 70
     7
 71
     1
 72
     0
 73
     1
 90
        0
 40
-0.6
 41
-30.0
 62
     5
 63
     7
 74
     0
 91
        4
 64
     7
 65
   257
 75
     1
175
     1
 42
1.0
 92
        8
 66
     7
 43
1.0
 76
     1
 77
     6
 78
     2
 67
     7
 79
     5
170
     0
171
     0
290
     0
174
     0
 93
        1
 44
0.0
173
     0
291
     1
 45
0.0
1001
ACAD
1000
AcDbSavedByObjectVersion
1070
     0
  0
VISUALSTYLE
  5
3FE
102
{ACAD_XDICTIONARY
360
1EB7
102
}
102
{ACAD_REACTORS
330
3F2
102
}
330
3F2
100
AcDbVisualStyle
  2

 70
    12
 71
     2
 72
     2
 73
     0
 90
        0
 40
-0.6
 41
-30.0
 62
     5
 63
     7
 74
     1
 91
        4
 64
     7
 65
   257
 75
     1
175
     1
 42
1.0
 92
        8
 66
     7
 43
1.0
 76
     1
 77
     6
 78
     2
 67
     7
 79
     5
170
     0
171
     0
290
     0
174
     0
 93
        1
 44
50.0
173
     0
291
     1
 45
0.0
1001
ACAD
1000
AcDbSavedByObjectVersion
1070
     0
  0
VISUALSTYLE
  5
402
102
{ACAD_XDICTIONARY
360
1EBF
102
}
102
{ACAD_REACTORS
330
3F2
102
}
330
3F2
100
AcDbVisualStyle
  2

 70
    16
 71
     2
 72
     2
 73
     3
 90
        0
 40
-0.6
 41
-30.0
 62
     5
 63
     8
 74
     1
 91
        4
 64
     7
 65
   257
 75
     1
175
     1
 42
1.0
 92
        8
 66
     8
 43
1.0
 76
     1
 77
     6
 78
     2
 67
     7
 79
     5
170
     0
171
     0
290
     0
174
     0
 93
        1
 44
0.0
173
     0
291
     1
 45
0.0
1001
ACAD
1000
AcDbSavedByObjectVersion
1070
     0
  0
VISUALSTYLE
  5
3FB
102
{ACAD_XDICTIONARY
360
1EB1
102
}
102
{ACAD_REACTORS
330
3F2
102
}
330
3F2
100
AcDbVisualStyle
  2

 70
     9
 71
     3
 72
     2
 73
     0
 90
        0
 40
-0.6
 41
-30.0
 62
     5
 63
     7
 74
     2
 91
        2
 64
     7
 65
   257
 75
     1
175
     1
 42
40.0
 92
        8
 66
     7
 43
1.0
 76
     1
 77
     6
 78
     2
 67
     7
 79
     3
170
     0
171
     0
290
     0
174
     0
 93
        1
 44
0.0
173
     0
291
     0
 45
0.0
1001
ACAD
1000
AcDbSavedByObjectVersion
1070
     0
  0
VISUALSTYLE
  5
3FD
102
{ACAD_XDICTIONARY
360
1EB5
102
}
102
{ACAD_REACTORS
330
3F2
102
}
330
3F2
100
AcDbVisualStyle
  2

 70
    11
 71
     2
 72
     2
 73
     0
 90
        0
 40
-0.6
 41
-30.0
 62
     5
 63
     7
 74
     1
 91
        4
 64
     7
 65
   257
 75
     1
175
     1
 42
1.0
 92
        8
 66
     7
 43
1.0
 76
     1
 77
     6
 78
     2
 67
     7
 79
     5
170
     0
171
     0
290
     0
174
     0
 93
        1
 44
-50.0
173
     0
291
     1
 45
0.0
1001
ACAD
1000
AcDbSavedByObjectVersion
1070
     0
  0
VISUALSTYLE
  5
BDF
102
{ACAD_XDICTIONARY
360
1ECF
102
}
102
{ACAD_REACTORS
330
3F2
102
}
330
3F2
100
AcDbVisualStyle
  2

 70
    22
 71
     2
 72
     2
 73
     0
 90
        0
 40
-0.6
 41
-30.0
 62
     5
 63
     7
 74
     1
 91
        4
 64
     7
 65
   257
 75
     1
175
     1
 42
1.0
 92
        8
 66
     7
 43
1.0
 76
     1
 77
     6
 78
     2
 67
     7
 79
     5
170
     0
171
     0
290
     0
174
     0
 93
        1
 44
0.0
173
     0
291
     1
 45
0.0
1001
ACAD
1000
AcDbSavedByObjectVersion
1070
     0
  0
VISUALSTYLE
  5
401
102
{ACAD_XDICTIONARY
360
1EBD
102
}
102
{ACAD_REACTORS
330
3F2
102
}
330
3F2
100
AcDbVisualStyle
  2

 70
    15
 71
     2
 72
     2
 73
     0
 90
        0
 40
-0.6
 41
-30.0
 62
     5
 63
     7
 74
     1
 91
        4
 64
     7
 65
   257
 75
     1
175
     1
 42
1.0
 92
        8
 66
     7
 43
1.0
 76
     1
 77
     6
 78
     2
 67
     7
 79
     5
170
     0
171
     0
290
     0
174
     0
 93
        1
 44
0.0
173
     0
291
     1
 45
0.0
1001
ACAD
1000
AcDbSavedByObjectVersion
1070
     0
  0
VISUALSTYLE
  5
3F3
102
{ACAD_XDICTIONARY
360
1EA1
102
}
102
{ACAD_REACTORS
330
3F2
102
}
330
3F2
100
AcDbVisualStyle
  2

 70
     0
 71
     2
 72
     1
 73
     1
 90
        2
 40
-0.6
 41
30.0
 62
     5
 63
     7
 74
     0
 91
        4
 64
     7
 65
   257
 75
     1
175
     1
 42
1.0
 92
        8
 66
     7
 43
1.0
 76
     1
 77
     6
 78
     2
 67
     7
 79
     5
170
     0
171
     0
290
     0
174
     0
 93
       13
 44
0.0
173
     0
291
     1
 45
0.0
1001
ACAD
1000
AcDbSavedByObjectVersion
1070
     0
  0
VISUALSTYLE
  5
3F4
102
{ACAD_XDICTIONARY
360
1EA3
102
}
102
{ACAD_REACTORS
330
3F2
102
}
330
3F2
100
AcDbVisualStyle
  2

 70
     1
 71
     2
 72
     1
 73
     1
 90
        2
 40
-0.6
 41
30.0
 62
     5
 63
     7
 74
     1
 91
        4
 64
     7
 65
   257
 75
     1
175
     1
 42
1.0
 92
        0
 66
   257
 43
1.0
 76
     1
 77
     6
 78
     2
 67
     7
 79
     5
170
     0
171
     0
290
     0
174
     0
 93
       13
 44
0.0
173
     0
291
     1
 45
0.0
1001
ACAD
1000
AcDbSavedByObjectVersion
1070
     0
  0
VISUALSTYLE
  5
3F5
102
{ACAD_XDICTIONARY
360
1EA5
102
}
102
{ACAD_REACTORS
330
3F2
102
}
330
3F2
100
AcDbVisualStyle
  2

 70
     2
 71
     2
 72
     2
 73
     1
 90
        2
 40
-0.6
 41
30.0
 62
     5
 63
     7
 74
     0
 91
        4
 64
     7
 65
   257
 75
     1
175
     1
 42
1.0
 92
        0
 66
     7
 43
1.0
 76
     1
 77
     6
 78
     2
 67
     7
 79
     5
170
     0
171
     0
290
     0
174
     0
 93
       13
 44
0.0
173
     0
291
     1
 45
0.0
1001
ACAD
1000
AcDbSavedByObjectVersion
1070
     0
  0
VISUALSTYLE
  5
3F6
102
{ACAD_XDICTIONARY
360
1EA7
102
}
102
{ACAD_REACTORS
330
3F2
102
}
330
3F2
100
AcDbVisualStyle
  2

 70
     3
 71
     2
 72
     2
 73
     1
 90
        2
 40
-0.6
 41
30.0
 62
     5
 63
     7
 74
     1
 91
        4
 64
     7
 65
   257
 75
     1
175
     1
 42
1.0
 92
        0
 66
   257
 43
1.0
 76
     1
 77
     6
 78
     2
 67
     7
 79
     5
170
     0
171
     0
290
     0
174
     0
 93
       13
 44
0.0
173
     0
291
     1
 45
0.0
1001
ACAD
1000
AcDbSavedByObjectVersion
1070
     0
  0
VISUALSTYLE
  5
CE7
102
{ACAD_XDICTIONARY
360
1ED3
102
}
102
{ACAD_REACTORS
330
3F2
102
}
330
3F2
100
AcDbVisualStyle
  2

 70
     6
 71
     1
 72
     2
 73
     2
 90
        0
 40
-0.6
 41
-30.0
 62
     5
 63
     7
 74
     2
 91
        2
 64
     7
 65
   257
 75
     2
175
     1
 42
40.0
 92
        0
 66
   257
 43
1.0
 76
     1
 77
     6
 78
     2
 67
     7
 79
     3
170
     0
171
     0
290
     0
174
     0
 93
        1
 44
0.0
173
     0
291
     0
 45
0.0
1001
ACAD
1000
AcDbSavedByObjectVersion
1070
     0
  0
VISUALSTYLE
  5
BDD
102
{ACAD_XDICTIONARY
360
1ECB
102
}
102
{ACAD_REACTORS
330
3F2
102
}
330
3F2
100
AcDbVisualStyle
  2

 70
    20
 71
     2
 72
     2
 73
     0
 90
        0
 40
-0.6
 41
-30.0
 62
     5
 63
     7
 74
     1
 91
        4
 64
     7
 65
   257
 75
     1
175
     1
 42
1.0
 92
       10
 66
     7
 43
1.0
 76
     1
 77
     6
 78
     2
 67
     7
 79
     5
170
     0
171
     0
290
     0
174
     0
 93
        1
 44
0.0
173
     0
291
     1
 45
0.0
1001
ACAD
1000
AcDbSavedByObjectVersion
1070
     0
  0
VISUALSTYLE
  5
400
102
{ACAD_XDICTIONARY
360
1EBB
102
}
102
{ACAD_REACTORS
330
3F2
102
}
330
3F2
100
AcDbVisualStyle
  2

 70
    14
 71
     2
 72
     2
 73
     0
 90
        0
 40
-0.6
 41
-30.0
 62
     5
 63
     7
 74
     1
 91
        4
 64
     7
 65
   257
 75
     7
175
     7
 42
1.0
 92
        8
 66
     7
 43
1.0
 76
     1
 77
     6
 78
     2
 67
     7
 79
     5
170
     0
171
     0
290
     0
174
     0
 93
        1
 44
0.0
173
     0
291
     1
 45
0.0
1001
ACAD
1000
AcDbSavedByObjectVersion
1070
     0
  0
VISUALSTYLE
  5
BDE
102
{ACAD_XDICTIONARY
360
1ECD
102
}
102
{ACAD_REACTORS
330
3F2
102
}
330
3F2
100
AcDbVisualStyle
  2

 70
    21
 71
     2
 72
     2
 73
     0
 90
        0
 40
-0.6
 41
-30.0
 62
     5
 63
     7
 74
     1
 91
        4
 64
     7
 65
   257
 75
     1
175
     1
 42
1.0
 92
        9
 66
     7
 43
1.0
 76
     1
 77
     6
 78
     2
 67
     7
 79
     5
170
     0
171
     0
290
     0
174
     0
 93
        1
 44
0.0
173
     0
291
     1
 45
0.0
1001
ACAD
1000
AcDbSavedByObjectVersion
1070
     0
  0
VISUALSTYLE
  5
3FC
102
{ACAD_XDICTIONARY
360
1EB3
102
}
102
{ACAD_REACTORS
330
3F2
102
}
330
3F2
100
AcDbVisualStyle
  2

 70
     8
 71
     2
 72
     2
 73
     0
 90
        0
 40
-0.6
 41
-30.0
 62
     5
 63
     7
 74
     1
 91
        0
 64
     7
 65
   257
 75
     1
175
     1
 42
1.0
 92
        8
 66
     8
 43
1.0
 76
     1
 77
     6
 78
     2
 67
     7
 79
     5
170
     0
171
     0
290
     0
174
     0
 93
       13
 44
0.0
173
     0
291
     0
 45
0.0
1001
ACAD
1000
AcDbSavedByObjectVersion
1070
     0
  0
VISUALSTYLE
  5
CEC
102
{ACAD_XDICTIONARY
360
1EDD
102
}
102
{ACAD_REACTORS
330
3F2
102
}
330
3F2
100
AcDbVisualStyle
  2

 70
    27
 71
     2
 72
     2
 73
     1
 90
        2
 40
-0.6
 41
30.0
 62
     5
 63
     7
 74
     0
 91
        4
 64
     7
 65
   257
 75
     1
175
     1
 42
1.0
 92
        8
 66
   257
 43
1.0
 76
     1
 77
     6
 78
     2
 67
     8
 79
     3
170
     0
171
     0
290
     0
174
     0
 93
        5
 44
0.0
173
     0
291
     0
 45
0.0
1001
ACAD
1000
AcDbSavedByObjectVersion
1070
     0
  0
VISUALSTYLE
  5
CEB
102
{ACAD_XDICTIONARY
360
1EDB
102
}
102
{ACAD_REACTORS
330
3F2
102
}
330
3F2
100
AcDbVisualStyle
  2

 70
    26
 71
     2
 72
     2
 73
     1
 90
        2
 40
-0.6
 41
30.0
 62
     5
 63
     7
 74
     1
 91
        2
 64
     7
 65
   257
 75
     2
175
     1
 42
1.0
 92
        8
 66
   257
 43
1.0
 76
     1
 77
     6
 78
     2
 67
     7
 79
     3
170
     0
171
     0
290
     0
174
     0
 93
        5
 44
0.0
173
     0
291
     0
 45
0.0
1001
ACAD
1000
AcDbSavedByObjectVersion
1070
     0
  0
VISUALSTYLE
  5
CE8
102
{ACAD_XDICTIONARY
360
1ED5
102
}
102
{ACAD_REACTORS
330
3F2
102
}
330
3F2
100
AcDbVisualStyle
  2

 70
    23
 71
     2
 72
     2
 73
     3
 90
        0
 40
-0.6
 41
-30.0
 62
     5
 63
     7
 74
     2
 91
        2
 64
     7
 65
     7
 75
     1
175
     1
 42
40.0
 92
        8
 66
     7
 43
1.0
 76
     1
 77
     6
 78
     2
 67
     7
 79
     3
170
     0
171
     0
290
     0
174
     0
 93
        1
 44
0.0
173
     0
291
     0
 45
0.0
1001
ACAD
1000
AcDbSavedByObjectVersion
1070
     0
  0
VISUALSTYLE
  5
CE9
102
{ACAD_XDICTIONARY
360
1ED7
102
}
102
{ACAD_REACTORS
330
3F2
102
}
330
3F2
100
AcDbVisualStyle
  2

 70
    24
 71
     1
 72
     2
 73
     2
 90
        0
 40
-0.6
 41
-30.0
 62
     5
 63
     7
 74
     2
 91
        2
 64
     7
 65
     7
 75
     1
175
     1
 42
40.0
 92
       11
 66
     7
 43
1.0
 76
     1
 77
     6
 78
     2
 67
     7
 79
     6
170
     0
171
     0
290
     0
174
     0
 93
        1
 44
0.0
173
     0
291
     0
 45
0.0
1001
ACAD
1000
AcDbSavedByObjectVersion
1070
     0
  0
VISUALSTYLE
  5
3FF
102
{ACAD_XDICTIONARY
360
1EB9
102
}
102
{ACAD_REACTORS
330
3F2
102
}
330
3F2
100
AcDbVisualStyle
  2

 70
    13
 71
     2
 72
     2
 73
     0
 90
        0
 40
-0.6
 41
-30.0
 62
     5
 63
     7
 74
     1
 91
        4
 64
     7
 65
   257
 75
     1
175
     1
 42
1.0
 92
       12
 66
     7
 43
1.0
 76
     1
 77
     6
 78
     2
 67
     7
 79
     5
170
     0
171
     0
290
     0
174
     0
 93
        1
 44
0.0
173
     0
291
     1
 45
0.0
1001
ACAD
1000
AcDbSavedByObjectVersion
1070
     0
  0
VISUALSTYLE
  5
CE6
102
{ACAD_XDICTIONARY
360
1ED1
102
}
102
{ACAD_REACTORS
330
3F2
102
}
330
3F2
100
AcDbVisualStyle
  2

 70
     5
 71
     0
 72
     2
 73
     0
 90
        0
 40
-0.6
 41
-30.0
 62
     5
 63
     7
 74
     1
 91
        4
 64
     7
 65
   257
 75
     1
175
     1
 42
1.0
 92
        0
 66
   257
 43
1.0
 76
     1
 77
     6
 78
     2
 67
     7
 79
     3
170
     0
171
     0
290
     0
174
     0
 93
        1
 44
0.0
173
     0
291
     0
 45
0.0
1001
ACAD
1000
AcDbSavedByObjectVersion
1070
     0
  0
VISUALSTYLE
  5
CEA
102
{ACAD_XDICTIONARY
360
1ED9
102
}
102
{ACAD_REACTORS
330
3F2
102
}
330
3F2
100
AcDbVisualStyle
  2

 70
    25
 71
     2
 72
     2
 73
     1
 90
        1
 40
0.5
 41
-30.0
 62
     5
 63
     7
 74
     1
 91
        0
 64
     7
 65
   257
 75
     1
175
     1
 42
1.0
 92
        8
 66
     7
 43
1.0
 76
     1
 77
     6
 78
     2
 67
     7
 79
     3
170
     0
171
     0
290
     0
174
     0
 93
       13
 44
0.0
173
     0
291
     0
 45
0.0
1001
ACAD
1000
AcDbSavedByObjectVersion
1070
     0
  0
DICTIONARYVAR
  5
57C
102
{ACAD_REACTORS
330
357
102
}
330
357
100
DictionaryVariables
280
     0
  1
1:1
  0
DICTIONARYVAR
  5
57A
102
{ACAD_REACTORS
330
357
102
}
330
357
100
DictionaryVariables
280
     0
  1
STANDARD
  0
DICTIONARYVAR
  5
38E
102
{ACAD_REACTORS
330
357
102
}
330
357
100
DictionaryVariables
280
     0
  1
STANDARD
  0
DICTIONARYVAR
  5
D2C
102
{ACAD_REACTORS
330
357
102
}
330
357
100
DictionaryVariables
280
     0
  1
Metric50
  0
DICTIONARYVAR
  5
D2D
102
{ACAD_REACTORS
330
357
102
}
330
357
100
DictionaryVariables
280
     0
  1
Metric50
  0
DICTIONARYVAR
  5
359
102
{ACAD_REACTORS
330
357
102
}
330
357
100
DictionaryVariables
280
     0
  1
2
  0
DICTIONARYVAR
  5
358
102
{ACAD_REACTORS
330
357
102
}
330
357
100
DictionaryVariables
280
     0
  1
1
  0
DICTIONARYVAR
  5
ACC
102
{ACAD_REACTORS
330
357
102
}
330
357
100
DictionaryVariables
280
     0
  1
0
  0
DICTIONARYVAR
  5
BF1
102
{ACAD_REACTORS
330
357
102
}
330
357
100
DictionaryVariables
280
     0
  1
1
  0
DICTIONARYVAR
  5
BF2
102
{ACAD_REACTORS
330
357
102
}
330
357
100
DictionaryVariables
280
     0
  1
15
  0
DICTIONARYVAR
  5
57D
102
{ACAD_REACTORS
330
357
102
}
330
357
100
DictionaryVariables
280
     0
  1
0
  0
DICTIONARYVAR
  5
57B
102
{ACAD_REACTORS
330
357
102
}
330
357
100
DictionaryVariables
280
     0
  1
0
  0
DICTIONARYVAR
  5
19A0
102
{ACAD_REACTORS
330
357
102
}
330
357
100
DictionaryVariables
280
     0
  1
1
  0
DICTIONARYVAR
  5
ACB
102
{ACAD_REACTORS
330
357
102
}
330
357
100
DictionaryVariables
280
     0
  1
127
  0
DICTIONARYVAR
  5
1E94
102
{ACAD_REACTORS
330
357
102
}
330
357
100
DictionaryVariables
280
     0
  1
2
  0
DICTIONARY
  5
4DC
102
{ACAD_REACTORS
330
4D1
102
}
330
4D1
100
AcDbDictionary
281
     1
  0
XRECORD
  5
4F3
102
{ACAD_REACTORS
330
4D1
102
}
330
4D1
100
AcDbXrecord
280
     1
 90
-1023410169
  0
XRECORD
  5
8E9
102
{ACAD_REACTORS
330
567
102
}
330
567
100
AcDbXrecord
280
     1
 91
     1023
301

290
     0
302
1
  8
200
 90
        8
 62
     2
370
    50
331
14
  1
Color_2
  8
160
 90
        8
 62
     1
370
    35
331
14
  1
Color_1
  8
150
 90
        8
 62
    96
370
    50
331
14
  1
Color_96
 92
-1040154880
  8
140
 90
        8
 62
     5
370
    35
331
14
  1
Color_5
  8
130
 90
        8
 62
     6
370
    35
331
14
  1
Color_6
  8
120
 90
        8
 62
     3
370
    50
331
14
  1
Color_3
  8
110
 90
        8
 62
     7
370
    25
331
14
  1
Color_7
  8
100
 90
        8
 62
     4
370
    50
331
14
  1
Color_4
  8
INFTEXT69
 90
        8
 62
     5
370
    -3
331
14
  1
Color_5
  8
INFTEXT68
 90
        8
 62
     5
370
    -3
331
14
  1
Color_5
  8
INFTEXT67
 90
        8
 62
     5
370
    -3
331
14
  1
Color_5
  8
INFTEXT66
 90
        8
 62
     5
370
    -3
331
14
  1
Color_5
  8
INFTEXT65
 90
        8
 62
     5
370
    -3
331
14
  1
Color_5
  8
INFTEXT64
 90
        8
 62
     5
370
    -3
331
14
  1
Color_5
  8
INFTEXT63
 90
        8
 62
     5
370
    -3
331
14
  1
Color_5
  8
INFTEXT62
 90
        8
 62
     5
370
    -3
331
14
  1
Color_5
  8
RECON69
 90
        8
 62
     5
370
    35
331
14
  1
Color_5
  8
RECON68
 90
        8
 62
     5
370
    35
331
14
  1
Color_5
  8
RECON67
 90
        8
 62
     5
370
    35
331
14
  1
Color_5
  8
RECON66
 90
        8
 62
     5
370
    35
331
14
  1
Color_5
  8
RECON65
 90
        8
 62
     5
370
    35
331
14
  1
Color_5
  8
RECON64
 90
        8
 62
     5
370
    35
331
14
  1
Color_5
  8
RECON63
 90
        8
 62
     5
370
    35
331
14
  1
Color_5
  8
RECON62
 90
        8
 62
     5
370
    35
331
14
  1
Color_5
  8
RECON61
 90
        8
 62
     5
370
    35
331
14
  1
Color_5
  8
SK69
 90
        8
 62
     5
370
    35
331
14
  1
Color_5
  8
SK68
 90
        8
 62
     5
370
    35
331
14
  1
Color_5
  8
SK67
 90
        8
 62
     5
370
    35
331
14
  1
Color_5
  8
SK66
 90
        8
 62
     5
370
    35
331
14
  1
Color_5
  8
SK65
 90
        8
 62
     5
370
    35
331
14
  1
Color_5
  8
SK64
 90
        8
 62
     5
370
    35
331
14
  1
Color_5
  8
SK63
 90
        8
 62
     5
370
    35
331
14
  1
Color_5
  8
SK62
 90
        8
 62
     5
370
    35
331
14
  1
Color_5
  8
SK61
 90
        8
 62
     5
370
    35
331
14
  1
Color_5
  8
SKVIEW69
 90
        8
 62
     5
370
    35
331
14
  1
Color_5
  8
SKVIEW68
 90
        8
 62
     5
370
    35
331
14
  1
Color_5
  8
SKVIEW67
 90
        8
 62
     5
370
    35
331
14
  1
Color_5
  8
SKVIEW66
 90
        8
 62
     5
370
    35
331
14
  1
Color_5
  8
SKVIEW65
 90
        8
 62
     5
370
    35
331
14
  1
Color_5
  8
SKVIEW64
 90
        8
 62
     5
370
    35
331
14
  1
Color_5
  8
SKVIEW63
 90
        8
 62
     5
370
    35
331
14
  1
Color_5
  8
SKVIEW62
 90
        8
 62
     5
370
    35
331
14
  1
Color_5
  8
SKVIEW61
 90
        8
 62
     5
370
    35
331
14
  1
Color_5
  8
69
 90
        8
 62
     5
370
    35
331
14
  1
Color_5
  8
68
 90
        8
 62
     5
370
    35
331
14
  1
Color_5
  8
67
 90
        8
 62
     5
370
    35
331
14
  1
Color_5
  8
66
 90
        8
 62
     5
370
    35
331
14
  1
Color_5
  8
65
 90
        8
 62
     5
370
    35
331
14
  1
Color_5
  8
64
 90
        8
 62
     5
370
    35
331
14
  1
Color_5
  8
63
 90
        8
 62
     5
370
    35
331
14
  1
Color_5
  8
62
 90
        8
 62
     5
370
    35
331
14
  1
Color_5
  8
61
 90
        8
 62
     5
370
    35
331
14
  1
Color_5
  8
59
 90
        8
 62
     5
370
    -3
331
14
  1
Color_5
  8
58
 90
        8
 62
     5
370
    -3
331
14
  1
Color_5
  8
57
 90
        8
 62
     5
370
    -3
331
14
  1
Color_5
  8
56
 90
        8
 62
     5
370
    -3
331
14
  1
Color_5
  8
55
 90
        8
 62
     5
370
    -3
331
14
  1
Color_5
  8
54
 90
        8
 62
     5
370
    -3
331
14
  1
Color_5
  8
53
 90
        8
 62
     5
370
    -3
331
14
  1
Color_5
  8
52
 90
        8
 62
     5
370
    -3
331
14
  1
Color_5
  8
51
 90
        8
 62
     5
370
    -3
331
14
  1
Color_5
  8
FRAME59
 90
        8
 62
     7
370
    -3
331
14
  1
Color_7
  8
FRAME58
 90
        8
 62
     7
370
    -3
331
14
  1
Color_7
  8
FRAME57
 90
        8
 62
     7
370
    -3
331
14
  1
Color_7
  8
FRAME56
 90
        8
 62
     7
370
    -3
331
14
  1
Color_7
  8
FRAME55
 90
        8
 62
     7
370
    -3
331
14
  1
Color_7
  8
FRAME54
 90
        8
 62
     7
370
    -3
331
14
  1
Color_7
  8
FRAME53
 90
        8
 62
     7
370
    -3
331
14
  1
Color_7
  8
FRAME52
 90
        8
 62
     7
370
    -3
331
14
  1
Color_7
  8
RECON7
 90
        8
 62
     5
370
    25
331
14
  1
Color_5
  8
RECON6
 90
        8
 62
     5
370
    35
331
14
  1
Color_5
  8
RECON4
 90
        8
 62
     2
370
    25
331
14
  1
Color_2
  8
RECON3
 90
        8
 62
     1
370
    35
331
14
  1
Color_1
  8
RECON2
 90
        8
 62
     7
370
    25
331
14
  1
Color_7
  8
RECON1
 90
        8
 62
     4
370
    50
331
14
  1
Color_4
  8
SKVIEW7
 90
        8
 62
     5
370
    25
331
14
  1
Color_5
  8
SK7
 90
        8
 62
     5
370
    25
331
14
  1
Color_5
  8
7
 90
        8
 62
     5
370
    25
331
14
  1
Color_5
  8
INFMAINVIEW
 90
        8
 62
     9
370
    18
331
14
  1
Color_9
  8
INFTOTAL
 90
        8
 62
     9
370
    18
331
14
  1
Color_9
  8
INFTEXT61
 90
        8
 62
     5
370
    -3
331
14
  1
Color_5
  8
INFWKP
 90
        8
 62
    30
370
    25
331
14
  1
Color_30
  8
SKVIEW6
 90
        8
 62
     5
370
    35
331
14
  1
Color_5
  8
SKVIEW4
 90
        8
 62
     2
370
    25
331
14
  1
Color_2
  8
SKVIEW3
 90
        8
 62
     1
370
    35
331
14
  1
Color_1
  8
SKVIEW2
 90
        8
 62
     7
370
    25
331
14
  1
Color_7
  8
SKVIEW1
 90
        8
 62
     4
370
    50
331
14
  1
Color_4
  8
NOCUT
 90
        8
 62
     7
370
    25
331
14
  1
Color_7
  8
CUT
 90
        8
 62
     1
370
    25
331
14
  1
Color_1
  8
DEFPOINTS
 90
        0
 62
     7
370
    -3
331
14
  1
Color_7
  8
SK6
 90
        8
 62
     5
370
    35
331
14
  1
Color_5
  8
6
 90
        8
 62
     5
370
    35
331
14
  1
Color_5
  8
FRAME51
 90
        8
 62
     7
370
    -3
331
14
  1
Color_7
  8
SK4
 90
        8
 62
     2
370
    25
331
14
  1
Color_2
  8
4
 90
        8
 62
     2
370
    25
331
14
  1
Color_2
  8
SK3
 90
        8
 62
     1
370
    35
331
14
  1
Color_1
  8
3
 90
        8
 62
     1
370
    35
331
14
  1
Color_1
  8
SK2
 90
        8
 62
     7
370
    25
331
14
  1
Color_7
  8
2
 90
        8
 62
     7
370
    25
331
14
  1
Color_7
  8
SK1
 90
        8
 62
     4
370
    50
331
14
  1
Color_4
  8
1
 90
        8
 62
     4
370
    50
331
14
  1
Color_4
  8
0
 90
        0
 62
     7
370
    -3
331
14
  1
Color_7
  0
DICTIONARY
  5
1EE1
330
CF0
100
AcDbDictionary
280
     1
281
     1
  3
ACAD_XREC_ROUNDTRIP
360
1EE2
  0
DICTIONARY
  5
1EC7
330
B57
100
AcDbDictionary
280
     1
281
     1
  3
ACAD_XREC_ROUNDTRIP
360
1EC8
  0
DICTIONARY
  5
1E9E
330
303
100
AcDbDictionary
280
     1
281
     1
  3
ACAD_XREC_ROUNDTRIP
360
1E9F
  0
DICTIONARY
  5
19B3
330
3F0
100
AcDbDictionary
280
     1
281
     1
  3
ACAD_XREC_ROUNDTRIP
360
19B4
  0
DICTIONARY
  5
19B1
330
3EF
100
AcDbDictionary
280
     1
281
     1
  3
ACAD_XREC_ROUNDTRIP
360
19B2
  0
DICTIONARY
  5
19B5
330
3F1
100
AcDbDictionary
280
     1
281
     1
  3
ACAD_XREC_ROUNDTRIP
360
19B6
  0
DICTIONARY
  5
1EC1
330
470
100
AcDbDictionary
280
     1
281
     1
  3
ACAD_XREC_ROUNDTRIP
360
1EC2
  0
DICTIONARY
  5
1EC3
330
7EF
100
AcDbDictionary
280
     1
281
     1
  3
ACAD_XREC_ROUNDTRIP
360
1EC4
  0
DICTIONARY
  5
1EC5
330
7F8
100
AcDbDictionary
280
     1
281
     1
  3
ACAD_XREC_ROUNDTRIP
360
1EC6
  0
DICTIONARY
  5
1EDF
330
CEE
100
AcDbDictionary
280
     1
281
     1
  3
ACAD_XREC_ROUNDTRIP
360
1EE0
  0
DICTIONARY
  5
577
330
389
100
AcDbDictionary
280
     1
281
     1
  3
ACAD_ROUNDTRIP_2008_TABLESTYLE_CELLSTYLEMAP
360
1E95
  3
ACAD_XREC_ROUNDTRIP
360
1EA0
  0
DICTIONARY
  5
1EAB
330
3F8
100
AcDbDictionary
280
     1
281
     1
  3
ACAD_XREC_ROUNDTRIP
360
1EAC
  0
DICTIONARY
  5
1EAF
330
3FA
100
AcDbDictionary
280
     1
281
     1
  3
ACAD_XREC_ROUNDTRIP
360
1EB0
  0
DICTIONARY
  5
1EAD
330
3F9
100
AcDbDictionary
280
     1
281
     1
  3
ACAD_XREC_ROUNDTRIP
360
1EAE
  0
DICTIONARY
  5
1EA9
330
3F7
100
AcDbDictionary
280
     1
281
     1
  3
ACAD_XREC_ROUNDTRIP
360
1EAA
  0
DICTIONARY
  5
1EB7
330
3FE
100
AcDbDictionary
280
     1
281
     1
  3
ACAD_XREC_ROUNDTRIP
360
1EB8
  0
DICTIONARY
  5
1EBF
330
402
100
AcDbDictionary
280
     1
281
     1
  3
ACAD_XREC_ROUNDTRIP
360
1EC0
  0
DICTIONARY
  5
1EB1
330
3FB
100
AcDbDictionary
280
     1
281
     1
  3
ACAD_XREC_ROUNDTRIP
360
1EB2
  0
DICTIONARY
  5
1EB5
330
3FD
100
AcDbDictionary
280
     1
281
     1
  3
ACAD_XREC_ROUNDTRIP
360
1EB6
  0
DICTIONARY
  5
1ECF
330
BDF
100
AcDbDictionary
280
     1
281
     1
  3
ACAD_XREC_ROUNDTRIP
360
1ED0
  0
DICTIONARY
  5
1EBD
330
401
100
AcDbDictionary
280
     1
281
     1
  3
ACAD_XREC_ROUNDTRIP
360
1EBE
  0
DICTIONARY
  5
1EA1
330
3F3
100
AcDbDictionary
280
     1
281
     1
  3
ACAD_XREC_ROUNDTRIP
360
1EA2
  0
DICTIONARY
  5
1EA3
330
3F4
100
AcDbDictionary
280
     1
281
     1
  3
ACAD_XREC_ROUNDTRIP
360
1EA4
  0
DICTIONARY
  5
1EA5
330
3F5
100
AcDbDictionary
280
     1
281
     1
  3
ACAD_XREC_ROUNDTRIP
360
1EA6
  0
DICTIONARY
  5
1EA7
330
3F6
100
AcDbDictionary
280
     1
281
     1
  3
ACAD_XREC_ROUNDTRIP
360
1EA8
  0
DICTIONARY
  5
1ED3
330
CE7
100
AcDbDictionary
280
     1
281
     1
  3
ACAD_XREC_ROUNDTRIP
360
1ED4
  0
DICTIONARY
  5
1ECB
330
BDD
100
AcDbDictionary
280
     1
281
     1
  3
ACAD_XREC_ROUNDTRIP
360
1ECC
  0
DICTIONARY
  5
1EBB
330
400
100
AcDbDictionary
280
     1
281
     1
  3
ACAD_XREC_ROUNDTRIP
360
1EBC
  0
DICTIONARY
  5
1ECD
330
BDE
100
AcDbDictionary
280
     1
281
     1
  3
ACAD_XREC_ROUNDTRIP
360
1ECE
  0
DICTIONARY
  5
1EB3
330
3FC
100
AcDbDictionary
280
     1
281
     1
  3
ACAD_XREC_ROUNDTRIP
360
1EB4
  0
DICTIONARY
  5
1EDD
330
CEC
100
AcDbDictionary
280
     1
281
     1
  3
ACAD_XREC_ROUNDTRIP
360
1EDE
  0
DICTIONARY
  5
1EDB
330
CEB
100
AcDbDictionary
280
     1
281
     1
  3
ACAD_XREC_ROUNDTRIP
360
1EDC
  0
DICTIONARY
  5
1ED5
330
CE8
100
AcDbDictionary
280
     1
281
     1
  3
ACAD_XREC_ROUNDTRIP
360
1ED6
  0
DICTIONARY
  5
1ED7
330
CE9
100
AcDbDictionary
280
     1
281
     1
  3
ACAD_XREC_ROUNDTRIP
360
1ED8
  0
DICTIONARY
  5
1EB9
330
3FF
100
AcDbDictionary
280
     1
281
     1
  3
ACAD_XREC_ROUNDTRIP
360
1EBA
  0
DICTIONARY
  5
1ED1
330
CE6
100
AcDbDictionary
280
     1
281
     1
  3
ACAD_XREC_ROUNDTRIP
360
1ED2
  0
DICTIONARY
  5
1ED9
330
CEA
100
AcDbDictionary
280
     1
281
     1
  3
ACAD_XREC_ROUNDTRIP
360
1EDA
  0
XRECORD
  5
1EE2
102
{ACAD_REACTORS
330
1EE1
102
}
330
1EE1
100
AcDbXrecord
280
     1
102
DISPLAYNAME
  1
Metric50
102
FLAGS
 90
        0
  0
XRECORD
  5
1EC8
102
{ACAD_REACTORS
330
1EC7
102
}
330
1EC7
100
AcDbXrecord
280
     1
102
SHADEPLOT
 70
     0
102
SHADEPLOTRESLEVEL
 70
     2
102
SHADEPLOTCUSTOMDPI
 70
   300
  0
XRECORD
  5
1E9F
102
{ACAD_REACTORS
330
1E9E
102
}
330
1E9E
100
AcDbXrecord
280
     1
102
SHADEPLOT
 70
     0
102
SHADEPLOTRESLEVEL
 70
     2
102
SHADEPLOTCUSTOMDPI
 70
   300
  0
XRECORD
  5
19B4
102
{ACAD_REACTORS
330
19B3
102
}
330
19B3
100
AcDbXrecord
280
     1
102
MATERIAL
148
0.0
149
0.0
149
0.0
 93
        0
 94
      127
282
     0
 72
     1
 77
     1
171
     1
175
     1
179
     1
273
     0
  0
XRECORD
  5
19B2
102
{ACAD_REACTORS
330
19B1
102
}
330
19B1
100
AcDbXrecord
280
     1
102
MATERIAL
148
0.0
149
0.0
149
0.0
 93
        0
 94
      127
282
     0
 72
     1
 77
     1
171
     1
175
     1
179
     1
273
     0
  0
XRECORD
  5
19B6
102
{ACAD_REACTORS
330
19B5
102
}
330
19B5
100
AcDbXrecord
280
     1
102
MATERIAL
148
0.0
149
0.0
149
0.0
 93
        0
 94
      127
282
     0
 72
     1
 77
     1
171
     1
175
     1
179
     1
273
     0
  0
XRECORD
  5
1EC2
102
{ACAD_REACTORS
330
1EC1
102
}
330
1EC1
100
AcDbXrecord
280
     1
102
ACAD_ROUNDTRIP_2012_MLEADER_STYLE
298
     1
  0
XRECORD
  5
1EC4
102
{ACAD_REACTORS
330
1EC3
102
}
330
1EC3
100
AcDbXrecord
280
     1
102
SHADEPLOT
 70
     0
102
SHADEPLOTRESLEVEL
 70
     2
102
SHADEPLOTCUSTOMDPI
 70
   300
  0
XRECORD
  5
1EC6
102
{ACAD_REACTORS
330
1EC5
102
}
330
1EC5
100
AcDbXrecord
280
     1
102
SHADEPLOT
 70
     0
102
SHADEPLOTRESLEVEL
 70
     2
102
SHADEPLOTCUSTOMDPI
 70
   300
  0
XRECORD
  5
1EE0
102
{ACAD_REACTORS
330
1EDF
102
}
330
1EDF
100
AcDbXrecord
280
     1
102
DISPLAYNAME
  1
Metric50
102
FLAGS
 90
        0
  0
CELLSTYLEMAP
  5
1E95
102
{ACAD_REACTORS
330
577
102
}
330
577
100
AcDbCellStyleMap
 90
        3
300
CELLSTYLE
  1
TABLEFORMAT_BEGIN
 90
        5
170
     1
 91
        0
 92
    32768
 62
   257
 93
        1
300
CONTENTFORMAT
  1
CONTENTFORMAT_BEGIN
 90
        0
 91
        0
 92
        4
 93
        0
300

 40
0.0
140
1.0
 94
        5
 62
     0
340
1E
144
6.0
309
CONTENTFORMAT_END
171
     1
301
MARGIN
  1
CELLMARGIN_BEGIN
 40
1.5
 40
1.5
 40
1.5
 40
1.5
 40
0.18
 40
0.18
309
CELLMARGIN_END
 94
        6
 95
        1
302
GRIDFORMAT
  1
GRIDFORMAT_BEGIN
 90
        0
 91
        1
 62
     0
 92
       -2
340
0
 93
        0
 40
0.045
309
GRIDFORMAT_END
 95
        2
302
GRIDFORMAT
  1
GRIDFORMAT_BEGIN
 90
        0
 91
        1
 62
     0
 92
       -2
340
0
 93
        0
 40
0.045
309
GRIDFORMAT_END
 95
        4
302
GRIDFORMAT
  1
GRIDFORMAT_BEGIN
 90
        0
 91
        1
 62
     0
 92
       -2
340
0
 93
        0
 40
0.045
309
GRIDFORMAT_END
 95
        8
302
GRIDFORMAT
  1
GRIDFORMAT_BEGIN
 90
        0
 91
        1
 62
     0
 92
       -2
340
0
 93
        0
 40
0.045
309
GRIDFORMAT_END
 95
       16
302
GRIDFORMAT
  1
GRIDFORMAT_BEGIN
 90
        0
 91
        1
 62
     0
 92
       -2
340
0
 93
        0
 40
0.045
309
GRIDFORMAT_END
 95
       32
302
GRIDFORMAT
  1
GRIDFORMAT_BEGIN
 90
        0
 91
        1
 62
     0
 92
       -2
340
0
 93
        0
 40
0.045
309
GRIDFORMAT_END
309
TABLEFORMAT_END
  1
CELLSTYLE_BEGIN
 90
        1
 91
        1
300
_TITLE
309
CELLSTYLE_END
300
CELLSTYLE
  1
TABLEFORMAT_BEGIN
 90
        5
170
     1
 91
        0
 92
        0
 62
   257
 93
        1
300
CONTENTFORMAT
  1
CONTENTFORMAT_BEGIN
 90
        0
 91
        0
 92
        4
 93
        0
300

 40
0.0
140
1.0
 94
        5
 62
     0
340
10
144
4.5
309
CONTENTFORMAT_END
171
     1
301
MARGIN
  1
CELLMARGIN_BEGIN
 40
1.5
 40
1.5
 40
1.5
 40
1.5
 40
0.18
 40
0.18
309
CELLMARGIN_END
 94
        6
 95
        1
302
GRIDFORMAT
  1
GRIDFORMAT_BEGIN
 90
        0
 91
        1
 62
     0
 92
       -2
340
0
 93
        0
 40
0.045
309
GRIDFORMAT_END
 95
        2
302
GRIDFORMAT
  1
GRIDFORMAT_BEGIN
 90
        0
 91
        1
 62
     0
 92
       -2
340
0
 93
        0
 40
0.045
309
GRIDFORMAT_END
 95
        4
302
GRIDFORMAT
  1
GRIDFORMAT_BEGIN
 90
        0
 91
        1
 62
     0
 92
       -2
340
0
 93
        0
 40
0.045
309
GRIDFORMAT_END
 95
        8
302
GRIDFORMAT
  1
GRIDFORMAT_BEGIN
 90
        0
 91
        1
 62
     0
 92
       -2
340
0
 93
        0
 40
0.045
309
GRIDFORMAT_END
 95
       16
302
GRIDFORMAT
  1
GRIDFORMAT_BEGIN
 90
        0
 91
        1
 62
     0
 92
       -2
340
0
 93
        0
 40
0.045
309
GRIDFORMAT_END
 95
       32
302
GRIDFORMAT
  1
GRIDFORMAT_BEGIN
 90
        0
 91
        1
 62
     0
 92
       -2
340
0
 93
        0
 40
0.045
309
GRIDFORMAT_END
309
TABLEFORMAT_END
  1
CELLSTYLE_BEGIN
 90
        2
 91
        1
300
_HEADER
309
CELLSTYLE_END
300
CELLSTYLE
  1
TABLEFORMAT_BEGIN
 90
        5
170
     1
 91
        0
 92
        0
 62
   257
 93
        1
300
CONTENTFORMAT
  1
CONTENTFORMAT_BEGIN
 90
        0
 91
        0
 92
        4
 93
        0
300

 40
0.0
140
1.0
 94
        2
 62
     0
340
10
144
4.5
309
CONTENTFORMAT_END
171
     1
301
MARGIN
  1
CELLMARGIN_BEGIN
 40
1.5
 40
1.5
 40
1.5
 40
1.5
 40
0.18
 40
0.18
309
CELLMARGIN_END
 94
        6
 95
        1
302
GRIDFORMAT
  1
GRIDFORMAT_BEGIN
 90
        0
 91
        1
 62
     0
 92
       -2
340
0
 93
        0
 40
0.045
309
GRIDFORMAT_END
 95
        2
302
GRIDFORMAT
  1
GRIDFORMAT_BEGIN
 90
        0
 91
        1
 62
     0
 92
       -2
340
0
 93
        0
 40
0.045
309
GRIDFORMAT_END
 95
        4
302
GRIDFORMAT
  1
GRIDFORMAT_BEGIN
 90
        0
 91
        1
 62
     0
 92
       -2
340
0
 93
        0
 40
0.045
309
GRIDFORMAT_END
 95
        8
302
GRIDFORMAT
  1
GRIDFORMAT_BEGIN
 90
        0
 91
        1
 62
     0
 92
       -2
340
0
 93
        0
 40
0.045
309
GRIDFORMAT_END
 95
       16
302
GRIDFORMAT
  1
GRIDFORMAT_BEGIN
 90
        0
 91
        1
 62
     0
 92
       -2
340
0
 93
        0
 40
0.045
309
GRIDFORMAT_END
 95
       32
302
GRIDFORMAT
  1
GRIDFORMAT_BEGIN
 90
        0
 91
        1
 62
     0
 92
       -2
340
0
 93
        0
 40
0.045
309
GRIDFORMAT_END
309
TABLEFORMAT_END
  1
CELLSTYLE_BEGIN
 90
        3
 91
        2
300
_DATA
309
CELLSTYLE_END
  0
XRECORD
  5
1EA0
102
{ACAD_REACTORS
330
577
102
}
330
577
100
AcDbXrecord
280
     1
102
ACAD_ROUNDTRIP_PRE2007_TABLESTYLE
 90
        4
 91
        0
  1

 92
        4
 93
        0
  2

 94
        4
 95
        0
  3

  0
XRECORD
  5
1EAC
102
{ACAD_REACTORS
330
1EAB
102
}
330
1EAB
100
AcDbXrecord
280
     1
102
RTVSPost2010Prop28
280
     1
102
RTVSPost2010PropOp28
 70
     1
102
RTVSPost2010Prop29
280
     1
102
RTVSPost2010PropOp29
 70
     1
102
RTVSPost2010Prop30
280
     0
102
RTVSPost2010PropOp30
 70
     1
102
RTVSPost2010Prop31
280
     0
102
RTVSPost2010PropOp31
 70
     1
102
RTVSPost2010Prop32
280
     0
102
RTVSPost2010PropOp32
 70
     1
102
RTVSPost2010Prop33
280
     0
102
RTVSPost2010PropOp33
 70
     1
102
RTVSPost2010Prop34
280
     0
102
RTVSPost2010PropOp34
 70
     1
102
RTVSPost2010Prop35
280
     0
102
RTVSPost2010PropOp35
 70
     1
102
RTVSPost2010Prop36
280
     0
102
RTVSPost2010PropOp36
 70
     1
102
RTVSPost2010Prop37
 90
       50
102
RTVSPost2010PropOp37
 70
     1
102
RTVSPost2010Prop38
140
0.0
102
RTVSPost2010PropOp38
 70
     1
102
RTVSPost2010Prop39
140
1.0
102
RTVSPost2010PropOp39
 70
     1
102
RTVSPost2010Prop40
 90
        0
102
RTVSPost2010PropOp40
 70
     1
102
RTVSPost2010Prop41ColorIndex
 90
       18
102
RTVSPost2010Prop41ColorRGB
 90
        0
102
RTVSPost2010PropOp41
 70
     1
102
RTVSPost2010Prop42
 90
       50
102
RTVSPost2010PropOp42
 70
     1
102
RTVSPost2010Prop43
 90
        3
102
RTVSPost2010PropOp43
 70
     1
102
RTVSPost2010Prop44ColorIndex
 90
        5
102
RTVSPost2010Prop44ColorRGB
 90
      255
102
RTVSPost2010PropOp44
 70
     1
102
RTVSPost2010Prop45
280
     0
102
RTVSPost2010PropOp45
 70
     1
102
RTVSPost2010Prop46
 90
       50
102
RTVSPost2010PropOp46
 70
     1
102
RTVSPost2010Prop47
 90
       50
102
RTVSPost2010PropOp47
 70
     1
102
RTVSPost2010Prop48
 90
       50
102
RTVSPost2010PropOp48
 70
     1
102
RTVSPost2010Prop49
280
     0
102
RTVSPost2010PropOp49
 70
     1
102
RTVSPost2010Prop50
 90
       50
102
RTVSPost2010PropOp50
 70
     1
102
RTVSPost2010Prop51ColorIndex
 90
      256
102
RTVSPost2010Prop51ColorRGB
 90
-16777216
102
RTVSPost2010PropOp51
 70
     0
102
RTVSPost2010Prop52
140
1.0
102
RTVSPost2010PropOp52
 70
     0
102
RTVSPost2010Prop53
 90
        2
102
RTVSPost2010PropOp53
 70
     1
102
RTVSPost2010Prop54
  1
strokes_ogs.tif
102
RTVSPost2010PropOp54
 70
     1
102
RTVSPost2010Prop55
280
     0
102
RTVSPost2010PropOp55
 70
     1
102
RTVSPost2010Prop56
140
1.0
102
RTVSPost2010PropOp56
 70
     1
102
RTVSPost2010Prop57
140
1.0
102
RTVSPost2010PropOp57
 70
     1
102
RTVSPropertyOp0
 70
     1
102
RTVSPropertyOp1
 70
     1
102
RTVSPropertyOp2
 70
     1
102
RTVSPropertyOp3
 70
     1
102
RTVSPropertyOp4
 70
     1
102
RTVSPropertyOp5
 70
     1
102
RTVSPropertyOp6
 70
     1
102
RTVSPropertyOp7
 70
     1
102
RTVSPropertyOp8
 70
     1
102
RTVSPropertyOp9
 70
     1
102
RTVSPropertyOp10
 70
     1
102
RTVSPropertyOp11
 70
     1
102
RTVSPropertyOp12
 70
     1
102
RTVSPropertyOp13
 70
     1
102
RTVSPropertyOp14
 70
     1
102
RTVSPropertyOp15
 70
     1
102
RTVSPropertyOp16
 70
     1
102
RTVSPropertyOp17
 70
     1
102
RTVSPropertyOp18
 70
     1
102
RTVSPropertyOp19
 70
     1
102
RTVSPropertyOp20
 70
     1
102
RTVSPropertyOp21
 70
     1
102
RTVSPropertyOp22
 70
     1
102
RTVSPropertyOp23
 70
     1
102
RTVSPropertyOp24
 70
     1
102
RTVSPropertyOp25
 70
     1
102
RTVSPropertyOp26
 70
     1
102
RTVSPropertyOp27
 70
     1
102
RTVSPropertyOp28
 70
     1
102
RTVSPropertyOp29
 70
     1
102
RTVSPropertyOp30
 70
     1
102
RTVSPropertyOp31
 70
     1
102
RTVSPropertyOp32
 70
     1
102
RTVSPropertyOp33
 70
     1
102
RTVSPropertyOp34
 70
     1
102
RTVSPropertyOp35
 70
     1
102
RTVSPropertyOp36
 70
     1
102
RTVSPropertyOp37
 70
     1
102
RTVSPropertyOp38
 70
     1
102
RTVSPropertyOp39
 70
     1
102
RTVSPropertyOp40
 70
     1
102
RTVSPropertyOp41
 70
     1
102
RTVSPropertyOp42
 70
     1
102
RTVSPropertyOp43
 70
     1
102
RTVSPropertyOp44
 70
     1
102
RTVSPropertyOp45
 70
     1
102
RTVSPropertyOp46
 70
     1
102
RTVSPropertyOp47
 70
     1
102
RTVSPropertyOp48
 70
     1
102
RTVSPropertyOp49
 70
     1
102
RTVSPropertyOp50
 70
     1
102
RTVSPropertyOp51
 70
     0
102
RTVSPropertyOp52
 70
     0
102
RTVSPropertyOp53
 70
     1
102
RTVSPropertyOp54
 70
     1
102
RTVSPropertyOp55
 70
     1
102
RTVSPropertyOp56
 70
     1
102
RTVSPropertyOp57
 70
     1
102
RTVSPropertyOp58
 70
     1
102
RTVSPropertyOp59
 70
     1
102
RTVSPropertyOp60
 70
     1
102
RTVSPropertyOp61
 70
     1
102
RTVSPropertyOp62
 70
     1
  0
XRECORD
  5
1EB0
102
{ACAD_REACTORS
330
1EAF
102
}
330
1EAF
100
AcDbXrecord
280
     1
102
RTVSPost2010Prop28
280
     0
102
RTVSPost2010PropOp28
 70
     1
102
RTVSPost2010Prop29
280
     1
102
RTVSPost2010PropOp29
 70
     1
102
RTVSPost2010Prop30
280
     1
102
RTVSPost2010PropOp30
 70
     1
102
RTVSPost2010Prop31
280
     0
102
RTVSPost2010PropOp31
 70
     1
102
RTVSPost2010Prop32
280
     0
102
RTVSPost2010PropOp32
 70
     1
102
RTVSPost2010Prop33
280
     0
102
RTVSPost2010PropOp33
 70
     1
102
RTVSPost2010Prop34
280
     0
102
RTVSPost2010PropOp34
 70
     1
102
RTVSPost2010Prop35
280
     0
102
RTVSPost2010PropOp35
 70
     1
102
RTVSPost2010Prop36
280
     0
102
RTVSPost2010PropOp36
 70
     1
102
RTVSPost2010Prop37
 90
       50
102
RTVSPost2010PropOp37
 70
     1
102
RTVSPost2010Prop38
140
0.0
102
RTVSPost2010PropOp38
 70
     1
102
RTVSPost2010Prop39
140
1.0
102
RTVSPost2010PropOp39
 70
     1
102
RTVSPost2010Prop40
 90
        0
102
RTVSPost2010PropOp40
 70
     1
102
RTVSPost2010Prop41ColorIndex
 90
       18
102
RTVSPost2010Prop41ColorRGB
 90
        0
102
RTVSPost2010PropOp41
 70
     1
102
RTVSPost2010Prop42
 90
       50
102
RTVSPost2010PropOp42
 70
     1
102
RTVSPost2010Prop43
 90
        3
102
RTVSPost2010PropOp43
 70
     1
102
RTVSPost2010Prop44ColorIndex
 90
        5
102
RTVSPost2010Prop44ColorRGB
 90
      255
102
RTVSPost2010PropOp44
 70
     1
102
RTVSPost2010Prop45
280
     0
102
RTVSPost2010PropOp45
 70
     1
102
RTVSPost2010Prop46
 90
       50
102
RTVSPost2010PropOp46
 70
     1
102
RTVSPost2010Prop47
 90
       50
102
RTVSPost2010PropOp47
 70
     1
102
RTVSPost2010Prop48
 90
       50
102
RTVSPost2010PropOp48
 70
     1
102
RTVSPost2010Prop49
280
     0
102
RTVSPost2010PropOp49
 70
     1
102
RTVSPost2010Prop50
 90
       50
102
RTVSPost2010PropOp50
 70
     1
102
RTVSPost2010Prop51ColorIndex
 90
      256
102
RTVSPost2010Prop51ColorRGB
 90
-16777216
102
RTVSPost2010PropOp51
 70
     0
102
RTVSPost2010Prop52
140
1.0
102
RTVSPost2010PropOp52
 70
     0
102
RTVSPost2010Prop53
 90
        2
102
RTVSPost2010PropOp53
 70
     1
102
RTVSPost2010Prop54
  1
strokes_ogs.tif
102
RTVSPost2010PropOp54
 70
     1
102
RTVSPost2010Prop55
280
     0
102
RTVSPost2010PropOp55
 70
     1
102
RTVSPost2010Prop56
140
1.0
102
RTVSPost2010PropOp56
 70
     1
102
RTVSPost2010Prop57
140
1.0
102
RTVSPost2010PropOp57
 70
     1
102
RTVSPropertyOp0
 70
     1
102
RTVSPropertyOp1
 70
     1
102
RTVSPropertyOp2
 70
     1
102
RTVSPropertyOp3
 70
     1
102
RTVSPropertyOp4
 70
     1
102
RTVSPropertyOp5
 70
     1
102
RTVSPropertyOp6
 70
     1
102
RTVSPropertyOp7
 70
     1
102
RTVSPropertyOp8
 70
     1
102
RTVSPropertyOp9
 70
     1
102
RTVSPropertyOp10
 70
     1
102
RTVSPropertyOp11
 70
     1
102
RTVSPropertyOp12
 70
     1
102
RTVSPropertyOp13
 70
     1
102
RTVSPropertyOp14
 70
     1
102
RTVSPropertyOp15
 70
     1
102
RTVSPropertyOp16
 70
     1
102
RTVSPropertyOp17
 70
     1
102
RTVSPropertyOp18
 70
     1
102
RTVSPropertyOp19
 70
     1
102
RTVSPropertyOp20
 70
     1
102
RTVSPropertyOp21
 70
     1
102
RTVSPropertyOp22
 70
     1
102
RTVSPropertyOp23
 70
     1
102
RTVSPropertyOp24
 70
     1
102
RTVSPropertyOp25
 70
     1
102
RTVSPropertyOp26
 70
     1
102
RTVSPropertyOp27
 70
     1
102
RTVSPropertyOp28
 70
     1
102
RTVSPropertyOp29
 70
     1
102
RTVSPropertyOp30
 70
     1
102
RTVSPropertyOp31
 70
     1
102
RTVSPropertyOp32
 70
     1
102
RTVSPropertyOp33
 70
     1
102
RTVSPropertyOp34
 70
     1
102
RTVSPropertyOp35
 70
     1
102
RTVSPropertyOp36
 70
     1
102
RTVSPropertyOp37
 70
     1
102
RTVSPropertyOp38
 70
     1
102
RTVSPropertyOp39
 70
     1
102
RTVSPropertyOp40
 70
     1
102
RTVSPropertyOp41
 70
     1
102
RTVSPropertyOp42
 70
     1
102
RTVSPropertyOp43
 70
     1
102
RTVSPropertyOp44
 70
     1
102
RTVSPropertyOp45
 70
     1
102
RTVSPropertyOp46
 70
     1
102
RTVSPropertyOp47
 70
     1
102
RTVSPropertyOp48
 70
     1
102
RTVSPropertyOp49
 70
     1
102
RTVSPropertyOp50
 70
     1
102
RTVSPropertyOp51
 70
     0
102
RTVSPropertyOp52
 70
     0
102
RTVSPropertyOp53
 70
     1
102
RTVSPropertyOp54
 70
     1
102
RTVSPropertyOp55
 70
     1
102
RTVSPropertyOp56
 70
     1
102
RTVSPropertyOp57
 70
     1
102
RTVSPropertyOp58
 70
     1
102
RTVSPropertyOp59
 70
     1
102
RTVSPropertyOp60
 70
     1
102
RTVSPropertyOp61
 70
     1
102
RTVSPropertyOp62
 70
     1
  0
XRECORD
  5
1EAE
102
{ACAD_REACTORS
330
1EAD
102
}
330
1EAD
100
AcDbXrecord
280
     1
102
RTVSPost2010Prop28
280
     0
102
RTVSPost2010PropOp28
 70
     1
102
RTVSPost2010Prop29
280
     1
102
RTVSPost2010PropOp29
 70
     1
102
RTVSPost2010Prop30
280
     1
102
RTVSPost2010PropOp30
 70
     1
102
RTVSPost2010Prop31
280
     0
102
RTVSPost2010PropOp31
 70
     1
102
RTVSPost2010Prop32
280
     0
102
RTVSPost2010PropOp32
 70
     1
102
RTVSPost2010Prop33
280
     0
102
RTVSPost2010PropOp33
 70
     1
102
RTVSPost2010Prop34
280
     0
102
RTVSPost2010PropOp34
 70
     1
102
RTVSPost2010Prop35
280
     0
102
RTVSPost2010PropOp35
 70
     1
102
RTVSPost2010Prop36
280
     0
102
RTVSPost2010PropOp36
 70
     1
102
RTVSPost2010Prop37
 90
       50
102
RTVSPost2010PropOp37
 70
     1
102
RTVSPost2010Prop38
140
0.0
102
RTVSPost2010PropOp38
 70
     1
102
RTVSPost2010Prop39
140
1.0
102
RTVSPost2010PropOp39
 70
     1
102
RTVSPost2010Prop40
 90
        0
102
RTVSPost2010PropOp40
 70
     1
102
RTVSPost2010Prop41ColorIndex
 90
       18
102
RTVSPost2010Prop41ColorRGB
 90
        0
102
RTVSPost2010PropOp41
 70
     1
102
RTVSPost2010Prop42
 90
       50
102
RTVSPost2010PropOp42
 70
     1
102
RTVSPost2010Prop43
 90
        3
102
RTVSPost2010PropOp43
 70
     1
102
RTVSPost2010Prop44ColorIndex
 90
        5
102
RTVSPost2010Prop44ColorRGB
 90
      255
102
RTVSPost2010PropOp44
 70
     1
102
RTVSPost2010Prop45
280
     0
102
RTVSPost2010PropOp45
 70
     1
102
RTVSPost2010Prop46
 90
       50
102
RTVSPost2010PropOp46
 70
     1
102
RTVSPost2010Prop47
 90
       50
102
RTVSPost2010PropOp47
 70
     1
102
RTVSPost2010Prop48
 90
       50
102
RTVSPost2010PropOp48
 70
     1
102
RTVSPost2010Prop49
280
     0
102
RTVSPost2010PropOp49
 70
     1
102
RTVSPost2010Prop50
 90
       50
102
RTVSPost2010PropOp50
 70
     1
102
RTVSPost2010Prop51ColorIndex
 90
      256
102
RTVSPost2010Prop51ColorRGB
 90
-16777216
102
RTVSPost2010PropOp51
 70
     0
102
RTVSPost2010Prop52
140
1.0
102
RTVSPost2010PropOp52
 70
     0
102
RTVSPost2010Prop53
 90
        2
102
RTVSPost2010PropOp53
 70
     1
102
RTVSPost2010Prop54
  1
strokes_ogs.tif
102
RTVSPost2010PropOp54
 70
     1
102
RTVSPost2010Prop55
280
     0
102
RTVSPost2010PropOp55
 70
     1
102
RTVSPost2010Prop56
140
1.0
102
RTVSPost2010PropOp56
 70
     1
102
RTVSPost2010Prop57
140
1.0
102
RTVSPost2010PropOp57
 70
     1
102
RTVSPropertyOp0
 70
     1
102
RTVSPropertyOp1
 70
     1
102
RTVSPropertyOp2
 70
     1
102
RTVSPropertyOp3
 70
     1
102
RTVSPropertyOp4
 70
     1
102
RTVSPropertyOp5
 70
     1
102
RTVSPropertyOp6
 70
     1
102
RTVSPropertyOp7
 70
     1
102
RTVSPropertyOp8
 70
     1
102
RTVSPropertyOp9
 70
     1
102
RTVSPropertyOp10
 70
     1
102
RTVSPropertyOp11
 70
     1
102
RTVSPropertyOp12
 70
     1
102
RTVSPropertyOp13
 70
     1
102
RTVSPropertyOp14
 70
     1
102
RTVSPropertyOp15
 70
     1
102
RTVSPropertyOp16
 70
     1
102
RTVSPropertyOp17
 70
     1
102
RTVSPropertyOp18
 70
     1
102
RTVSPropertyOp19
 70
     1
102
RTVSPropertyOp20
 70
     1
102
RTVSPropertyOp21
 70
     1
102
RTVSPropertyOp22
 70
     1
102
RTVSPropertyOp23
 70
     1
102
RTVSPropertyOp24
 70
     1
102
RTVSPropertyOp25
 70
     1
102
RTVSPropertyOp26
 70
     1
102
RTVSPropertyOp27
 70
     1
102
RTVSPropertyOp28
 70
     1
102
RTVSPropertyOp29
 70
     1
102
RTVSPropertyOp30
 70
     1
102
RTVSPropertyOp31
 70
     1
102
RTVSPropertyOp32
 70
     1
102
RTVSPropertyOp33
 70
     1
102
RTVSPropertyOp34
 70
     1
102
RTVSPropertyOp35
 70
     1
102
RTVSPropertyOp36
 70
     1
102
RTVSPropertyOp37
 70
     1
102
RTVSPropertyOp38
 70
     1
102
RTVSPropertyOp39
 70
     1
102
RTVSPropertyOp40
 70
     1
102
RTVSPropertyOp41
 70
     1
102
RTVSPropertyOp42
 70
     1
102
RTVSPropertyOp43
 70
     1
102
RTVSPropertyOp44
 70
     1
102
RTVSPropertyOp45
 70
     1
102
RTVSPropertyOp46
 70
     1
102
RTVSPropertyOp47
 70
     1
102
RTVSPropertyOp48
 70
     1
102
RTVSPropertyOp49
 70
     1
102
RTVSPropertyOp50
 70
     1
102
RTVSPropertyOp51
 70
     0
102
RTVSPropertyOp52
 70
     0
102
RTVSPropertyOp53
 70
     1
102
RTVSPropertyOp54
 70
     1
102
RTVSPropertyOp55
 70
     1
102
RTVSPropertyOp56
 70
     1
102
RTVSPropertyOp57
 70
     1
102
RTVSPropertyOp58
 70
     1
102
RTVSPropertyOp59
 70
     1
102
RTVSPropertyOp60
 70
     1
102
RTVSPropertyOp61
 70
     1
102
RTVSPropertyOp62
 70
     1
  0
XRECORD
  5
1EAA
102
{ACAD_REACTORS
330
1EA9
102
}
330
1EA9
100
AcDbXrecord
280
     1
102
RTVSPost2010Prop28
280
     0
102
RTVSPost2010PropOp28
 70
     1
102
RTVSPost2010Prop29
280
     1
102
RTVSPost2010PropOp29
 70
     1
102
RTVSPost2010Prop30
280
     1
102
RTVSPost2010PropOp30
 70
     1
102
RTVSPost2010Prop31
280
     0
102
RTVSPost2010PropOp31
 70
     1
102
RTVSPost2010Prop32
280
     0
102
RTVSPost2010PropOp32
 70
     1
102
RTVSPost2010Prop33
280
     0
102
RTVSPost2010PropOp33
 70
     1
102
RTVSPost2010Prop34
280
     0
102
RTVSPost2010PropOp34
 70
     1
102
RTVSPost2010Prop35
280
     0
102
RTVSPost2010PropOp35
 70
     1
102
RTVSPost2010Prop36
280
     0
102
RTVSPost2010PropOp36
 70
     1
102
RTVSPost2010Prop37
 90
       50
102
RTVSPost2010PropOp37
 70
     1
102
RTVSPost2010Prop38
140
0.0
102
RTVSPost2010PropOp38
 70
     1
102
RTVSPost2010Prop39
140
1.0
102
RTVSPost2010PropOp39
 70
     1
102
RTVSPost2010Prop40
 90
        0
102
RTVSPost2010PropOp40
 70
     1
102
RTVSPost2010Prop41ColorIndex
 90
       18
102
RTVSPost2010Prop41ColorRGB
 90
        0
102
RTVSPost2010PropOp41
 70
     1
102
RTVSPost2010Prop42
 90
       50
102
RTVSPost2010PropOp42
 70
     1
102
RTVSPost2010Prop43
 90
        3
102
RTVSPost2010PropOp43
 70
     1
102
RTVSPost2010Prop44ColorIndex
 90
        5
102
RTVSPost2010Prop44ColorRGB
 90
      255
102
RTVSPost2010PropOp44
 70
     1
102
RTVSPost2010Prop45
280
     0
102
RTVSPost2010PropOp45
 70
     1
102
RTVSPost2010Prop46
 90
       50
102
RTVSPost2010PropOp46
 70
     1
102
RTVSPost2010Prop47
 90
       50
102
RTVSPost2010PropOp47
 70
     1
102
RTVSPost2010Prop48
 90
       50
102
RTVSPost2010PropOp48
 70
     1
102
RTVSPost2010Prop49
280
     0
102
RTVSPost2010PropOp49
 70
     1
102
RTVSPost2010Prop50
 90
       50
102
RTVSPost2010PropOp50
 70
     1
102
RTVSPost2010Prop51ColorIndex
 90
      256
102
RTVSPost2010Prop51ColorRGB
 90
-16777216
102
RTVSPost2010PropOp51
 70
     0
102
RTVSPost2010Prop52
140
1.0
102
RTVSPost2010PropOp52
 70
     0
102
RTVSPost2010Prop53
 90
        2
102
RTVSPost2010PropOp53
 70
     1
102
RTVSPost2010Prop54
  1
strokes_ogs.tif
102
RTVSPost2010PropOp54
 70
     1
102
RTVSPost2010Prop55
280
     0
102
RTVSPost2010PropOp55
 70
     1
102
RTVSPost2010Prop56
140
1.0
102
RTVSPost2010PropOp56
 70
     1
102
RTVSPost2010Prop57
140
1.0
102
RTVSPost2010PropOp57
 70
     1
102
RTVSPropertyOp0
 70
     1
102
RTVSPropertyOp1
 70
     1
102
RTVSPropertyOp2
 70
     1
102
RTVSPropertyOp3
 70
     1
102
RTVSPropertyOp4
 70
     1
102
RTVSPropertyOp5
 70
     1
102
RTVSPropertyOp6
 70
     1
102
RTVSPropertyOp7
 70
     1
102
RTVSPropertyOp8
 70
     1
102
RTVSPropertyOp9
 70
     1
102
RTVSPropertyOp10
 70
     1
102
RTVSPropertyOp11
 70
     1
102
RTVSPropertyOp12
 70
     1
102
RTVSPropertyOp13
 70
     1
102
RTVSPropertyOp14
 70
     1
102
RTVSPropertyOp15
 70
     1
102
RTVSPropertyOp16
 70
     1
102
RTVSPropertyOp17
 70
     1
102
RTVSPropertyOp18
 70
     1
102
RTVSPropertyOp19
 70
     1
102
RTVSPropertyOp20
 70
     1
102
RTVSPropertyOp21
 70
     1
102
RTVSPropertyOp22
 70
     1
102
RTVSPropertyOp23
 70
     1
102
RTVSPropertyOp24
 70
     1
102
RTVSPropertyOp25
 70
     1
102
RTVSPropertyOp26
 70
     1
102
RTVSPropertyOp27
 70
     1
102
RTVSPropertyOp28
 70
     1
102
RTVSPropertyOp29
 70
     1
102
RTVSPropertyOp30
 70
     1
102
RTVSPropertyOp31
 70
     1
102
RTVSPropertyOp32
 70
     1
102
RTVSPropertyOp33
 70
     1
102
RTVSPropertyOp34
 70
     1
102
RTVSPropertyOp35
 70
     1
102
RTVSPropertyOp36
 70
     1
102
RTVSPropertyOp37
 70
     1
102
RTVSPropertyOp38
 70
     1
102
RTVSPropertyOp39
 70
     1
102
RTVSPropertyOp40
 70
     1
102
RTVSPropertyOp41
 70
     1
102
RTVSPropertyOp42
 70
     1
102
RTVSPropertyOp43
 70
     1
102
RTVSPropertyOp44
 70
     1
102
RTVSPropertyOp45
 70
     1
102
RTVSPropertyOp46
 70
     1
102
RTVSPropertyOp47
 70
     1
102
RTVSPropertyOp48
 70
     1
102
RTVSPropertyOp49
 70
     1
102
RTVSPropertyOp50
 70
     1
102
RTVSPropertyOp51
 70
     0
102
RTVSPropertyOp52
 70
     0
102
RTVSPropertyOp53
 70
     1
102
RTVSPropertyOp54
 70
     1
102
RTVSPropertyOp55
 70
     1
102
RTVSPropertyOp56
 70
     1
102
RTVSPropertyOp57
 70
     1
102
RTVSPropertyOp58
 70
     1
102
RTVSPropertyOp59
 70
     1
102
RTVSPropertyOp60
 70
     1
102
RTVSPropertyOp61
 70
     1
102
RTVSPropertyOp62
 70
     1
  0
XRECORD
  5
1EB8
102
{ACAD_REACTORS
330
1EB7
102
}
330
1EB7
100
AcDbXrecord
280
     1
102
RTVSPost2010Prop28
280
     0
102
RTVSPost2010PropOp28
 70
     1
102
RTVSPost2010Prop29
280
     1
102
RTVSPost2010PropOp29
 70
     1
102
RTVSPost2010Prop30
280
     1
102
RTVSPost2010PropOp30
 70
     1
102
RTVSPost2010Prop31
280
     0
102
RTVSPost2010PropOp31
 70
     1
102
RTVSPost2010Prop32
280
     0
102
RTVSPost2010PropOp32
 70
     1
102
RTVSPost2010Prop33
280
     0
102
RTVSPost2010PropOp33
 70
     1
102
RTVSPost2010Prop34
280
     0
102
RTVSPost2010PropOp34
 70
     1
102
RTVSPost2010Prop35
280
     0
102
RTVSPost2010PropOp35
 70
     1
102
RTVSPost2010Prop36
280
     0
102
RTVSPost2010PropOp36
 70
     1
102
RTVSPost2010Prop37
 90
       50
102
RTVSPost2010PropOp37
 70
     1
102
RTVSPost2010Prop38
140
0.0
102
RTVSPost2010PropOp38
 70
     1
102
RTVSPost2010Prop39
140
1.0
102
RTVSPost2010PropOp39
 70
     1
102
RTVSPost2010Prop40
 90
        0
102
RTVSPost2010PropOp40
 70
     1
102
RTVSPost2010Prop41ColorIndex
 90
       18
102
RTVSPost2010Prop41ColorRGB
 90
        0
102
RTVSPost2010PropOp41
 70
     1
102
RTVSPost2010Prop42
 90
       50
102
RTVSPost2010PropOp42
 70
     1
102
RTVSPost2010Prop43
 90
        3
102
RTVSPost2010PropOp43
 70
     1
102
RTVSPost2010Prop44ColorIndex
 90
        5
102
RTVSPost2010Prop44ColorRGB
 90
      255
102
RTVSPost2010PropOp44
 70
     1
102
RTVSPost2010Prop45
280
     0
102
RTVSPost2010PropOp45
 70
     1
102
RTVSPost2010Prop46
 90
       50
102
RTVSPost2010PropOp46
 70
     1
102
RTVSPost2010Prop47
 90
       50
102
RTVSPost2010PropOp47
 70
     1
102
RTVSPost2010Prop48
 90
       50
102
RTVSPost2010PropOp48
 70
     1
102
RTVSPost2010Prop49
280
     0
102
RTVSPost2010PropOp49
 70
     1
102
RTVSPost2010Prop50
 90
       50
102
RTVSPost2010PropOp50
 70
     1
102
RTVSPost2010Prop51ColorIndex
 90
      256
102
RTVSPost2010Prop51ColorRGB
 90
-16777216
102
RTVSPost2010PropOp51
 70
     0
102
RTVSPost2010Prop52
140
1.0
102
RTVSPost2010PropOp52
 70
     0
102
RTVSPost2010Prop53
 90
        2
102
RTVSPost2010PropOp53
 70
     1
102
RTVSPost2010Prop54
  1
strokes_ogs.tif
102
RTVSPost2010PropOp54
 70
     1
102
RTVSPost2010Prop55
280
     0
102
RTVSPost2010PropOp55
 70
     1
102
RTVSPost2010Prop56
140
1.0
102
RTVSPost2010PropOp56
 70
     1
102
RTVSPost2010Prop57
140
1.0
102
RTVSPost2010PropOp57
 70
     1
102
RTVSPropertyOp0
 70
     1
102
RTVSPropertyOp1
 70
     1
102
RTVSPropertyOp2
 70
     1
102
RTVSPropertyOp3
 70
     1
102
RTVSPropertyOp4
 70
     1
102
RTVSPropertyOp5
 70
     1
102
RTVSPropertyOp6
 70
     1
102
RTVSPropertyOp7
 70
     1
102
RTVSPropertyOp8
 70
     1
102
RTVSPropertyOp9
 70
     1
102
RTVSPropertyOp10
 70
     1
102
RTVSPropertyOp11
 70
     1
102
RTVSPropertyOp12
 70
     1
102
RTVSPropertyOp13
 70
     1
102
RTVSPropertyOp14
 70
     1
102
RTVSPropertyOp15
 70
     1
102
RTVSPropertyOp16
 70
     1
102
RTVSPropertyOp17
 70
     1
102
RTVSPropertyOp18
 70
     1
102
RTVSPropertyOp19
 70
     1
102
RTVSPropertyOp20
 70
     1
102
RTVSPropertyOp21
 70
     1
102
RTVSPropertyOp22
 70
     1
102
RTVSPropertyOp23
 70
     1
102
RTVSPropertyOp24
 70
     1
102
RTVSPropertyOp25
 70
     1
102
RTVSPropertyOp26
 70
     1
102
RTVSPropertyOp27
 70
     1
102
RTVSPropertyOp28
 70
     1
102
RTVSPropertyOp29
 70
     1
102
RTVSPropertyOp30
 70
     1
102
RTVSPropertyOp31
 70
     1
102
RTVSPropertyOp32
 70
     1
102
RTVSPropertyOp33
 70
     1
102
RTVSPropertyOp34
 70
     1
102
RTVSPropertyOp35
 70
     1
102
RTVSPropertyOp36
 70
     1
102
RTVSPropertyOp37
 70
     1
102
RTVSPropertyOp38
 70
     1
102
RTVSPropertyOp39
 70
     1
102
RTVSPropertyOp40
 70
     1
102
RTVSPropertyOp41
 70
     1
102
RTVSPropertyOp42
 70
     1
102
RTVSPropertyOp43
 70
     1
102
RTVSPropertyOp44
 70
     1
102
RTVSPropertyOp45
 70
     1
102
RTVSPropertyOp46
 70
     1
102
RTVSPropertyOp47
 70
     1
102
RTVSPropertyOp48
 70
     1
102
RTVSPropertyOp49
 70
     1
102
RTVSPropertyOp50
 70
     1
102
RTVSPropertyOp51
 70
     0
102
RTVSPropertyOp52
 70
     0
102
RTVSPropertyOp53
 70
     1
102
RTVSPropertyOp54
 70
     1
102
RTVSPropertyOp55
 70
     1
102
RTVSPropertyOp56
 70
     1
102
RTVSPropertyOp57
 70
     1
102
RTVSPropertyOp58
 70
     1
102
RTVSPropertyOp59
 70
     1
102
RTVSPropertyOp60
 70
     1
102
RTVSPropertyOp61
 70
     1
102
RTVSPropertyOp62
 70
     1
  0
XRECORD
  5
1EC0
102
{ACAD_REACTORS
330
1EBF
102
}
330
1EBF
100
AcDbXrecord
280
     1
102
RTVSPost2010Prop28
280
     0
102
RTVSPost2010PropOp28
 70
     1
102
RTVSPost2010Prop29
280
     1
102
RTVSPost2010PropOp29
 70
     1
102
RTVSPost2010Prop30
280
     1
102
RTVSPost2010PropOp30
 70
     1
102
RTVSPost2010Prop31
280
     0
102
RTVSPost2010PropOp31
 70
     1
102
RTVSPost2010Prop32
280
     0
102
RTVSPost2010PropOp32
 70
     1
102
RTVSPost2010Prop33
280
     0
102
RTVSPost2010PropOp33
 70
     1
102
RTVSPost2010Prop34
280
     0
102
RTVSPost2010PropOp34
 70
     1
102
RTVSPost2010Prop35
280
     0
102
RTVSPost2010PropOp35
 70
     1
102
RTVSPost2010Prop36
280
     0
102
RTVSPost2010PropOp36
 70
     1
102
RTVSPost2010Prop37
 90
       50
102
RTVSPost2010PropOp37
 70
     1
102
RTVSPost2010Prop38
140
0.0
102
RTVSPost2010PropOp38
 70
     1
102
RTVSPost2010Prop39
140
1.0
102
RTVSPost2010PropOp39
 70
     1
102
RTVSPost2010Prop40
 90
        0
102
RTVSPost2010PropOp40
 70
     1
102
RTVSPost2010Prop41ColorIndex
 90
       18
102
RTVSPost2010Prop41ColorRGB
 90
        0
102
RTVSPost2010PropOp41
 70
     1
102
RTVSPost2010Prop42
 90
       50
102
RTVSPost2010PropOp42
 70
     1
102
RTVSPost2010Prop43
 90
        3
102
RTVSPost2010PropOp43
 70
     1
102
RTVSPost2010Prop44ColorIndex
 90
        5
102
RTVSPost2010Prop44ColorRGB
 90
      255
102
RTVSPost2010PropOp44
 70
     1
102
RTVSPost2010Prop45
280
     0
102
RTVSPost2010PropOp45
 70
     1
102
RTVSPost2010Prop46
 90
       50
102
RTVSPost2010PropOp46
 70
     1
102
RTVSPost2010Prop47
 90
       50
102
RTVSPost2010PropOp47
 70
     1
102
RTVSPost2010Prop48
 90
       50
102
RTVSPost2010PropOp48
 70
     1
102
RTVSPost2010Prop49
280
     0
102
RTVSPost2010PropOp49
 70
     1
102
RTVSPost2010Prop50
 90
       50
102
RTVSPost2010PropOp50
 70
     1
102
RTVSPost2010Prop51ColorIndex
 90
      256
102
RTVSPost2010Prop51ColorRGB
 90
-16777216
102
RTVSPost2010PropOp51
 70
     0
102
RTVSPost2010Prop52
140
1.0
102
RTVSPost2010PropOp52
 70
     0
102
RTVSPost2010Prop53
 90
        2
102
RTVSPost2010PropOp53
 70
     1
102
RTVSPost2010Prop54
  1
strokes_ogs.tif
102
RTVSPost2010PropOp54
 70
     1
102
RTVSPost2010Prop55
280
     0
102
RTVSPost2010PropOp55
 70
     1
102
RTVSPost2010Prop56
140
1.0
102
RTVSPost2010PropOp56
 70
     1
102
RTVSPost2010Prop57
140
1.0
102
RTVSPost2010PropOp57
 70
     1
102
RTVSPropertyOp0
 70
     1
102
RTVSPropertyOp1
 70
     1
102
RTVSPropertyOp2
 70
     1
102
RTVSPropertyOp3
 70
     1
102
RTVSPropertyOp4
 70
     1
102
RTVSPropertyOp5
 70
     1
102
RTVSPropertyOp6
 70
     1
102
RTVSPropertyOp7
 70
     1
102
RTVSPropertyOp8
 70
     1
102
RTVSPropertyOp9
 70
     1
102
RTVSPropertyOp10
 70
     1
102
RTVSPropertyOp11
 70
     1
102
RTVSPropertyOp12
 70
     1
102
RTVSPropertyOp13
 70
     1
102
RTVSPropertyOp14
 70
     1
102
RTVSPropertyOp15
 70
     1
102
RTVSPropertyOp16
 70
     1
102
RTVSPropertyOp17
 70
     1
102
RTVSPropertyOp18
 70
     1
102
RTVSPropertyOp19
 70
     1
102
RTVSPropertyOp20
 70
     1
102
RTVSPropertyOp21
 70
     1
102
RTVSPropertyOp22
 70
     1
102
RTVSPropertyOp23
 70
     1
102
RTVSPropertyOp24
 70
     1
102
RTVSPropertyOp25
 70
     1
102
RTVSPropertyOp26
 70
     1
102
RTVSPropertyOp27
 70
     1
102
RTVSPropertyOp28
 70
     1
102
RTVSPropertyOp29
 70
     1
102
RTVSPropertyOp30
 70
     1
102
RTVSPropertyOp31
 70
     1
102
RTVSPropertyOp32
 70
     1
102
RTVSPropertyOp33
 70
     1
102
RTVSPropertyOp34
 70
     1
102
RTVSPropertyOp35
 70
     1
102
RTVSPropertyOp36
 70
     1
102
RTVSPropertyOp37
 70
     1
102
RTVSPropertyOp38
 70
     1
102
RTVSPropertyOp39
 70
     1
102
RTVSPropertyOp40
 70
     1
102
RTVSPropertyOp41
 70
     1
102
RTVSPropertyOp42
 70
     1
102
RTVSPropertyOp43
 70
     1
102
RTVSPropertyOp44
 70
     1
102
RTVSPropertyOp45
 70
     1
102
RTVSPropertyOp46
 70
     1
102
RTVSPropertyOp47
 70
     1
102
RTVSPropertyOp48
 70
     1
102
RTVSPropertyOp49
 70
     1
102
RTVSPropertyOp50
 70
     1
102
RTVSPropertyOp51
 70
     0
102
RTVSPropertyOp52
 70
     0
102
RTVSPropertyOp53
 70
     1
102
RTVSPropertyOp54
 70
     1
102
RTVSPropertyOp55
 70
     1
102
RTVSPropertyOp56
 70
     1
102
RTVSPropertyOp57
 70
     1
102
RTVSPropertyOp58
 70
     1
102
RTVSPropertyOp59
 70
     1
102
RTVSPropertyOp60
 70
     1
102
RTVSPropertyOp61
 70
     1
102
RTVSPropertyOp62
 70
     1
  0
XRECORD
  5
1EB2
102
{ACAD_REACTORS
330
1EB1
102
}
330
1EB1
100
AcDbXrecord
280
     1
102
RTVSPost2010Prop28
280
     0
102
RTVSPost2010PropOp28
 70
     1
102
RTVSPost2010Prop29
280
     1
102
RTVSPost2010PropOp29
 70
     1
102
RTVSPost2010Prop30
280
     1
102
RTVSPost2010PropOp30
 70
     1
102
RTVSPost2010Prop31
280
     0
102
RTVSPost2010PropOp31
 70
     1
102
RTVSPost2010Prop32
280
     0
102
RTVSPost2010PropOp32
 70
     1
102
RTVSPost2010Prop33
280
     0
102
RTVSPost2010PropOp33
 70
     1
102
RTVSPost2010Prop34
280
     0
102
RTVSPost2010PropOp34
 70
     1
102
RTVSPost2010Prop35
280
     0
102
RTVSPost2010PropOp35
 70
     1
102
RTVSPost2010Prop36
280
     0
102
RTVSPost2010PropOp36
 70
     1
102
RTVSPost2010Prop37
 90
       50
102
RTVSPost2010PropOp37
 70
     1
102
RTVSPost2010Prop38
140
0.0
102
RTVSPost2010PropOp38
 70
     1
102
RTVSPost2010Prop39
140
1.0
102
RTVSPost2010PropOp39
 70
     1
102
RTVSPost2010Prop40
 90
        0
102
RTVSPost2010PropOp40
 70
     1
102
RTVSPost2010Prop41ColorIndex
 90
       18
102
RTVSPost2010Prop41ColorRGB
 90
        0
102
RTVSPost2010PropOp41
 70
     1
102
RTVSPost2010Prop42
 90
       50
102
RTVSPost2010PropOp42
 70
     1
102
RTVSPost2010Prop43
 90
        3
102
RTVSPost2010PropOp43
 70
     1
102
RTVSPost2010Prop44ColorIndex
 90
        5
102
RTVSPost2010Prop44ColorRGB
 90
      255
102
RTVSPost2010PropOp44
 70
     1
102
RTVSPost2010Prop45
280
     0
102
RTVSPost2010PropOp45
 70
     1
102
RTVSPost2010Prop46
 90
       50
102
RTVSPost2010PropOp46
 70
     1
102
RTVSPost2010Prop47
 90
       50
102
RTVSPost2010PropOp47
 70
     1
102
RTVSPost2010Prop48
 90
       50
102
RTVSPost2010PropOp48
 70
     1
102
RTVSPost2010Prop49
280
     0
102
RTVSPost2010PropOp49
 70
     1
102
RTVSPost2010Prop50
 90
       50
102
RTVSPost2010PropOp50
 70
     1
102
RTVSPost2010Prop51ColorIndex
 90
      256
102
RTVSPost2010Prop51ColorRGB
 90
-16777216
102
RTVSPost2010PropOp51
 70
     0
102
RTVSPost2010Prop52
140
1.0
102
RTVSPost2010PropOp52
 70
     0
102
RTVSPost2010Prop53
 90
        2
102
RTVSPost2010PropOp53
 70
     1
102
RTVSPost2010Prop54
  1
strokes_ogs.tif
102
RTVSPost2010PropOp54
 70
     1
102
RTVSPost2010Prop55
280
     0
102
RTVSPost2010PropOp55
 70
     1
102
RTVSPost2010Prop56
140
1.0
102
RTVSPost2010PropOp56
 70
     1
102
RTVSPost2010Prop57
140
1.0
102
RTVSPost2010PropOp57
 70
     1
102
RTVSPropertyOp0
 70
     1
102
RTVSPropertyOp1
 70
     1
102
RTVSPropertyOp2
 70
     1
102
RTVSPropertyOp3
 70
     1
102
RTVSPropertyOp4
 70
     1
102
RTVSPropertyOp5
 70
     1
102
RTVSPropertyOp6
 70
     1
102
RTVSPropertyOp7
 70
     1
102
RTVSPropertyOp8
 70
     1
102
RTVSPropertyOp9
 70
     1
102
RTVSPropertyOp10
 70
     1
102
RTVSPropertyOp11
 70
     1
102
RTVSPropertyOp12
 70
     1
102
RTVSPropertyOp13
 70
     1
102
RTVSPropertyOp14
 70
     1
102
RTVSPropertyOp15
 70
     1
102
RTVSPropertyOp16
 70
     1
102
RTVSPropertyOp17
 70
     1
102
RTVSPropertyOp18
 70
     1
102
RTVSPropertyOp19
 70
     1
102
RTVSPropertyOp20
 70
     1
102
RTVSPropertyOp21
 70
     1
102
RTVSPropertyOp22
 70
     1
102
RTVSPropertyOp23
 70
     1
102
RTVSPropertyOp24
 70
     1
102
RTVSPropertyOp25
 70
     1
102
RTVSPropertyOp26
 70
     1
102
RTVSPropertyOp27
 70
     1
102
RTVSPropertyOp28
 70
     1
102
RTVSPropertyOp29
 70
     1
102
RTVSPropertyOp30
 70
     1
102
RTVSPropertyOp31
 70
     1
102
RTVSPropertyOp32
 70
     1
102
RTVSPropertyOp33
 70
     1
102
RTVSPropertyOp34
 70
     1
102
RTVSPropertyOp35
 70
     1
102
RTVSPropertyOp36
 70
     1
102
RTVSPropertyOp37
 70
     1
102
RTVSPropertyOp38
 70
     1
102
RTVSPropertyOp39
 70
     1
102
RTVSPropertyOp40
 70
     1
102
RTVSPropertyOp41
 70
     1
102
RTVSPropertyOp42
 70
     1
102
RTVSPropertyOp43
 70
     1
102
RTVSPropertyOp44
 70
     1
102
RTVSPropertyOp45
 70
     1
102
RTVSPropertyOp46
 70
     1
102
RTVSPropertyOp47
 70
     1
102
RTVSPropertyOp48
 70
     1
102
RTVSPropertyOp49
 70
     1
102
RTVSPropertyOp50
 70
     1
102
RTVSPropertyOp51
 70
     0
102
RTVSPropertyOp52
 70
     0
102
RTVSPropertyOp53
 70
     1
102
RTVSPropertyOp54
 70
     1
102
RTVSPropertyOp55
 70
     1
102
RTVSPropertyOp56
 70
     1
102
RTVSPropertyOp57
 70
     1
102
RTVSPropertyOp58
 70
     1
102
RTVSPropertyOp59
 70
     1
102
RTVSPropertyOp60
 70
     1
102
RTVSPropertyOp61
 70
     1
102
RTVSPropertyOp62
 70
     1
  0
XRECORD
  5
1EB6
102
{ACAD_REACTORS
330
1EB5
102
}
330
1EB5
100
AcDbXrecord
280
     1
102
RTVSPost2010Prop28
280
     0
102
RTVSPost2010PropOp28
 70
     1
102
RTVSPost2010Prop29
280
     1
102
RTVSPost2010PropOp29
 70
     1
102
RTVSPost2010Prop30
280
     1
102
RTVSPost2010PropOp30
 70
     1
102
RTVSPost2010Prop31
280
     0
102
RTVSPost2010PropOp31
 70
     1
102
RTVSPost2010Prop32
280
     0
102
RTVSPost2010PropOp32
 70
     1
102
RTVSPost2010Prop33
280
     0
102
RTVSPost2010PropOp33
 70
     1
102
RTVSPost2010Prop34
280
     0
102
RTVSPost2010PropOp34
 70
     1
102
RTVSPost2010Prop35
280
     0
102
RTVSPost2010PropOp35
 70
     1
102
RTVSPost2010Prop36
280
     0
102
RTVSPost2010PropOp36
 70
     1
102
RTVSPost2010Prop37
 90
       50
102
RTVSPost2010PropOp37
 70
     1
102
RTVSPost2010Prop38
140
0.0
102
RTVSPost2010PropOp38
 70
     1
102
RTVSPost2010Prop39
140
1.0
102
RTVSPost2010PropOp39
 70
     1
102
RTVSPost2010Prop40
 90
        0
102
RTVSPost2010PropOp40
 70
     1
102
RTVSPost2010Prop41ColorIndex
 90
       18
102
RTVSPost2010Prop41ColorRGB
 90
        0
102
RTVSPost2010PropOp41
 70
     1
102
RTVSPost2010Prop42
 90
       50
102
RTVSPost2010PropOp42
 70
     1
102
RTVSPost2010Prop43
 90
        3
102
RTVSPost2010PropOp43
 70
     1
102
RTVSPost2010Prop44ColorIndex
 90
        5
102
RTVSPost2010Prop44ColorRGB
 90
      255
102
RTVSPost2010PropOp44
 70
     1
102
RTVSPost2010Prop45
280
     0
102
RTVSPost2010PropOp45
 70
     1
102
RTVSPost2010Prop46
 90
       50
102
RTVSPost2010PropOp46
 70
     1
102
RTVSPost2010Prop47
 90
       50
102
RTVSPost2010PropOp47
 70
     1
102
RTVSPost2010Prop48
 90
       50
102
RTVSPost2010PropOp48
 70
     1
102
RTVSPost2010Prop49
280
     0
102
RTVSPost2010PropOp49
 70
     1
102
RTVSPost2010Prop50
 90
       50
102
RTVSPost2010PropOp50
 70
     1
102
RTVSPost2010Prop51ColorIndex
 90
      256
102
RTVSPost2010Prop51ColorRGB
 90
-16777216
102
RTVSPost2010PropOp51
 70
     0
102
RTVSPost2010Prop52
140
1.0
102
RTVSPost2010PropOp52
 70
     0
102
RTVSPost2010Prop53
 90
        2
102
RTVSPost2010PropOp53
 70
     1
102
RTVSPost2010Prop54
  1
strokes_ogs.tif
102
RTVSPost2010PropOp54
 70
     1
102
RTVSPost2010Prop55
280
     0
102
RTVSPost2010PropOp55
 70
     1
102
RTVSPost2010Prop56
140
1.0
102
RTVSPost2010PropOp56
 70
     1
102
RTVSPost2010Prop57
140
1.0
102
RTVSPost2010PropOp57
 70
     1
102
RTVSPropertyOp0
 70
     1
102
RTVSPropertyOp1
 70
     1
102
RTVSPropertyOp2
 70
     1
102
RTVSPropertyOp3
 70
     1
102
RTVSPropertyOp4
 70
     1
102
RTVSPropertyOp5
 70
     1
102
RTVSPropertyOp6
 70
     1
102
RTVSPropertyOp7
 70
     1
102
RTVSPropertyOp8
 70
     1
102
RTVSPropertyOp9
 70
     1
102
RTVSPropertyOp10
 70
     1
102
RTVSPropertyOp11
 70
     1
102
RTVSPropertyOp12
 70
     1
102
RTVSPropertyOp13
 70
     1
102
RTVSPropertyOp14
 70
     1
102
RTVSPropertyOp15
 70
     1
102
RTVSPropertyOp16
 70
     1
102
RTVSPropertyOp17
 70
     1
102
RTVSPropertyOp18
 70
     1
102
RTVSPropertyOp19
 70
     1
102
RTVSPropertyOp20
 70
     1
102
RTVSPropertyOp21
 70
     1
102
RTVSPropertyOp22
 70
     1
102
RTVSPropertyOp23
 70
     1
102
RTVSPropertyOp24
 70
     1
102
RTVSPropertyOp25
 70
     1
102
RTVSPropertyOp26
 70
     1
102
RTVSPropertyOp27
 70
     1
102
RTVSPropertyOp28
 70
     1
102
RTVSPropertyOp29
 70
     1
102
RTVSPropertyOp30
 70
     1
102
RTVSPropertyOp31
 70
     1
102
RTVSPropertyOp32
 70
     1
102
RTVSPropertyOp33
 70
     1
102
RTVSPropertyOp34
 70
     1
102
RTVSPropertyOp35
 70
     1
102
RTVSPropertyOp36
 70
     1
102
RTVSPropertyOp37
 70
     1
102
RTVSPropertyOp38
 70
     1
102
RTVSPropertyOp39
 70
     1
102
RTVSPropertyOp40
 70
     1
102
RTVSPropertyOp41
 70
     1
102
RTVSPropertyOp42
 70
     1
102
RTVSPropertyOp43
 70
     1
102
RTVSPropertyOp44
 70
     1
102
RTVSPropertyOp45
 70
     1
102
RTVSPropertyOp46
 70
     1
102
RTVSPropertyOp47
 70
     1
102
RTVSPropertyOp48
 70
     1
102
RTVSPropertyOp49
 70
     1
102
RTVSPropertyOp50
 70
     1
102
RTVSPropertyOp51
 70
     0
102
RTVSPropertyOp52
 70
     0
102
RTVSPropertyOp53
 70
     1
102
RTVSPropertyOp54
 70
     1
102
RTVSPropertyOp55
 70
     1
102
RTVSPropertyOp56
 70
     1
102
RTVSPropertyOp57
 70
     1
102
RTVSPropertyOp58
 70
     1
102
RTVSPropertyOp59
 70
     1
102
RTVSPropertyOp60
 70
     1
102
RTVSPropertyOp61
 70
     1
102
RTVSPropertyOp62
 70
     1
  0
XRECORD
  5
1ED0
102
{ACAD_REACTORS
330
1ECF
102
}
330
1ECF
100
AcDbXrecord
280
     1
102
RTVSPost2010Prop28
280
     0
102
RTVSPost2010PropOp28
 70
     1
102
RTVSPost2010Prop29
280
     1
102
RTVSPost2010PropOp29
 70
     1
102
RTVSPost2010Prop30
280
     1
102
RTVSPost2010PropOp30
 70
     1
102
RTVSPost2010Prop31
280
     0
102
RTVSPost2010PropOp31
 70
     1
102
RTVSPost2010Prop32
280
     0
102
RTVSPost2010PropOp32
 70
     1
102
RTVSPost2010Prop33
280
     0
102
RTVSPost2010PropOp33
 70
     1
102
RTVSPost2010Prop34
280
     0
102
RTVSPost2010PropOp34
 70
     1
102
RTVSPost2010Prop35
280
     0
102
RTVSPost2010PropOp35
 70
     1
102
RTVSPost2010Prop36
280
     0
102
RTVSPost2010PropOp36
 70
     1
102
RTVSPost2010Prop37
 90
       50
102
RTVSPost2010PropOp37
 70
     1
102
RTVSPost2010Prop38
140
0.0
102
RTVSPost2010PropOp38
 70
     1
102
RTVSPost2010Prop39
140
1.0
102
RTVSPost2010PropOp39
 70
     1
102
RTVSPost2010Prop40
 90
        0
102
RTVSPost2010PropOp40
 70
     1
102
RTVSPost2010Prop41ColorIndex
 90
       18
102
RTVSPost2010Prop41ColorRGB
 90
        0
102
RTVSPost2010PropOp41
 70
     1
102
RTVSPost2010Prop42
 90
       50
102
RTVSPost2010PropOp42
 70
     1
102
RTVSPost2010Prop43
 90
        3
102
RTVSPost2010PropOp43
 70
     1
102
RTVSPost2010Prop44ColorIndex
 90
        5
102
RTVSPost2010Prop44ColorRGB
 90
      255
102
RTVSPost2010PropOp44
 70
     1
102
RTVSPost2010Prop45
280
     0
102
RTVSPost2010PropOp45
 70
     1
102
RTVSPost2010Prop46
 90
       50
102
RTVSPost2010PropOp46
 70
     1
102
RTVSPost2010Prop47
 90
       50
102
RTVSPost2010PropOp47
 70
     1
102
RTVSPost2010Prop48
 90
       50
102
RTVSPost2010PropOp48
 70
     1
102
RTVSPost2010Prop49
280
     0
102
RTVSPost2010PropOp49
 70
     1
102
RTVSPost2010Prop50
 90
       50
102
RTVSPost2010PropOp50
 70
     1
102
RTVSPost2010Prop51ColorIndex
 90
      256
102
RTVSPost2010Prop51ColorRGB
 90
-16777216
102
RTVSPost2010PropOp51
 70
     0
102
RTVSPost2010Prop52
140
1.0
102
RTVSPost2010PropOp52
 70
     0
102
RTVSPost2010Prop53
 90
        2
102
RTVSPost2010PropOp53
 70
     1
102
RTVSPost2010Prop54
  1
strokes_ogs.tif
102
RTVSPost2010PropOp54
 70
     1
102
RTVSPost2010Prop55
280
     0
102
RTVSPost2010PropOp55
 70
     1
102
RTVSPost2010Prop56
140
1.0
102
RTVSPost2010PropOp56
 70
     1
102
RTVSPost2010Prop57
140
1.0
102
RTVSPost2010PropOp57
 70
     1
102
RTVSPropertyOp0
 70
     0
102
RTVSPropertyOp1
 70
     0
102
RTVSPropertyOp2
 70
     0
102
RTVSPropertyOp3
 70
     0
102
RTVSPropertyOp4
 70
     0
102
RTVSPropertyOp5
 70
     0
102
RTVSPropertyOp6
 70
     0
102
RTVSPropertyOp7
 70
     0
102
RTVSPropertyOp8
 70
     0
102
RTVSPropertyOp9
 70
     0
102
RTVSPropertyOp10
 70
     0
102
RTVSPropertyOp11
 70
     0
102
RTVSPropertyOp12
 70
     0
102
RTVSPropertyOp13
 70
     0
102
RTVSPropertyOp14
 70
     2
102
RTVSPropertyOp15
 70
     0
102
RTVSPropertyOp16
 70
     0
102
RTVSPropertyOp17
 70
     0
102
RTVSPropertyOp18
 70
     0
102
RTVSPropertyOp19
 70
     0
102
RTVSPropertyOp20
 70
     0
102
RTVSPropertyOp21
 70
     0
102
RTVSPropertyOp22
 70
     0
102
RTVSPropertyOp23
 70
     0
102
RTVSPropertyOp24
 70
     0
102
RTVSPropertyOp25
 70
     0
102
RTVSPropertyOp26
 70
     0
102
RTVSPropertyOp27
 70
     0
102
RTVSPropertyOp28
 70
     1
102
RTVSPropertyOp29
 70
     1
102
RTVSPropertyOp30
 70
     1
102
RTVSPropertyOp31
 70
     1
102
RTVSPropertyOp32
 70
     1
102
RTVSPropertyOp33
 70
     1
102
RTVSPropertyOp34
 70
     1
102
RTVSPropertyOp35
 70
     1
102
RTVSPropertyOp36
 70
     1
102
RTVSPropertyOp37
 70
     1
102
RTVSPropertyOp38
 70
     1
102
RTVSPropertyOp39
 70
     1
102
RTVSPropertyOp40
 70
     1
102
RTVSPropertyOp41
 70
     1
102
RTVSPropertyOp42
 70
     1
102
RTVSPropertyOp43
 70
     1
102
RTVSPropertyOp44
 70
     1
102
RTVSPropertyOp45
 70
     1
102
RTVSPropertyOp46
 70
     1
102
RTVSPropertyOp47
 70
     1
102
RTVSPropertyOp48
 70
     1
102
RTVSPropertyOp49
 70
     1
102
RTVSPropertyOp50
 70
     1
102
RTVSPropertyOp51
 70
     0
102
RTVSPropertyOp52
 70
     0
102
RTVSPropertyOp53
 70
     1
102
RTVSPropertyOp54
 70
     1
102
RTVSPropertyOp55
 70
     1
102
RTVSPropertyOp56
 70
     1
102
RTVSPropertyOp57
 70
     1
102
RTVSPropertyOp58
 70
     1
102
RTVSPropertyOp59
 70
     1
102
RTVSPropertyOp60
 70
     1
102
RTVSPropertyOp61
 70
     1
102
RTVSPropertyOp62
 70
     1
  0
XRECORD
  5
1EBE
102
{ACAD_REACTORS
330
1EBD
102
}
330
1EBD
100
AcDbXrecord
280
     1
102
RTVSPost2010Prop28
280
     0
102
RTVSPost2010PropOp28
 70
     1
102
RTVSPost2010Prop29
280
     1
102
RTVSPost2010PropOp29
 70
     1
102
RTVSPost2010Prop30
280
     1
102
RTVSPost2010PropOp30
 70
     1
102
RTVSPost2010Prop31
280
     0
102
RTVSPost2010PropOp31
 70
     1
102
RTVSPost2010Prop32
280
     0
102
RTVSPost2010PropOp32
 70
     1
102
RTVSPost2010Prop33
280
     0
102
RTVSPost2010PropOp33
 70
     1
102
RTVSPost2010Prop34
280
     0
102
RTVSPost2010PropOp34
 70
     1
102
RTVSPost2010Prop35
280
     0
102
RTVSPost2010PropOp35
 70
     1
102
RTVSPost2010Prop36
280
     0
102
RTVSPost2010PropOp36
 70
     1
102
RTVSPost2010Prop37
 90
       50
102
RTVSPost2010PropOp37
 70
     1
102
RTVSPost2010Prop38
140
0.0
102
RTVSPost2010PropOp38
 70
     1
102
RTVSPost2010Prop39
140
1.0
102
RTVSPost2010PropOp39
 70
     1
102
RTVSPost2010Prop40
 90
        0
102
RTVSPost2010PropOp40
 70
     1
102
RTVSPost2010Prop41ColorIndex
 90
       18
102
RTVSPost2010Prop41ColorRGB
 90
        0
102
RTVSPost2010PropOp41
 70
     1
102
RTVSPost2010Prop42
 90
       50
102
RTVSPost2010PropOp42
 70
     1
102
RTVSPost2010Prop43
 90
        3
102
RTVSPost2010PropOp43
 70
     1
102
RTVSPost2010Prop44ColorIndex
 90
        5
102
RTVSPost2010Prop44ColorRGB
 90
      255
102
RTVSPost2010PropOp44
 70
     1
102
RTVSPost2010Prop45
280
     0
102
RTVSPost2010PropOp45
 70
     1
102
RTVSPost2010Prop46
 90
       50
102
RTVSPost2010PropOp46
 70
     1
102
RTVSPost2010Prop47
 90
       50
102
RTVSPost2010PropOp47
 70
     1
102
RTVSPost2010Prop48
 90
       50
102
RTVSPost2010PropOp48
 70
     1
102
RTVSPost2010Prop49
280
     0
102
RTVSPost2010PropOp49
 70
     1
102
RTVSPost2010Prop50
 90
       50
102
RTVSPost2010PropOp50
 70
     1
102
RTVSPost2010Prop51ColorIndex
 90
      256
102
RTVSPost2010Prop51ColorRGB
 90
-16777216
102
RTVSPost2010PropOp51
 70
     0
102
RTVSPost2010Prop52
140
1.0
102
RTVSPost2010PropOp52
 70
     0
102
RTVSPost2010Prop53
 90
        2
102
RTVSPost2010PropOp53
 70
     1
102
RTVSPost2010Prop54
  1
strokes_ogs.tif
102
RTVSPost2010PropOp54
 70
     1
102
RTVSPost2010Prop55
280
     0
102
RTVSPost2010PropOp55
 70
     1
102
RTVSPost2010Prop56
140
1.0
102
RTVSPost2010PropOp56
 70
     1
102
RTVSPost2010Prop57
140
1.0
102
RTVSPost2010PropOp57
 70
     1
102
RTVSPropertyOp0
 70
     1
102
RTVSPropertyOp1
 70
     1
102
RTVSPropertyOp2
 70
     1
102
RTVSPropertyOp3
 70
     1
102
RTVSPropertyOp4
 70
     1
102
RTVSPropertyOp5
 70
     1
102
RTVSPropertyOp6
 70
     1
102
RTVSPropertyOp7
 70
     1
102
RTVSPropertyOp8
 70
     1
102
RTVSPropertyOp9
 70
     1
102
RTVSPropertyOp10
 70
     1
102
RTVSPropertyOp11
 70
     1
102
RTVSPropertyOp12
 70
     1
102
RTVSPropertyOp13
 70
     1
102
RTVSPropertyOp14
 70
     1
102
RTVSPropertyOp15
 70
     1
102
RTVSPropertyOp16
 70
     1
102
RTVSPropertyOp17
 70
     1
102
RTVSPropertyOp18
 70
     1
102
RTVSPropertyOp19
 70
     1
102
RTVSPropertyOp20
 70
     1
102
RTVSPropertyOp21
 70
     1
102
RTVSPropertyOp22
 70
     1
102
RTVSPropertyOp23
 70
     1
102
RTVSPropertyOp24
 70
     1
102
RTVSPropertyOp25
 70
     1
102
RTVSPropertyOp26
 70
     1
102
RTVSPropertyOp27
 70
     1
102
RTVSPropertyOp28
 70
     1
102
RTVSPropertyOp29
 70
     1
102
RTVSPropertyOp30
 70
     1
102
RTVSPropertyOp31
 70
     1
102
RTVSPropertyOp32
 70
     1
102
RTVSPropertyOp33
 70
     1
102
RTVSPropertyOp34
 70
     1
102
RTVSPropertyOp35
 70
     1
102
RTVSPropertyOp36
 70
     1
102
RTVSPropertyOp37
 70
     1
102
RTVSPropertyOp38
 70
     1
102
RTVSPropertyOp39
 70
     1
102
RTVSPropertyOp40
 70
     1
102
RTVSPropertyOp41
 70
     1
102
RTVSPropertyOp42
 70
     1
102
RTVSPropertyOp43
 70
     1
102
RTVSPropertyOp44
 70
     1
102
RTVSPropertyOp45
 70
     1
102
RTVSPropertyOp46
 70
     1
102
RTVSPropertyOp47
 70
     1
102
RTVSPropertyOp48
 70
     1
102
RTVSPropertyOp49
 70
     1
102
RTVSPropertyOp50
 70
     1
102
RTVSPropertyOp51
 70
     0
102
RTVSPropertyOp52
 70
     0
102
RTVSPropertyOp53
 70
     1
102
RTVSPropertyOp54
 70
     1
102
RTVSPropertyOp55
 70
     1
102
RTVSPropertyOp56
 70
     1
102
RTVSPropertyOp57
 70
     1
102
RTVSPropertyOp58
 70
     1
102
RTVSPropertyOp59
 70
     1
102
RTVSPropertyOp60
 70
     1
102
RTVSPropertyOp61
 70
     1
102
RTVSPropertyOp62
 70
     1
  0
XRECORD
  5
1EA2
102
{ACAD_REACTORS
330
1EA1
102
}
330
1EA1
100
AcDbXrecord
280
     1
102
RTVSPost2010Prop28
280
     0
102
RTVSPost2010PropOp28
 70
     1
102
RTVSPost2010Prop29
280
     1
102
RTVSPost2010PropOp29
 70
     1
102
RTVSPost2010Prop30
280
     1
102
RTVSPost2010PropOp30
 70
     1
102
RTVSPost2010Prop31
280
     0
102
RTVSPost2010PropOp31
 70
     1
102
RTVSPost2010Prop32
280
     0
102
RTVSPost2010PropOp32
 70
     1
102
RTVSPost2010Prop33
280
     0
102
RTVSPost2010PropOp33
 70
     1
102
RTVSPost2010Prop34
280
     0
102
RTVSPost2010PropOp34
 70
     1
102
RTVSPost2010Prop35
280
     0
102
RTVSPost2010PropOp35
 70
     1
102
RTVSPost2010Prop36
280
     0
102
RTVSPost2010PropOp36
 70
     1
102
RTVSPost2010Prop37
 90
       50
102
RTVSPost2010PropOp37
 70
     1
102
RTVSPost2010Prop38
140
0.0
102
RTVSPost2010PropOp38
 70
     1
102
RTVSPost2010Prop39
140
1.0
102
RTVSPost2010PropOp39
 70
     1
102
RTVSPost2010Prop40
 90
        0
102
RTVSPost2010PropOp40
 70
     1
102
RTVSPost2010Prop41ColorIndex
 90
       18
102
RTVSPost2010Prop41ColorRGB
 90
        0
102
RTVSPost2010PropOp41
 70
     1
102
RTVSPost2010Prop42
 90
       50
102
RTVSPost2010PropOp42
 70
     1
102
RTVSPost2010Prop43
 90
        3
102
RTVSPost2010PropOp43
 70
     1
102
RTVSPost2010Prop44ColorIndex
 90
        5
102
RTVSPost2010Prop44ColorRGB
 90
      255
102
RTVSPost2010PropOp44
 70
     1
102
RTVSPost2010Prop45
280
     0
102
RTVSPost2010PropOp45
 70
     1
102
RTVSPost2010Prop46
 90
       50
102
RTVSPost2010PropOp46
 70
     1
102
RTVSPost2010Prop47
 90
       50
102
RTVSPost2010PropOp47
 70
     1
102
RTVSPost2010Prop48
 90
       50
102
RTVSPost2010PropOp48
 70
     1
102
RTVSPost2010Prop49
280
     0
102
RTVSPost2010PropOp49
 70
     1
102
RTVSPost2010Prop50
 90
       50
102
RTVSPost2010PropOp50
 70
     1
102
RTVSPost2010Prop51ColorIndex
 90
      256
102
RTVSPost2010Prop51ColorRGB
 90
-16777216
102
RTVSPost2010PropOp51
 70
     0
102
RTVSPost2010Prop52
140
1.0
102
RTVSPost2010PropOp52
 70
     0
102
RTVSPost2010Prop53
 90
        2
102
RTVSPost2010PropOp53
 70
     1
102
RTVSPost2010Prop54
  1
strokes_ogs.tif
102
RTVSPost2010PropOp54
 70
     1
102
RTVSPost2010Prop55
280
     0
102
RTVSPost2010PropOp55
 70
     1
102
RTVSPost2010Prop56
140
1.0
102
RTVSPost2010PropOp56
 70
     1
102
RTVSPost2010Prop57
140
1.0
102
RTVSPost2010PropOp57
 70
     1
102
RTVSPropertyOp0
 70
     1
102
RTVSPropertyOp1
 70
     1
102
RTVSPropertyOp2
 70
     1
102
RTVSPropertyOp3
 70
     1
102
RTVSPropertyOp4
 70
     1
102
RTVSPropertyOp5
 70
     1
102
RTVSPropertyOp6
 70
     1
102
RTVSPropertyOp7
 70
     1
102
RTVSPropertyOp8
 70
     1
102
RTVSPropertyOp9
 70
     1
102
RTVSPropertyOp10
 70
     1
102
RTVSPropertyOp11
 70
     1
102
RTVSPropertyOp12
 70
     1
102
RTVSPropertyOp13
 70
     1
102
RTVSPropertyOp14
 70
     1
102
RTVSPropertyOp15
 70
     1
102
RTVSPropertyOp16
 70
     1
102
RTVSPropertyOp17
 70
     1
102
RTVSPropertyOp18
 70
     1
102
RTVSPropertyOp19
 70
     1
102
RTVSPropertyOp20
 70
     1
102
RTVSPropertyOp21
 70
     1
102
RTVSPropertyOp22
 70
     1
102
RTVSPropertyOp23
 70
     1
102
RTVSPropertyOp24
 70
     1
102
RTVSPropertyOp25
 70
     1
102
RTVSPropertyOp26
 70
     1
102
RTVSPropertyOp27
 70
     1
102
RTVSPropertyOp28
 70
     1
102
RTVSPropertyOp29
 70
     1
102
RTVSPropertyOp30
 70
     1
102
RTVSPropertyOp31
 70
     1
102
RTVSPropertyOp32
 70
     1
102
RTVSPropertyOp33
 70
     1
102
RTVSPropertyOp34
 70
     1
102
RTVSPropertyOp35
 70
     1
102
RTVSPropertyOp36
 70
     1
102
RTVSPropertyOp37
 70
     1
102
RTVSPropertyOp38
 70
     1
102
RTVSPropertyOp39
 70
     1
102
RTVSPropertyOp40
 70
     1
102
RTVSPropertyOp41
 70
     1
102
RTVSPropertyOp42
 70
     1
102
RTVSPropertyOp43
 70
     1
102
RTVSPropertyOp44
 70
     1
102
RTVSPropertyOp45
 70
     1
102
RTVSPropertyOp46
 70
     1
102
RTVSPropertyOp47
 70
     1
102
RTVSPropertyOp48
 70
     1
102
RTVSPropertyOp49
 70
     1
102
RTVSPropertyOp50
 70
     1
102
RTVSPropertyOp51
 70
     0
102
RTVSPropertyOp52
 70
     0
102
RTVSPropertyOp53
 70
     1
102
RTVSPropertyOp54
 70
     1
102
RTVSPropertyOp55
 70
     1
102
RTVSPropertyOp56
 70
     1
102
RTVSPropertyOp57
 70
     1
102
RTVSPropertyOp58
 70
     1
102
RTVSPropertyOp59
 70
     1
102
RTVSPropertyOp60
 70
     1
102
RTVSPropertyOp61
 70
     1
102
RTVSPropertyOp62
 70
     1
  0
XRECORD
  5
1EA4
102
{ACAD_REACTORS
330
1EA3
102
}
330
1EA3
100
AcDbXrecord
280
     1
102
RTVSPost2010Prop28
280
     0
102
RTVSPost2010PropOp28
 70
     1
102
RTVSPost2010Prop29
280
     1
102
RTVSPost2010PropOp29
 70
     1
102
RTVSPost2010Prop30
280
     1
102
RTVSPost2010PropOp30
 70
     1
102
RTVSPost2010Prop31
280
     0
102
RTVSPost2010PropOp31
 70
     1
102
RTVSPost2010Prop32
280
     0
102
RTVSPost2010PropOp32
 70
     1
102
RTVSPost2010Prop33
280
     0
102
RTVSPost2010PropOp33
 70
     1
102
RTVSPost2010Prop34
280
     0
102
RTVSPost2010PropOp34
 70
     1
102
RTVSPost2010Prop35
280
     0
102
RTVSPost2010PropOp35
 70
     1
102
RTVSPost2010Prop36
280
     0
102
RTVSPost2010PropOp36
 70
     1
102
RTVSPost2010Prop37
 90
       50
102
RTVSPost2010PropOp37
 70
     1
102
RTVSPost2010Prop38
140
0.0
102
RTVSPost2010PropOp38
 70
     1
102
RTVSPost2010Prop39
140
1.0
102
RTVSPost2010PropOp39
 70
     1
102
RTVSPost2010Prop40
 90
        0
102
RTVSPost2010PropOp40
 70
     1
102
RTVSPost2010Prop41ColorIndex
 90
       18
102
RTVSPost2010Prop41ColorRGB
 90
        0
102
RTVSPost2010PropOp41
 70
     1
102
RTVSPost2010Prop42
 90
       50
102
RTVSPost2010PropOp42
 70
     1
102
RTVSPost2010Prop43
 90
        3
102
RTVSPost2010PropOp43
 70
     1
102
RTVSPost2010Prop44ColorIndex
 90
        5
102
RTVSPost2010Prop44ColorRGB
 90
      255
102
RTVSPost2010PropOp44
 70
     1
102
RTVSPost2010Prop45
280
     0
102
RTVSPost2010PropOp45
 70
     1
102
RTVSPost2010Prop46
 90
       50
102
RTVSPost2010PropOp46
 70
     1
102
RTVSPost2010Prop47
 90
       50
102
RTVSPost2010PropOp47
 70
     1
102
RTVSPost2010Prop48
 90
       50
102
RTVSPost2010PropOp48
 70
     1
102
RTVSPost2010Prop49
280
     0
102
RTVSPost2010PropOp49
 70
     1
102
RTVSPost2010Prop50
 90
       50
102
RTVSPost2010PropOp50
 70
     1
102
RTVSPost2010Prop51ColorIndex
 90
      256
102
RTVSPost2010Prop51ColorRGB
 90
-16777216
102
RTVSPost2010PropOp51
 70
     0
102
RTVSPost2010Prop52
140
1.0
102
RTVSPost2010PropOp52
 70
     0
102
RTVSPost2010Prop53
 90
        2
102
RTVSPost2010PropOp53
 70
     1
102
RTVSPost2010Prop54
  1
strokes_ogs.tif
102
RTVSPost2010PropOp54
 70
     1
102
RTVSPost2010Prop55
280
     0
102
RTVSPost2010PropOp55
 70
     1
102
RTVSPost2010Prop56
140
1.0
102
RTVSPost2010PropOp56
 70
     1
102
RTVSPost2010Prop57
140
1.0
102
RTVSPost2010PropOp57
 70
     1
102
RTVSPropertyOp0
 70
     1
102
RTVSPropertyOp1
 70
     1
102
RTVSPropertyOp2
 70
     1
102
RTVSPropertyOp3
 70
     1
102
RTVSPropertyOp4
 70
     1
102
RTVSPropertyOp5
 70
     1
102
RTVSPropertyOp6
 70
     1
102
RTVSPropertyOp7
 70
     1
102
RTVSPropertyOp8
 70
     1
102
RTVSPropertyOp9
 70
     1
102
RTVSPropertyOp10
 70
     1
102
RTVSPropertyOp11
 70
     1
102
RTVSPropertyOp12
 70
     1
102
RTVSPropertyOp13
 70
     1
102
RTVSPropertyOp14
 70
     1
102
RTVSPropertyOp15
 70
     1
102
RTVSPropertyOp16
 70
     1
102
RTVSPropertyOp17
 70
     1
102
RTVSPropertyOp18
 70
     1
102
RTVSPropertyOp19
 70
     1
102
RTVSPropertyOp20
 70
     1
102
RTVSPropertyOp21
 70
     1
102
RTVSPropertyOp22
 70
     1
102
RTVSPropertyOp23
 70
     1
102
RTVSPropertyOp24
 70
     1
102
RTVSPropertyOp25
 70
     1
102
RTVSPropertyOp26
 70
     1
102
RTVSPropertyOp27
 70
     1
102
RTVSPropertyOp28
 70
     1
102
RTVSPropertyOp29
 70
     1
102
RTVSPropertyOp30
 70
     1
102
RTVSPropertyOp31
 70
     1
102
RTVSPropertyOp32
 70
     1
102
RTVSPropertyOp33
 70
     1
102
RTVSPropertyOp34
 70
     1
102
RTVSPropertyOp35
 70
     1
102
RTVSPropertyOp36
 70
     1
102
RTVSPropertyOp37
 70
     1
102
RTVSPropertyOp38
 70
     1
102
RTVSPropertyOp39
 70
     1
102
RTVSPropertyOp40
 70
     1
102
RTVSPropertyOp41
 70
     1
102
RTVSPropertyOp42
 70
     1
102
RTVSPropertyOp43
 70
     1
102
RTVSPropertyOp44
 70
     1
102
RTVSPropertyOp45
 70
     1
102
RTVSPropertyOp46
 70
     1
102
RTVSPropertyOp47
 70
     1
102
RTVSPropertyOp48
 70
     1
102
RTVSPropertyOp49
 70
     1
102
RTVSPropertyOp50
 70
     1
102
RTVSPropertyOp51
 70
     0
102
RTVSPropertyOp52
 70
     0
102
RTVSPropertyOp53
 70
     1
102
RTVSPropertyOp54
 70
     1
102
RTVSPropertyOp55
 70
     1
102
RTVSPropertyOp56
 70
     1
102
RTVSPropertyOp57
 70
     1
102
RTVSPropertyOp58
 70
     1
102
RTVSPropertyOp59
 70
     1
102
RTVSPropertyOp60
 70
     1
102
RTVSPropertyOp61
 70
     1
102
RTVSPropertyOp62
 70
     1
  0
XRECORD
  5
1EA6
102
{ACAD_REACTORS
330
1EA5
102
}
330
1EA5
100
AcDbXrecord
280
     1
102
RTVSPost2010Prop28
280
     0
102
RTVSPost2010PropOp28
 70
     1
102
RTVSPost2010Prop29
280
     1
102
RTVSPost2010PropOp29
 70
     1
102
RTVSPost2010Prop30
280
     1
102
RTVSPost2010PropOp30
 70
     1
102
RTVSPost2010Prop31
280
     0
102
RTVSPost2010PropOp31
 70
     1
102
RTVSPost2010Prop32
280
     0
102
RTVSPost2010PropOp32
 70
     1
102
RTVSPost2010Prop33
280
     0
102
RTVSPost2010PropOp33
 70
     1
102
RTVSPost2010Prop34
280
     0
102
RTVSPost2010PropOp34
 70
     1
102
RTVSPost2010Prop35
280
     0
102
RTVSPost2010PropOp35
 70
     1
102
RTVSPost2010Prop36
280
     0
102
RTVSPost2010PropOp36
 70
     1
102
RTVSPost2010Prop37
 90
       50
102
RTVSPost2010PropOp37
 70
     1
102
RTVSPost2010Prop38
140
0.0
102
RTVSPost2010PropOp38
 70
     1
102
RTVSPost2010Prop39
140
1.0
102
RTVSPost2010PropOp39
 70
     1
102
RTVSPost2010Prop40
 90
        0
102
RTVSPost2010PropOp40
 70
     1
102
RTVSPost2010Prop41ColorIndex
 90
       18
102
RTVSPost2010Prop41ColorRGB
 90
        0
102
RTVSPost2010PropOp41
 70
     1
102
RTVSPost2010Prop42
 90
       50
102
RTVSPost2010PropOp42
 70
     1
102
RTVSPost2010Prop43
 90
        3
102
RTVSPost2010PropOp43
 70
     1
102
RTVSPost2010Prop44ColorIndex
 90
        5
102
RTVSPost2010Prop44ColorRGB
 90
      255
102
RTVSPost2010PropOp44
 70
     1
102
RTVSPost2010Prop45
280
     0
102
RTVSPost2010PropOp45
 70
     1
102
RTVSPost2010Prop46
 90
       50
102
RTVSPost2010PropOp46
 70
     1
102
RTVSPost2010Prop47
 90
       50
102
RTVSPost2010PropOp47
 70
     1
102
RTVSPost2010Prop48
 90
       50
102
RTVSPost2010PropOp48
 70
     1
102
RTVSPost2010Prop49
280
     0
102
RTVSPost2010PropOp49
 70
     1
102
RTVSPost2010Prop50
 90
       50
102
RTVSPost2010PropOp50
 70
     1
102
RTVSPost2010Prop51ColorIndex
 90
      256
102
RTVSPost2010Prop51ColorRGB
 90
-16777216
102
RTVSPost2010PropOp51
 70
     0
102
RTVSPost2010Prop52
140
1.0
102
RTVSPost2010PropOp52
 70
     0
102
RTVSPost2010Prop53
 90
        2
102
RTVSPost2010PropOp53
 70
     1
102
RTVSPost2010Prop54
  1
strokes_ogs.tif
102
RTVSPost2010PropOp54
 70
     1
102
RTVSPost2010Prop55
280
     0
102
RTVSPost2010PropOp55
 70
     1
102
RTVSPost2010Prop56
140
1.0
102
RTVSPost2010PropOp56
 70
     1
102
RTVSPost2010Prop57
140
1.0
102
RTVSPost2010PropOp57
 70
     1
102
RTVSPropertyOp0
 70
     1
102
RTVSPropertyOp1
 70
     1
102
RTVSPropertyOp2
 70
     1
102
RTVSPropertyOp3
 70
     1
102
RTVSPropertyOp4
 70
     1
102
RTVSPropertyOp5
 70
     1
102
RTVSPropertyOp6
 70
     1
102
RTVSPropertyOp7
 70
     1
102
RTVSPropertyOp8
 70
     1
102
RTVSPropertyOp9
 70
     1
102
RTVSPropertyOp10
 70
     1
102
RTVSPropertyOp11
 70
     1
102
RTVSPropertyOp12
 70
     1
102
RTVSPropertyOp13
 70
     1
102
RTVSPropertyOp14
 70
     1
102
RTVSPropertyOp15
 70
     1
102
RTVSPropertyOp16
 70
     1
102
RTVSPropertyOp17
 70
     1
102
RTVSPropertyOp18
 70
     1
102
RTVSPropertyOp19
 70
     1
102
RTVSPropertyOp20
 70
     1
102
RTVSPropertyOp21
 70
     1
102
RTVSPropertyOp22
 70
     1
102
RTVSPropertyOp23
 70
     1
102
RTVSPropertyOp24
 70
     1
102
RTVSPropertyOp25
 70
     1
102
RTVSPropertyOp26
 70
     1
102
RTVSPropertyOp27
 70
     1
102
RTVSPropertyOp28
 70
     1
102
RTVSPropertyOp29
 70
     1
102
RTVSPropertyOp30
 70
     1
102
RTVSPropertyOp31
 70
     1
102
RTVSPropertyOp32
 70
     1
102
RTVSPropertyOp33
 70
     1
102
RTVSPropertyOp34
 70
     1
102
RTVSPropertyOp35
 70
     1
102
RTVSPropertyOp36
 70
     1
102
RTVSPropertyOp37
 70
     1
102
RTVSPropertyOp38
 70
     1
102
RTVSPropertyOp39
 70
     1
102
RTVSPropertyOp40
 70
     1
102
RTVSPropertyOp41
 70
     1
102
RTVSPropertyOp42
 70
     1
102
RTVSPropertyOp43
 70
     1
102
RTVSPropertyOp44
 70
     1
102
RTVSPropertyOp45
 70
     1
102
RTVSPropertyOp46
 70
     1
102
RTVSPropertyOp47
 70
     1
102
RTVSPropertyOp48
 70
     1
102
RTVSPropertyOp49
 70
     1
102
RTVSPropertyOp50
 70
     1
102
RTVSPropertyOp51
 70
     0
102
RTVSPropertyOp52
 70
     0
102
RTVSPropertyOp53
 70
     1
102
RTVSPropertyOp54
 70
     1
102
RTVSPropertyOp55
 70
     1
102
RTVSPropertyOp56
 70
     1
102
RTVSPropertyOp57
 70
     1
102
RTVSPropertyOp58
 70
     1
102
RTVSPropertyOp59
 70
     1
102
RTVSPropertyOp60
 70
     1
102
RTVSPropertyOp61
 70
     1
102
RTVSPropertyOp62
 70
     1
  0
XRECORD
  5
1EA8
102
{ACAD_REACTORS
330
1EA7
102
}
330
1EA7
100
AcDbXrecord
280
     1
102
RTVSPost2010Prop28
280
     0
102
RTVSPost2010PropOp28
 70
     1
102
RTVSPost2010Prop29
280
     1
102
RTVSPost2010PropOp29
 70
     1
102
RTVSPost2010Prop30
280
     1
102
RTVSPost2010PropOp30
 70
     1
102
RTVSPost2010Prop31
280
     0
102
RTVSPost2010PropOp31
 70
     1
102
RTVSPost2010Prop32
280
     0
102
RTVSPost2010PropOp32
 70
     1
102
RTVSPost2010Prop33
280
     0
102
RTVSPost2010PropOp33
 70
     1
102
RTVSPost2010Prop34
280
     0
102
RTVSPost2010PropOp34
 70
     1
102
RTVSPost2010Prop35
280
     0
102
RTVSPost2010PropOp35
 70
     1
102
RTVSPost2010Prop36
280
     0
102
RTVSPost2010PropOp36
 70
     1
102
RTVSPost2010Prop37
 90
       50
102
RTVSPost2010PropOp37
 70
     1
102
RTVSPost2010Prop38
140
0.0
102
RTVSPost2010PropOp38
 70
     1
102
RTVSPost2010Prop39
140
1.0
102
RTVSPost2010PropOp39
 70
     1
102
RTVSPost2010Prop40
 90
        0
102
RTVSPost2010PropOp40
 70
     1
102
RTVSPost2010Prop41ColorIndex
 90
       18
102
RTVSPost2010Prop41ColorRGB
 90
        0
102
RTVSPost2010PropOp41
 70
     1
102
RTVSPost2010Prop42
 90
       50
102
RTVSPost2010PropOp42
 70
     1
102
RTVSPost2010Prop43
 90
        3
102
RTVSPost2010PropOp43
 70
     1
102
RTVSPost2010Prop44ColorIndex
 90
        5
102
RTVSPost2010Prop44ColorRGB
 90
      255
102
RTVSPost2010PropOp44
 70
     1
102
RTVSPost2010Prop45
280
     0
102
RTVSPost2010PropOp45
 70
     1
102
RTVSPost2010Prop46
 90
       50
102
RTVSPost2010PropOp46
 70
     1
102
RTVSPost2010Prop47
 90
       50
102
RTVSPost2010PropOp47
 70
     1
102
RTVSPost2010Prop48
 90
       50
102
RTVSPost2010PropOp48
 70
     1
102
RTVSPost2010Prop49
280
     0
102
RTVSPost2010PropOp49
 70
     1
102
RTVSPost2010Prop50
 90
       50
102
RTVSPost2010PropOp50
 70
     1
102
RTVSPost2010Prop51ColorIndex
 90
      256
102
RTVSPost2010Prop51ColorRGB
 90
-16777216
102
RTVSPost2010PropOp51
 70
     0
102
RTVSPost2010Prop52
140
1.0
102
RTVSPost2010PropOp52
 70
     0
102
RTVSPost2010Prop53
 90
        2
102
RTVSPost2010PropOp53
 70
     1
102
RTVSPost2010Prop54
  1
strokes_ogs.tif
102
RTVSPost2010PropOp54
 70
     1
102
RTVSPost2010Prop55
280
     0
102
RTVSPost2010PropOp55
 70
     1
102
RTVSPost2010Prop56
140
1.0
102
RTVSPost2010PropOp56
 70
     1
102
RTVSPost2010Prop57
140
1.0
102
RTVSPost2010PropOp57
 70
     1
102
RTVSPropertyOp0
 70
     1
102
RTVSPropertyOp1
 70
     1
102
RTVSPropertyOp2
 70
     1
102
RTVSPropertyOp3
 70
     1
102
RTVSPropertyOp4
 70
     1
102
RTVSPropertyOp5
 70
     1
102
RTVSPropertyOp6
 70
     1
102
RTVSPropertyOp7
 70
     1
102
RTVSPropertyOp8
 70
     1
102
RTVSPropertyOp9
 70
     1
102
RTVSPropertyOp10
 70
     1
102
RTVSPropertyOp11
 70
     1
102
RTVSPropertyOp12
 70
     1
102
RTVSPropertyOp13
 70
     1
102
RTVSPropertyOp14
 70
     1
102
RTVSPropertyOp15
 70
     1
102
RTVSPropertyOp16
 70
     1
102
RTVSPropertyOp17
 70
     1
102
RTVSPropertyOp18
 70
     1
102
RTVSPropertyOp19
 70
     1
102
RTVSPropertyOp20
 70
     1
102
RTVSPropertyOp21
 70
     1
102
RTVSPropertyOp22
 70
     1
102
RTVSPropertyOp23
 70
     1
102
RTVSPropertyOp24
 70
     1
102
RTVSPropertyOp25
 70
     1
102
RTVSPropertyOp26
 70
     1
102
RTVSPropertyOp27
 70
     1
102
RTVSPropertyOp28
 70
     1
102
RTVSPropertyOp29
 70
     1
102
RTVSPropertyOp30
 70
     1
102
RTVSPropertyOp31
 70
     1
102
RTVSPropertyOp32
 70
     1
102
RTVSPropertyOp33
 70
     1
102
RTVSPropertyOp34
 70
     1
102
RTVSPropertyOp35
 70
     1
102
RTVSPropertyOp36
 70
     1
102
RTVSPropertyOp37
 70
     1
102
RTVSPropertyOp38
 70
     1
102
RTVSPropertyOp39
 70
     1
102
RTVSPropertyOp40
 70
     1
102
RTVSPropertyOp41
 70
     1
102
RTVSPropertyOp42
 70
     1
102
RTVSPropertyOp43
 70
     1
102
RTVSPropertyOp44
 70
     1
102
RTVSPropertyOp45
 70
     1
102
RTVSPropertyOp46
 70
     1
102
RTVSPropertyOp47
 70
     1
102
RTVSPropertyOp48
 70
     1
102
RTVSPropertyOp49
 70
     1
102
RTVSPropertyOp50
 70
     1
102
RTVSPropertyOp51
 70
     0
102
RTVSPropertyOp52
 70
     0
102
RTVSPropertyOp53
 70
     1
102
RTVSPropertyOp54
 70
     1
102
RTVSPropertyOp55
 70
     1
102
RTVSPropertyOp56
 70
     1
102
RTVSPropertyOp57
 70
     1
102
RTVSPropertyOp58
 70
     1
102
RTVSPropertyOp59
 70
     1
102
RTVSPropertyOp60
 70
     1
102
RTVSPropertyOp61
 70
     1
102
RTVSPropertyOp62
 70
     1
  0
XRECORD
  5
1ED4
102
{ACAD_REACTORS
330
1ED3
102
}
330
1ED3
100
AcDbXrecord
280
     1
102
RTVSPost2010Prop28
280
     0
102
RTVSPost2010PropOp28
 70
     1
102
RTVSPost2010Prop29
280
     1
102
RTVSPost2010PropOp29
 70
     1
102
RTVSPost2010Prop30
280
     1
102
RTVSPost2010PropOp30
 70
     1
102
RTVSPost2010Prop31
280
     0
102
RTVSPost2010PropOp31
 70
     1
102
RTVSPost2010Prop32
280
     0
102
RTVSPost2010PropOp32
 70
     1
102
RTVSPost2010Prop33
280
     0
102
RTVSPost2010PropOp33
 70
     1
102
RTVSPost2010Prop34
280
     0
102
RTVSPost2010PropOp34
 70
     1
102
RTVSPost2010Prop35
280
     0
102
RTVSPost2010PropOp35
 70
     1
102
RTVSPost2010Prop36
280
     0
102
RTVSPost2010PropOp36
 70
     1
102
RTVSPost2010Prop37
 90
       50
102
RTVSPost2010PropOp37
 70
     1
102
RTVSPost2010Prop38
140
0.0
102
RTVSPost2010PropOp38
 70
     1
102
RTVSPost2010Prop39
140
1.0
102
RTVSPost2010PropOp39
 70
     1
102
RTVSPost2010Prop40
 90
        0
102
RTVSPost2010PropOp40
 70
     1
102
RTVSPost2010Prop41ColorIndex
 90
       18
102
RTVSPost2010Prop41ColorRGB
 90
        0
102
RTVSPost2010PropOp41
 70
     1
102
RTVSPost2010Prop42
 90
       50
102
RTVSPost2010PropOp42
 70
     1
102
RTVSPost2010Prop43
 90
        3
102
RTVSPost2010PropOp43
 70
     1
102
RTVSPost2010Prop44ColorIndex
 90
        5
102
RTVSPost2010Prop44ColorRGB
 90
      255
102
RTVSPost2010PropOp44
 70
     1
102
RTVSPost2010Prop45
280
     0
102
RTVSPost2010PropOp45
 70
     1
102
RTVSPost2010Prop46
 90
       50
102
RTVSPost2010PropOp46
 70
     1
102
RTVSPost2010Prop47
 90
       50
102
RTVSPost2010PropOp47
 70
     1
102
RTVSPost2010Prop48
 90
       50
102
RTVSPost2010PropOp48
 70
     1
102
RTVSPost2010Prop49
280
     0
102
RTVSPost2010PropOp49
 70
     1
102
RTVSPost2010Prop50
 90
       50
102
RTVSPost2010PropOp50
 70
     1
102
RTVSPost2010Prop51ColorIndex
 90
      256
102
RTVSPost2010Prop51ColorRGB
 90
-16777216
102
RTVSPost2010PropOp51
 70
     0
102
RTVSPost2010Prop52
140
1.0
102
RTVSPost2010PropOp52
 70
     0
102
RTVSPost2010Prop53
 90
        2
102
RTVSPost2010PropOp53
 70
     1
102
RTVSPost2010Prop54
  1
strokes_ogs.tif
102
RTVSPost2010PropOp54
 70
     1
102
RTVSPost2010Prop55
280
     0
102
RTVSPost2010PropOp55
 70
     1
102
RTVSPost2010Prop56
140
1.0
102
RTVSPost2010PropOp56
 70
     1
102
RTVSPost2010Prop57
140
1.0
102
RTVSPost2010PropOp57
 70
     1
102
RTVSPropertyOp0
 70
     1
102
RTVSPropertyOp1
 70
     1
102
RTVSPropertyOp2
 70
     1
102
RTVSPropertyOp3
 70
     1
102
RTVSPropertyOp4
 70
     1
102
RTVSPropertyOp5
 70
     1
102
RTVSPropertyOp6
 70
     1
102
RTVSPropertyOp7
 70
     1
102
RTVSPropertyOp8
 70
     1
102
RTVSPropertyOp9
 70
     1
102
RTVSPropertyOp10
 70
     1
102
RTVSPropertyOp11
 70
     1
102
RTVSPropertyOp12
 70
     1
102
RTVSPropertyOp13
 70
     1
102
RTVSPropertyOp14
 70
     1
102
RTVSPropertyOp15
 70
     1
102
RTVSPropertyOp16
 70
     1
102
RTVSPropertyOp17
 70
     1
102
RTVSPropertyOp18
 70
     1
102
RTVSPropertyOp19
 70
     1
102
RTVSPropertyOp20
 70
     1
102
RTVSPropertyOp21
 70
     1
102
RTVSPropertyOp22
 70
     1
102
RTVSPropertyOp23
 70
     1
102
RTVSPropertyOp24
 70
     1
102
RTVSPropertyOp25
 70
     1
102
RTVSPropertyOp26
 70
     1
102
RTVSPropertyOp27
 70
     1
102
RTVSPropertyOp28
 70
     1
102
RTVSPropertyOp29
 70
     1
102
RTVSPropertyOp30
 70
     1
102
RTVSPropertyOp31
 70
     1
102
RTVSPropertyOp32
 70
     1
102
RTVSPropertyOp33
 70
     1
102
RTVSPropertyOp34
 70
     1
102
RTVSPropertyOp35
 70
     1
102
RTVSPropertyOp36
 70
     1
102
RTVSPropertyOp37
 70
     1
102
RTVSPropertyOp38
 70
     1
102
RTVSPropertyOp39
 70
     1
102
RTVSPropertyOp40
 70
     1
102
RTVSPropertyOp41
 70
     1
102
RTVSPropertyOp42
 70
     1
102
RTVSPropertyOp43
 70
     1
102
RTVSPropertyOp44
 70
     1
102
RTVSPropertyOp45
 70
     1
102
RTVSPropertyOp46
 70
     1
102
RTVSPropertyOp47
 70
     1
102
RTVSPropertyOp48
 70
     1
102
RTVSPropertyOp49
 70
     1
102
RTVSPropertyOp50
 70
     1
102
RTVSPropertyOp51
 70
     0
102
RTVSPropertyOp52
 70
     0
102
RTVSPropertyOp53
 70
     1
102
RTVSPropertyOp54
 70
     1
102
RTVSPropertyOp55
 70
     1
102
RTVSPropertyOp56
 70
     1
102
RTVSPropertyOp57
 70
     1
102
RTVSPropertyOp58
 70
     1
102
RTVSPropertyOp59
 70
     1
102
RTVSPropertyOp60
 70
     1
102
RTVSPropertyOp61
 70
     1
102
RTVSPropertyOp62
 70
     1
  0
XRECORD
  5
1ECC
102
{ACAD_REACTORS
330
1ECB
102
}
330
1ECB
100
AcDbXrecord
280
     1
102
RTVSPost2010Prop28
280
     0
102
RTVSPost2010PropOp28
 70
     1
102
RTVSPost2010Prop29
280
     1
102
RTVSPost2010PropOp29
 70
     1
102
RTVSPost2010Prop30
280
     1
102
RTVSPost2010PropOp30
 70
     1
102
RTVSPost2010Prop31
280
     0
102
RTVSPost2010PropOp31
 70
     1
102
RTVSPost2010Prop32
280
     0
102
RTVSPost2010PropOp32
 70
     1
102
RTVSPost2010Prop33
280
     0
102
RTVSPost2010PropOp33
 70
     1
102
RTVSPost2010Prop34
280
     0
102
RTVSPost2010PropOp34
 70
     1
102
RTVSPost2010Prop35
280
     0
102
RTVSPost2010PropOp35
 70
     1
102
RTVSPost2010Prop36
280
     0
102
RTVSPost2010PropOp36
 70
     1
102
RTVSPost2010Prop37
 90
       50
102
RTVSPost2010PropOp37
 70
     1
102
RTVSPost2010Prop38
140
0.0
102
RTVSPost2010PropOp38
 70
     1
102
RTVSPost2010Prop39
140
1.0
102
RTVSPost2010PropOp39
 70
     1
102
RTVSPost2010Prop40
 90
        0
102
RTVSPost2010PropOp40
 70
     1
102
RTVSPost2010Prop41ColorIndex
 90
       18
102
RTVSPost2010Prop41ColorRGB
 90
        0
102
RTVSPost2010PropOp41
 70
     1
102
RTVSPost2010Prop42
 90
       50
102
RTVSPost2010PropOp42
 70
     1
102
RTVSPost2010Prop43
 90
        3
102
RTVSPost2010PropOp43
 70
     1
102
RTVSPost2010Prop44ColorIndex
 90
        5
102
RTVSPost2010Prop44ColorRGB
 90
      255
102
RTVSPost2010PropOp44
 70
     1
102
RTVSPost2010Prop45
280
     0
102
RTVSPost2010PropOp45
 70
     1
102
RTVSPost2010Prop46
 90
       50
102
RTVSPost2010PropOp46
 70
     1
102
RTVSPost2010Prop47
 90
       50
102
RTVSPost2010PropOp47
 70
     1
102
RTVSPost2010Prop48
 90
       50
102
RTVSPost2010PropOp48
 70
     1
102
RTVSPost2010Prop49
280
     0
102
RTVSPost2010PropOp49
 70
     1
102
RTVSPost2010Prop50
 90
       50
102
RTVSPost2010PropOp50
 70
     1
102
RTVSPost2010Prop51ColorIndex
 90
      256
102
RTVSPost2010Prop51ColorRGB
 90
-16777216
102
RTVSPost2010PropOp51
 70
     0
102
RTVSPost2010Prop52
140
1.0
102
RTVSPost2010PropOp52
 70
     0
102
RTVSPost2010Prop53
 90
        2
102
RTVSPost2010PropOp53
 70
     1
102
RTVSPost2010Prop54
  1
strokes_ogs.tif
102
RTVSPost2010PropOp54
 70
     1
102
RTVSPost2010Prop55
280
     0
102
RTVSPost2010PropOp55
 70
     1
102
RTVSPost2010Prop56
140
1.0
102
RTVSPost2010PropOp56
 70
     1
102
RTVSPost2010Prop57
140
1.0
102
RTVSPost2010PropOp57
 70
     1
102
RTVSPropertyOp0
 70
     0
102
RTVSPropertyOp1
 70
     0
102
RTVSPropertyOp2
 70
     0
102
RTVSPropertyOp3
 70
     0
102
RTVSPropertyOp4
 70
     0
102
RTVSPropertyOp5
 70
     0
102
RTVSPropertyOp6
 70
     0
102
RTVSPropertyOp7
 70
     0
102
RTVSPropertyOp8
 70
     0
102
RTVSPropertyOp9
 70
     0
102
RTVSPropertyOp10
 70
     0
102
RTVSPropertyOp11
 70
     0
102
RTVSPropertyOp12
 70
     0
102
RTVSPropertyOp13
 70
     0
102
RTVSPropertyOp14
 70
     2
102
RTVSPropertyOp15
 70
     0
102
RTVSPropertyOp16
 70
     0
102
RTVSPropertyOp17
 70
     0
102
RTVSPropertyOp18
 70
     0
102
RTVSPropertyOp19
 70
     0
102
RTVSPropertyOp20
 70
     0
102
RTVSPropertyOp21
 70
     0
102
RTVSPropertyOp22
 70
     0
102
RTVSPropertyOp23
 70
     0
102
RTVSPropertyOp24
 70
     0
102
RTVSPropertyOp25
 70
     0
102
RTVSPropertyOp26
 70
     0
102
RTVSPropertyOp27
 70
     0
102
RTVSPropertyOp28
 70
     1
102
RTVSPropertyOp29
 70
     1
102
RTVSPropertyOp30
 70
     1
102
RTVSPropertyOp31
 70
     1
102
RTVSPropertyOp32
 70
     1
102
RTVSPropertyOp33
 70
     1
102
RTVSPropertyOp34
 70
     1
102
RTVSPropertyOp35
 70
     1
102
RTVSPropertyOp36
 70
     1
102
RTVSPropertyOp37
 70
     1
102
RTVSPropertyOp38
 70
     1
102
RTVSPropertyOp39
 70
     1
102
RTVSPropertyOp40
 70
     1
102
RTVSPropertyOp41
 70
     1
102
RTVSPropertyOp42
 70
     1
102
RTVSPropertyOp43
 70
     1
102
RTVSPropertyOp44
 70
     1
102
RTVSPropertyOp45
 70
     1
102
RTVSPropertyOp46
 70
     1
102
RTVSPropertyOp47
 70
     1
102
RTVSPropertyOp48
 70
     1
102
RTVSPropertyOp49
 70
     1
102
RTVSPropertyOp50
 70
     1
102
RTVSPropertyOp51
 70
     0
102
RTVSPropertyOp52
 70
     0
102
RTVSPropertyOp53
 70
     1
102
RTVSPropertyOp54
 70
     1
102
RTVSPropertyOp55
 70
     1
102
RTVSPropertyOp56
 70
     1
102
RTVSPropertyOp57
 70
     1
102
RTVSPropertyOp58
 70
     1
102
RTVSPropertyOp59
 70
     1
102
RTVSPropertyOp60
 70
     1
102
RTVSPropertyOp61
 70
     1
102
RTVSPropertyOp62
 70
     1
  0
XRECORD
  5
1EBC
102
{ACAD_REACTORS
330
1EBB
102
}
330
1EBB
100
AcDbXrecord
280
     1
102
RTVSPost2010Prop28
280
     0
102
RTVSPost2010PropOp28
 70
     1
102
RTVSPost2010Prop29
280
     1
102
RTVSPost2010PropOp29
 70
     1
102
RTVSPost2010Prop30
280
     1
102
RTVSPost2010PropOp30
 70
     1
102
RTVSPost2010Prop31
280
     0
102
RTVSPost2010PropOp31
 70
     1
102
RTVSPost2010Prop32
280
     0
102
RTVSPost2010PropOp32
 70
     1
102
RTVSPost2010Prop33
280
     0
102
RTVSPost2010PropOp33
 70
     1
102
RTVSPost2010Prop34
280
     0
102
RTVSPost2010PropOp34
 70
     1
102
RTVSPost2010Prop35
280
     0
102
RTVSPost2010PropOp35
 70
     1
102
RTVSPost2010Prop36
280
     0
102
RTVSPost2010PropOp36
 70
     1
102
RTVSPost2010Prop37
 90
       50
102
RTVSPost2010PropOp37
 70
     1
102
RTVSPost2010Prop38
140
0.0
102
RTVSPost2010PropOp38
 70
     1
102
RTVSPost2010Prop39
140
1.0
102
RTVSPost2010PropOp39
 70
     1
102
RTVSPost2010Prop40
 90
        0
102
RTVSPost2010PropOp40
 70
     1
102
RTVSPost2010Prop41ColorIndex
 90
       18
102
RTVSPost2010Prop41ColorRGB
 90
        0
102
RTVSPost2010PropOp41
 70
     1
102
RTVSPost2010Prop42
 90
       50
102
RTVSPost2010PropOp42
 70
     1
102
RTVSPost2010Prop43
 90
        3
102
RTVSPost2010PropOp43
 70
     1
102
RTVSPost2010Prop44ColorIndex
 90
        5
102
RTVSPost2010Prop44ColorRGB
 90
      255
102
RTVSPost2010PropOp44
 70
     1
102
RTVSPost2010Prop45
280
     0
102
RTVSPost2010PropOp45
 70
     1
102
RTVSPost2010Prop46
 90
       50
102
RTVSPost2010PropOp46
 70
     1
102
RTVSPost2010Prop47
 90
       50
102
RTVSPost2010PropOp47
 70
     1
102
RTVSPost2010Prop48
 90
       50
102
RTVSPost2010PropOp48
 70
     1
102
RTVSPost2010Prop49
280
     0
102
RTVSPost2010PropOp49
 70
     1
102
RTVSPost2010Prop50
 90
       50
102
RTVSPost2010PropOp50
 70
     1
102
RTVSPost2010Prop51ColorIndex
 90
      256
102
RTVSPost2010Prop51ColorRGB
 90
-16777216
102
RTVSPost2010PropOp51
 70
     0
102
RTVSPost2010Prop52
140
1.0
102
RTVSPost2010PropOp52
 70
     0
102
RTVSPost2010Prop53
 90
        2
102
RTVSPost2010PropOp53
 70
     1
102
RTVSPost2010Prop54
  1
strokes_ogs.tif
102
RTVSPost2010PropOp54
 70
     1
102
RTVSPost2010Prop55
280
     0
102
RTVSPost2010PropOp55
 70
     1
102
RTVSPost2010Prop56
140
1.0
102
RTVSPost2010PropOp56
 70
     1
102
RTVSPost2010Prop57
140
1.0
102
RTVSPost2010PropOp57
 70
     1
102
RTVSPropertyOp0
 70
     1
102
RTVSPropertyOp1
 70
     1
102
RTVSPropertyOp2
 70
     1
102
RTVSPropertyOp3
 70
     1
102
RTVSPropertyOp4
 70
     1
102
RTVSPropertyOp5
 70
     1
102
RTVSPropertyOp6
 70
     1
102
RTVSPropertyOp7
 70
     1
102
RTVSPropertyOp8
 70
     1
102
RTVSPropertyOp9
 70
     1
102
RTVSPropertyOp10
 70
     1
102
RTVSPropertyOp11
 70
     1
102
RTVSPropertyOp12
 70
     1
102
RTVSPropertyOp13
 70
     1
102
RTVSPropertyOp14
 70
     1
102
RTVSPropertyOp15
 70
     1
102
RTVSPropertyOp16
 70
     1
102
RTVSPropertyOp17
 70
     1
102
RTVSPropertyOp18
 70
     1
102
RTVSPropertyOp19
 70
     1
102
RTVSPropertyOp20
 70
     1
102
RTVSPropertyOp21
 70
     1
102
RTVSPropertyOp22
 70
     1
102
RTVSPropertyOp23
 70
     1
102
RTVSPropertyOp24
 70
     1
102
RTVSPropertyOp25
 70
     1
102
RTVSPropertyOp26
 70
     1
102
RTVSPropertyOp27
 70
     1
102
RTVSPropertyOp28
 70
     1
102
RTVSPropertyOp29
 70
     1
102
RTVSPropertyOp30
 70
     1
102
RTVSPropertyOp31
 70
     1
102
RTVSPropertyOp32
 70
     1
102
RTVSPropertyOp33
 70
     1
102
RTVSPropertyOp34
 70
     1
102
RTVSPropertyOp35
 70
     1
102
RTVSPropertyOp36
 70
     1
102
RTVSPropertyOp37
 70
     1
102
RTVSPropertyOp38
 70
     1
102
RTVSPropertyOp39
 70
     1
102
RTVSPropertyOp40
 70
     1
102
RTVSPropertyOp41
 70
     1
102
RTVSPropertyOp42
 70
     1
102
RTVSPropertyOp43
 70
     1
102
RTVSPropertyOp44
 70
     1
102
RTVSPropertyOp45
 70
     1
102
RTVSPropertyOp46
 70
     1
102
RTVSPropertyOp47
 70
     1
102
RTVSPropertyOp48
 70
     1
102
RTVSPropertyOp49
 70
     1
102
RTVSPropertyOp50
 70
     1
102
RTVSPropertyOp51
 70
     0
102
RTVSPropertyOp52
 70
     0
102
RTVSPropertyOp53
 70
     1
102
RTVSPropertyOp54
 70
     1
102
RTVSPropertyOp55
 70
     1
102
RTVSPropertyOp56
 70
     1
102
RTVSPropertyOp57
 70
     1
102
RTVSPropertyOp58
 70
     1
102
RTVSPropertyOp59
 70
     1
102
RTVSPropertyOp60
 70
     1
102
RTVSPropertyOp61
 70
     1
102
RTVSPropertyOp62
 70
     1
  0
XRECORD
  5
1ECE
102
{ACAD_REACTORS
330
1ECD
102
}
330
1ECD
100
AcDbXrecord
280
     1
102
RTVSPost2010Prop28
280
     0
102
RTVSPost2010PropOp28
 70
     1
102
RTVSPost2010Prop29
280
     1
102
RTVSPost2010PropOp29
 70
     1
102
RTVSPost2010Prop30
280
     1
102
RTVSPost2010PropOp30
 70
     1
102
RTVSPost2010Prop31
280
     0
102
RTVSPost2010PropOp31
 70
     1
102
RTVSPost2010Prop32
280
     0
102
RTVSPost2010PropOp32
 70
     1
102
RTVSPost2010Prop33
280
     0
102
RTVSPost2010PropOp33
 70
     1
102
RTVSPost2010Prop34
280
     0
102
RTVSPost2010PropOp34
 70
     1
102
RTVSPost2010Prop35
280
     0
102
RTVSPost2010PropOp35
 70
     1
102
RTVSPost2010Prop36
280
     0
102
RTVSPost2010PropOp36
 70
     1
102
RTVSPost2010Prop37
 90
       50
102
RTVSPost2010PropOp37
 70
     1
102
RTVSPost2010Prop38
140
0.0
102
RTVSPost2010PropOp38
 70
     1
102
RTVSPost2010Prop39
140
1.0
102
RTVSPost2010PropOp39
 70
     1
102
RTVSPost2010Prop40
 90
        0
102
RTVSPost2010PropOp40
 70
     1
102
RTVSPost2010Prop41ColorIndex
 90
       18
102
RTVSPost2010Prop41ColorRGB
 90
        0
102
RTVSPost2010PropOp41
 70
     1
102
RTVSPost2010Prop42
 90
       50
102
RTVSPost2010PropOp42
 70
     1
102
RTVSPost2010Prop43
 90
        3
102
RTVSPost2010PropOp43
 70
     1
102
RTVSPost2010Prop44ColorIndex
 90
        5
102
RTVSPost2010Prop44ColorRGB
 90
      255
102
RTVSPost2010PropOp44
 70
     1
102
RTVSPost2010Prop45
280
     0
102
RTVSPost2010PropOp45
 70
     1
102
RTVSPost2010Prop46
 90
       50
102
RTVSPost2010PropOp46
 70
     1
102
RTVSPost2010Prop47
 90
       50
102
RTVSPost2010PropOp47
 70
     1
102
RTVSPost2010Prop48
 90
       50
102
RTVSPost2010PropOp48
 70
     1
102
RTVSPost2010Prop49
280
     0
102
RTVSPost2010PropOp49
 70
     1
102
RTVSPost2010Prop50
 90
       50
102
RTVSPost2010PropOp50
 70
     1
102
RTVSPost2010Prop51ColorIndex
 90
      256
102
RTVSPost2010Prop51ColorRGB
 90
-16777216
102
RTVSPost2010PropOp51
 70
     0
102
RTVSPost2010Prop52
140
1.0
102
RTVSPost2010PropOp52
 70
     0
102
RTVSPost2010Prop53
 90
        2
102
RTVSPost2010PropOp53
 70
     1
102
RTVSPost2010Prop54
  1
strokes_ogs.tif
102
RTVSPost2010PropOp54
 70
     1
102
RTVSPost2010Prop55
280
     0
102
RTVSPost2010PropOp55
 70
     1
102
RTVSPost2010Prop56
140
1.0
102
RTVSPost2010PropOp56
 70
     1
102
RTVSPost2010Prop57
140
1.0
102
RTVSPost2010PropOp57
 70
     1
102
RTVSPropertyOp0
 70
     0
102
RTVSPropertyOp1
 70
     0
102
RTVSPropertyOp2
 70
     0
102
RTVSPropertyOp3
 70
     0
102
RTVSPropertyOp4
 70
     0
102
RTVSPropertyOp5
 70
     0
102
RTVSPropertyOp6
 70
     0
102
RTVSPropertyOp7
 70
     0
102
RTVSPropertyOp8
 70
     0
102
RTVSPropertyOp9
 70
     0
102
RTVSPropertyOp10
 70
     0
102
RTVSPropertyOp11
 70
     0
102
RTVSPropertyOp12
 70
     0
102
RTVSPropertyOp13
 70
     0
102
RTVSPropertyOp14
 70
     2
102
RTVSPropertyOp15
 70
     0
102
RTVSPropertyOp16
 70
     0
102
RTVSPropertyOp17
 70
     0
102
RTVSPropertyOp18
 70
     0
102
RTVSPropertyOp19
 70
     0
102
RTVSPropertyOp20
 70
     0
102
RTVSPropertyOp21
 70
     0
102
RTVSPropertyOp22
 70
     0
102
RTVSPropertyOp23
 70
     0
102
RTVSPropertyOp24
 70
     0
102
RTVSPropertyOp25
 70
     0
102
RTVSPropertyOp26
 70
     0
102
RTVSPropertyOp27
 70
     0
102
RTVSPropertyOp28
 70
     1
102
RTVSPropertyOp29
 70
     1
102
RTVSPropertyOp30
 70
     1
102
RTVSPropertyOp31
 70
     1
102
RTVSPropertyOp32
 70
     1
102
RTVSPropertyOp33
 70
     1
102
RTVSPropertyOp34
 70
     1
102
RTVSPropertyOp35
 70
     1
102
RTVSPropertyOp36
 70
     1
102
RTVSPropertyOp37
 70
     1
102
RTVSPropertyOp38
 70
     1
102
RTVSPropertyOp39
 70
     1
102
RTVSPropertyOp40
 70
     1
102
RTVSPropertyOp41
 70
     1
102
RTVSPropertyOp42
 70
     1
102
RTVSPropertyOp43
 70
     1
102
RTVSPropertyOp44
 70
     1
102
RTVSPropertyOp45
 70
     1
102
RTVSPropertyOp46
 70
     1
102
RTVSPropertyOp47
 70
     1
102
RTVSPropertyOp48
 70
     1
102
RTVSPropertyOp49
 70
     1
102
RTVSPropertyOp50
 70
     1
102
RTVSPropertyOp51
 70
     0
102
RTVSPropertyOp52
 70
     0
102
RTVSPropertyOp53
 70
     1
102
RTVSPropertyOp54
 70
     1
102
RTVSPropertyOp55
 70
     1
102
RTVSPropertyOp56
 70
     1
102
RTVSPropertyOp57
 70
     1
102
RTVSPropertyOp58
 70
     1
102
RTVSPropertyOp59
 70
     1
102
RTVSPropertyOp60
 70
     1
102
RTVSPropertyOp61
 70
     1
102
RTVSPropertyOp62
 70
     1
  0
XRECORD
  5
1EB4
102
{ACAD_REACTORS
330
1EB3
102
}
330
1EB3
100
AcDbXrecord
280
     1
102
RTVSPost2010Prop28
280
     0
102
RTVSPost2010PropOp28
 70
     1
102
RTVSPost2010Prop29
280
     1
102
RTVSPost2010PropOp29
 70
     1
102
RTVSPost2010Prop30
280
     1
102
RTVSPost2010PropOp30
 70
     1
102
RTVSPost2010Prop31
280
     0
102
RTVSPost2010PropOp31
 70
     1
102
RTVSPost2010Prop32
280
     0
102
RTVSPost2010PropOp32
 70
     1
102
RTVSPost2010Prop33
280
     0
102
RTVSPost2010PropOp33
 70
     1
102
RTVSPost2010Prop34
280
     0
102
RTVSPost2010PropOp34
 70
     1
102
RTVSPost2010Prop35
280
     0
102
RTVSPost2010PropOp35
 70
     1
102
RTVSPost2010Prop36
280
     0
102
RTVSPost2010PropOp36
 70
     1
102
RTVSPost2010Prop37
 90
       50
102
RTVSPost2010PropOp37
 70
     1
102
RTVSPost2010Prop38
140
0.0
102
RTVSPost2010PropOp38
 70
     1
102
RTVSPost2010Prop39
140
1.0
102
RTVSPost2010PropOp39
 70
     1
102
RTVSPost2010Prop40
 90
        0
102
RTVSPost2010PropOp40
 70
     1
102
RTVSPost2010Prop41ColorIndex
 90
       18
102
RTVSPost2010Prop41ColorRGB
 90
        0
102
RTVSPost2010PropOp41
 70
     1
102
RTVSPost2010Prop42
 90
       50
102
RTVSPost2010PropOp42
 70
     1
102
RTVSPost2010Prop43
 90
        3
102
RTVSPost2010PropOp43
 70
     1
102
RTVSPost2010Prop44ColorIndex
 90
        5
102
RTVSPost2010Prop44ColorRGB
 90
      255
102
RTVSPost2010PropOp44
 70
     1
102
RTVSPost2010Prop45
280
     0
102
RTVSPost2010PropOp45
 70
     1
102
RTVSPost2010Prop46
 90
       50
102
RTVSPost2010PropOp46
 70
     1
102
RTVSPost2010Prop47
 90
       50
102
RTVSPost2010PropOp47
 70
     1
102
RTVSPost2010Prop48
 90
       50
102
RTVSPost2010PropOp48
 70
     1
102
RTVSPost2010Prop49
280
     0
102
RTVSPost2010PropOp49
 70
     1
102
RTVSPost2010Prop50
 90
       50
102
RTVSPost2010PropOp50
 70
     1
102
RTVSPost2010Prop51ColorIndex
 90
      256
102
RTVSPost2010Prop51ColorRGB
 90
-16777216
102
RTVSPost2010PropOp51
 70
     0
102
RTVSPost2010Prop52
140
1.0
102
RTVSPost2010PropOp52
 70
     0
102
RTVSPost2010Prop53
 90
        2
102
RTVSPost2010PropOp53
 70
     1
102
RTVSPost2010Prop54
  1
strokes_ogs.tif
102
RTVSPost2010PropOp54
 70
     1
102
RTVSPost2010Prop55
280
     0
102
RTVSPost2010PropOp55
 70
     1
102
RTVSPost2010Prop56
140
1.0
102
RTVSPost2010PropOp56
 70
     1
102
RTVSPost2010Prop57
140
1.0
102
RTVSPost2010PropOp57
 70
     1
102
RTVSPropertyOp0
 70
     1
102
RTVSPropertyOp1
 70
     1
102
RTVSPropertyOp2
 70
     1
102
RTVSPropertyOp3
 70
     1
102
RTVSPropertyOp4
 70
     1
102
RTVSPropertyOp5
 70
     1
102
RTVSPropertyOp6
 70
     1
102
RTVSPropertyOp7
 70
     1
102
RTVSPropertyOp8
 70
     1
102
RTVSPropertyOp9
 70
     1
102
RTVSPropertyOp10
 70
     1
102
RTVSPropertyOp11
 70
     1
102
RTVSPropertyOp12
 70
     1
102
RTVSPropertyOp13
 70
     1
102
RTVSPropertyOp14
 70
     1
102
RTVSPropertyOp15
 70
     1
102
RTVSPropertyOp16
 70
     1
102
RTVSPropertyOp17
 70
     1
102
RTVSPropertyOp18
 70
     1
102
RTVSPropertyOp19
 70
     1
102
RTVSPropertyOp20
 70
     1
102
RTVSPropertyOp21
 70
     1
102
RTVSPropertyOp22
 70
     1
102
RTVSPropertyOp23
 70
     1
102
RTVSPropertyOp24
 70
     1
102
RTVSPropertyOp25
 70
     1
102
RTVSPropertyOp26
 70
     1
102
RTVSPropertyOp27
 70
     1
102
RTVSPropertyOp28
 70
     1
102
RTVSPropertyOp29
 70
     1
102
RTVSPropertyOp30
 70
     1
102
RTVSPropertyOp31
 70
     1
102
RTVSPropertyOp32
 70
     1
102
RTVSPropertyOp33
 70
     1
102
RTVSPropertyOp34
 70
     1
102
RTVSPropertyOp35
 70
     1
102
RTVSPropertyOp36
 70
     1
102
RTVSPropertyOp37
 70
     1
102
RTVSPropertyOp38
 70
     1
102
RTVSPropertyOp39
 70
     1
102
RTVSPropertyOp40
 70
     1
102
RTVSPropertyOp41
 70
     1
102
RTVSPropertyOp42
 70
     1
102
RTVSPropertyOp43
 70
     1
102
RTVSPropertyOp44
 70
     1
102
RTVSPropertyOp45
 70
     1
102
RTVSPropertyOp46
 70
     1
102
RTVSPropertyOp47
 70
     1
102
RTVSPropertyOp48
 70
     1
102
RTVSPropertyOp49
 70
     1
102
RTVSPropertyOp50
 70
     1
102
RTVSPropertyOp51
 70
     0
102
RTVSPropertyOp52
 70
     0
102
RTVSPropertyOp53
 70
     1
102
RTVSPropertyOp54
 70
     1
102
RTVSPropertyOp55
 70
     1
102
RTVSPropertyOp56
 70
     1
102
RTVSPropertyOp57
 70
     1
102
RTVSPropertyOp58
 70
     1
102
RTVSPropertyOp59
 70
     1
102
RTVSPropertyOp60
 70
     1
102
RTVSPropertyOp61
 70
     1
102
RTVSPropertyOp62
 70
     1
  0
XRECORD
  5
1EDE
102
{ACAD_REACTORS
330
1EDD
102
}
330
1EDD
100
AcDbXrecord
280
     1
102
RTVSPost2010Prop28
280
     0
102
RTVSPost2010PropOp28
 70
     1
102
RTVSPost2010Prop29
280
     1
102
RTVSPost2010PropOp29
 70
     1
102
RTVSPost2010Prop30
280
     1
102
RTVSPost2010PropOp30
 70
     1
102
RTVSPost2010Prop31
280
     0
102
RTVSPost2010PropOp31
 70
     1
102
RTVSPost2010Prop32
280
     0
102
RTVSPost2010PropOp32
 70
     1
102
RTVSPost2010Prop33
280
     0
102
RTVSPost2010PropOp33
 70
     1
102
RTVSPost2010Prop34
280
     0
102
RTVSPost2010PropOp34
 70
     1
102
RTVSPost2010Prop35
280
     0
102
RTVSPost2010PropOp35
 70
     1
102
RTVSPost2010Prop36
280
     0
102
RTVSPost2010PropOp36
 70
     1
102
RTVSPost2010Prop37
 90
       50
102
RTVSPost2010PropOp37
 70
     1
102
RTVSPost2010Prop38
140
0.0
102
RTVSPost2010PropOp38
 70
     1
102
RTVSPost2010Prop39
140
1.0
102
RTVSPost2010PropOp39
 70
     1
102
RTVSPost2010Prop40
 90
        0
102
RTVSPost2010PropOp40
 70
     1
102
RTVSPost2010Prop41ColorIndex
 90
       18
102
RTVSPost2010Prop41ColorRGB
 90
        0
102
RTVSPost2010PropOp41
 70
     1
102
RTVSPost2010Prop42
 90
       50
102
RTVSPost2010PropOp42
 70
     1
102
RTVSPost2010Prop43
 90
        3
102
RTVSPost2010PropOp43
 70
     1
102
RTVSPost2010Prop44ColorIndex
 90
        5
102
RTVSPost2010Prop44ColorRGB
 90
      255
102
RTVSPost2010PropOp44
 70
     1
102
RTVSPost2010Prop45
280
     0
102
RTVSPost2010PropOp45
 70
     1
102
RTVSPost2010Prop46
 90
       50
102
RTVSPost2010PropOp46
 70
     1
102
RTVSPost2010Prop47
 90
       50
102
RTVSPost2010PropOp47
 70
     1
102
RTVSPost2010Prop48
 90
       50
102
RTVSPost2010PropOp48
 70
     1
102
RTVSPost2010Prop49
280
     0
102
RTVSPost2010PropOp49
 70
     1
102
RTVSPost2010Prop50
 90
       50
102
RTVSPost2010PropOp50
 70
     1
102
RTVSPost2010Prop51ColorIndex
 90
      256
102
RTVSPost2010Prop51ColorRGB
 90
-16777216
102
RTVSPost2010PropOp51
 70
     0
102
RTVSPost2010Prop52
140
1.0
102
RTVSPost2010PropOp52
 70
     0
102
RTVSPost2010Prop53
 90
        2
102
RTVSPost2010PropOp53
 70
     1
102
RTVSPost2010Prop54
  1
strokes_ogs.tif
102
RTVSPost2010PropOp54
 70
     1
102
RTVSPost2010Prop55
280
     0
102
RTVSPost2010PropOp55
 70
     1
102
RTVSPost2010Prop56
140
1.0
102
RTVSPost2010PropOp56
 70
     1
102
RTVSPost2010Prop57
140
1.0
102
RTVSPost2010PropOp57
 70
     1
102
RTVSPropertyOp0
 70
     1
102
RTVSPropertyOp1
 70
     1
102
RTVSPropertyOp2
 70
     1
102
RTVSPropertyOp3
 70
     1
102
RTVSPropertyOp4
 70
     1
102
RTVSPropertyOp5
 70
     1
102
RTVSPropertyOp6
 70
     1
102
RTVSPropertyOp7
 70
     1
102
RTVSPropertyOp8
 70
     1
102
RTVSPropertyOp9
 70
     1
102
RTVSPropertyOp10
 70
     1
102
RTVSPropertyOp11
 70
     1
102
RTVSPropertyOp12
 70
     1
102
RTVSPropertyOp13
 70
     1
102
RTVSPropertyOp14
 70
     1
102
RTVSPropertyOp15
 70
     1
102
RTVSPropertyOp16
 70
     1
102
RTVSPropertyOp17
 70
     1
102
RTVSPropertyOp18
 70
     1
102
RTVSPropertyOp19
 70
     1
102
RTVSPropertyOp20
 70
     1
102
RTVSPropertyOp21
 70
     1
102
RTVSPropertyOp22
 70
     1
102
RTVSPropertyOp23
 70
     1
102
RTVSPropertyOp24
 70
     1
102
RTVSPropertyOp25
 70
     1
102
RTVSPropertyOp26
 70
     1
102
RTVSPropertyOp27
 70
     1
102
RTVSPropertyOp28
 70
     1
102
RTVSPropertyOp29
 70
     1
102
RTVSPropertyOp30
 70
     1
102
RTVSPropertyOp31
 70
     1
102
RTVSPropertyOp32
 70
     1
102
RTVSPropertyOp33
 70
     1
102
RTVSPropertyOp34
 70
     1
102
RTVSPropertyOp35
 70
     1
102
RTVSPropertyOp36
 70
     1
102
RTVSPropertyOp37
 70
     1
102
RTVSPropertyOp38
 70
     1
102
RTVSPropertyOp39
 70
     1
102
RTVSPropertyOp40
 70
     1
102
RTVSPropertyOp41
 70
     1
102
RTVSPropertyOp42
 70
     1
102
RTVSPropertyOp43
 70
     1
102
RTVSPropertyOp44
 70
     1
102
RTVSPropertyOp45
 70
     1
102
RTVSPropertyOp46
 70
     1
102
RTVSPropertyOp47
 70
     1
102
RTVSPropertyOp48
 70
     1
102
RTVSPropertyOp49
 70
     1
102
RTVSPropertyOp50
 70
     1
102
RTVSPropertyOp51
 70
     0
102
RTVSPropertyOp52
 70
     0
102
RTVSPropertyOp53
 70
     1
102
RTVSPropertyOp54
 70
     1
102
RTVSPropertyOp55
 70
     1
102
RTVSPropertyOp56
 70
     1
102
RTVSPropertyOp57
 70
     1
102
RTVSPropertyOp58
 70
     1
102
RTVSPropertyOp59
 70
     1
102
RTVSPropertyOp60
 70
     1
102
RTVSPropertyOp61
 70
     1
102
RTVSPropertyOp62
 70
     1
  0
XRECORD
  5
1EDC
102
{ACAD_REACTORS
330
1EDB
102
}
330
1EDB
100
AcDbXrecord
280
     1
102
RTVSPost2010Prop28
280
     0
102
RTVSPost2010PropOp28
 70
     1
102
RTVSPost2010Prop29
280
     1
102
RTVSPost2010PropOp29
 70
     1
102
RTVSPost2010Prop30
280
     1
102
RTVSPost2010PropOp30
 70
     1
102
RTVSPost2010Prop31
280
     0
102
RTVSPost2010PropOp31
 70
     1
102
RTVSPost2010Prop32
280
     0
102
RTVSPost2010PropOp32
 70
     1
102
RTVSPost2010Prop33
280
     0
102
RTVSPost2010PropOp33
 70
     1
102
RTVSPost2010Prop34
280
     0
102
RTVSPost2010PropOp34
 70
     1
102
RTVSPost2010Prop35
280
     0
102
RTVSPost2010PropOp35
 70
     1
102
RTVSPost2010Prop36
280
     0
102
RTVSPost2010PropOp36
 70
     1
102
RTVSPost2010Prop37
 90
       50
102
RTVSPost2010PropOp37
 70
     1
102
RTVSPost2010Prop38
140
0.0
102
RTVSPost2010PropOp38
 70
     1
102
RTVSPost2010Prop39
140
1.0
102
RTVSPost2010PropOp39
 70
     1
102
RTVSPost2010Prop40
 90
        0
102
RTVSPost2010PropOp40
 70
     1
102
RTVSPost2010Prop41ColorIndex
 90
       18
102
RTVSPost2010Prop41ColorRGB
 90
        0
102
RTVSPost2010PropOp41
 70
     1
102
RTVSPost2010Prop42
 90
       50
102
RTVSPost2010PropOp42
 70
     1
102
RTVSPost2010Prop43
 90
        3
102
RTVSPost2010PropOp43
 70
     1
102
RTVSPost2010Prop44ColorIndex
 90
        5
102
RTVSPost2010Prop44ColorRGB
 90
      255
102
RTVSPost2010PropOp44
 70
     1
102
RTVSPost2010Prop45
280
     0
102
RTVSPost2010PropOp45
 70
     1
102
RTVSPost2010Prop46
 90
       50
102
RTVSPost2010PropOp46
 70
     1
102
RTVSPost2010Prop47
 90
       50
102
RTVSPost2010PropOp47
 70
     1
102
RTVSPost2010Prop48
 90
       50
102
RTVSPost2010PropOp48
 70
     1
102
RTVSPost2010Prop49
280
     0
102
RTVSPost2010PropOp49
 70
     1
102
RTVSPost2010Prop50
 90
       50
102
RTVSPost2010PropOp50
 70
     1
102
RTVSPost2010Prop51ColorIndex
 90
      256
102
RTVSPost2010Prop51ColorRGB
 90
-16777216
102
RTVSPost2010PropOp51
 70
     0
102
RTVSPost2010Prop52
140
1.0
102
RTVSPost2010PropOp52
 70
     0
102
RTVSPost2010Prop53
 90
        2
102
RTVSPost2010PropOp53
 70
     1
102
RTVSPost2010Prop54
  1
strokes_ogs.tif
102
RTVSPost2010PropOp54
 70
     1
102
RTVSPost2010Prop55
280
     0
102
RTVSPost2010PropOp55
 70
     1
102
RTVSPost2010Prop56
140
1.0
102
RTVSPost2010PropOp56
 70
     1
102
RTVSPost2010Prop57
140
1.0
102
RTVSPost2010PropOp57
 70
     1
102
RTVSPropertyOp0
 70
     1
102
RTVSPropertyOp1
 70
     1
102
RTVSPropertyOp2
 70
     1
102
RTVSPropertyOp3
 70
     1
102
RTVSPropertyOp4
 70
     1
102
RTVSPropertyOp5
 70
     1
102
RTVSPropertyOp6
 70
     1
102
RTVSPropertyOp7
 70
     1
102
RTVSPropertyOp8
 70
     1
102
RTVSPropertyOp9
 70
     1
102
RTVSPropertyOp10
 70
     1
102
RTVSPropertyOp11
 70
     1
102
RTVSPropertyOp12
 70
     1
102
RTVSPropertyOp13
 70
     1
102
RTVSPropertyOp14
 70
     1
102
RTVSPropertyOp15
 70
     1
102
RTVSPropertyOp16
 70
     1
102
RTVSPropertyOp17
 70
     1
102
RTVSPropertyOp18
 70
     1
102
RTVSPropertyOp19
 70
     1
102
RTVSPropertyOp20
 70
     1
102
RTVSPropertyOp21
 70
     1
102
RTVSPropertyOp22
 70
     1
102
RTVSPropertyOp23
 70
     1
102
RTVSPropertyOp24
 70
     1
102
RTVSPropertyOp25
 70
     1
102
RTVSPropertyOp26
 70
     1
102
RTVSPropertyOp27
 70
     1
102
RTVSPropertyOp28
 70
     1
102
RTVSPropertyOp29
 70
     1
102
RTVSPropertyOp30
 70
     1
102
RTVSPropertyOp31
 70
     1
102
RTVSPropertyOp32
 70
     1
102
RTVSPropertyOp33
 70
     1
102
RTVSPropertyOp34
 70
     1
102
RTVSPropertyOp35
 70
     1
102
RTVSPropertyOp36
 70
     1
102
RTVSPropertyOp37
 70
     1
102
RTVSPropertyOp38
 70
     1
102
RTVSPropertyOp39
 70
     1
102
RTVSPropertyOp40
 70
     1
102
RTVSPropertyOp41
 70
     1
102
RTVSPropertyOp42
 70
     1
102
RTVSPropertyOp43
 70
     1
102
RTVSPropertyOp44
 70
     1
102
RTVSPropertyOp45
 70
     1
102
RTVSPropertyOp46
 70
     1
102
RTVSPropertyOp47
 70
     1
102
RTVSPropertyOp48
 70
     1
102
RTVSPropertyOp49
 70
     1
102
RTVSPropertyOp50
 70
     1
102
RTVSPropertyOp51
 70
     0
102
RTVSPropertyOp52
 70
     0
102
RTVSPropertyOp53
 70
     1
102
RTVSPropertyOp54
 70
     1
102
RTVSPropertyOp55
 70
     1
102
RTVSPropertyOp56
 70
     1
102
RTVSPropertyOp57
 70
     1
102
RTVSPropertyOp58
 70
     1
102
RTVSPropertyOp59
 70
     1
102
RTVSPropertyOp60
 70
     1
102
RTVSPropertyOp61
 70
     1
102
RTVSPropertyOp62
 70
     1
  0
XRECORD
  5
1ED6
102
{ACAD_REACTORS
330
1ED5
102
}
330
1ED5
100
AcDbXrecord
280
     1
102
RTVSPost2010Prop28
280
     0
102
RTVSPost2010PropOp28
 70
     1
102
RTVSPost2010Prop29
280
     1
102
RTVSPost2010PropOp29
 70
     1
102
RTVSPost2010Prop30
280
     1
102
RTVSPost2010PropOp30
 70
     1
102
RTVSPost2010Prop31
280
     0
102
RTVSPost2010PropOp31
 70
     1
102
RTVSPost2010Prop32
280
     0
102
RTVSPost2010PropOp32
 70
     1
102
RTVSPost2010Prop33
280
     0
102
RTVSPost2010PropOp33
 70
     1
102
RTVSPost2010Prop34
280
     0
102
RTVSPost2010PropOp34
 70
     1
102
RTVSPost2010Prop35
280
     0
102
RTVSPost2010PropOp35
 70
     1
102
RTVSPost2010Prop36
280
     0
102
RTVSPost2010PropOp36
 70
     1
102
RTVSPost2010Prop37
 90
       50
102
RTVSPost2010PropOp37
 70
     1
102
RTVSPost2010Prop38
140
0.0
102
RTVSPost2010PropOp38
 70
     1
102
RTVSPost2010Prop39
140
1.0
102
RTVSPost2010PropOp39
 70
     1
102
RTVSPost2010Prop40
 90
        0
102
RTVSPost2010PropOp40
 70
     1
102
RTVSPost2010Prop41ColorIndex
 90
       18
102
RTVSPost2010Prop41ColorRGB
 90
        0
102
RTVSPost2010PropOp41
 70
     1
102
RTVSPost2010Prop42
 90
       50
102
RTVSPost2010PropOp42
 70
     1
102
RTVSPost2010Prop43
 90
        3
102
RTVSPost2010PropOp43
 70
     1
102
RTVSPost2010Prop44ColorIndex
 90
        5
102
RTVSPost2010Prop44ColorRGB
 90
      255
102
RTVSPost2010PropOp44
 70
     1
102
RTVSPost2010Prop45
280
     0
102
RTVSPost2010PropOp45
 70
     1
102
RTVSPost2010Prop46
 90
       50
102
RTVSPost2010PropOp46
 70
     1
102
RTVSPost2010Prop47
 90
       50
102
RTVSPost2010PropOp47
 70
     1
102
RTVSPost2010Prop48
 90
       50
102
RTVSPost2010PropOp48
 70
     1
102
RTVSPost2010Prop49
280
     0
102
RTVSPost2010PropOp49
 70
     1
102
RTVSPost2010Prop50
 90
       50
102
RTVSPost2010PropOp50
 70
     1
102
RTVSPost2010Prop51ColorIndex
 90
      256
102
RTVSPost2010Prop51ColorRGB
 90
-16777216
102
RTVSPost2010PropOp51
 70
     0
102
RTVSPost2010Prop52
140
1.0
102
RTVSPost2010PropOp52
 70
     0
102
RTVSPost2010Prop53
 90
        2
102
RTVSPost2010PropOp53
 70
     1
102
RTVSPost2010Prop54
  1
strokes_ogs.tif
102
RTVSPost2010PropOp54
 70
     1
102
RTVSPost2010Prop55
280
     0
102
RTVSPost2010PropOp55
 70
     1
102
RTVSPost2010Prop56
140
1.0
102
RTVSPost2010PropOp56
 70
     1
102
RTVSPost2010Prop57
140
1.0
102
RTVSPost2010PropOp57
 70
     1
102
RTVSPropertyOp0
 70
     1
102
RTVSPropertyOp1
 70
     1
102
RTVSPropertyOp2
 70
     1
102
RTVSPropertyOp3
 70
     1
102
RTVSPropertyOp4
 70
     1
102
RTVSPropertyOp5
 70
     1
102
RTVSPropertyOp6
 70
     1
102
RTVSPropertyOp7
 70
     1
102
RTVSPropertyOp8
 70
     1
102
RTVSPropertyOp9
 70
     1
102
RTVSPropertyOp10
 70
     1
102
RTVSPropertyOp11
 70
     1
102
RTVSPropertyOp12
 70
     1
102
RTVSPropertyOp13
 70
     1
102
RTVSPropertyOp14
 70
     1
102
RTVSPropertyOp15
 70
     1
102
RTVSPropertyOp16
 70
     1
102
RTVSPropertyOp17
 70
     1
102
RTVSPropertyOp18
 70
     1
102
RTVSPropertyOp19
 70
     1
102
RTVSPropertyOp20
 70
     1
102
RTVSPropertyOp21
 70
     1
102
RTVSPropertyOp22
 70
     1
102
RTVSPropertyOp23
 70
     1
102
RTVSPropertyOp24
 70
     1
102
RTVSPropertyOp25
 70
     1
102
RTVSPropertyOp26
 70
     1
102
RTVSPropertyOp27
 70
     1
102
RTVSPropertyOp28
 70
     1
102
RTVSPropertyOp29
 70
     1
102
RTVSPropertyOp30
 70
     1
102
RTVSPropertyOp31
 70
     1
102
RTVSPropertyOp32
 70
     1
102
RTVSPropertyOp33
 70
     1
102
RTVSPropertyOp34
 70
     1
102
RTVSPropertyOp35
 70
     1
102
RTVSPropertyOp36
 70
     1
102
RTVSPropertyOp37
 70
     1
102
RTVSPropertyOp38
 70
     1
102
RTVSPropertyOp39
 70
     1
102
RTVSPropertyOp40
 70
     1
102
RTVSPropertyOp41
 70
     1
102
RTVSPropertyOp42
 70
     1
102
RTVSPropertyOp43
 70
     1
102
RTVSPropertyOp44
 70
     1
102
RTVSPropertyOp45
 70
     1
102
RTVSPropertyOp46
 70
     1
102
RTVSPropertyOp47
 70
     1
102
RTVSPropertyOp48
 70
     1
102
RTVSPropertyOp49
 70
     1
102
RTVSPropertyOp50
 70
     1
102
RTVSPropertyOp51
 70
     0
102
RTVSPropertyOp52
 70
     0
102
RTVSPropertyOp53
 70
     1
102
RTVSPropertyOp54
 70
     1
102
RTVSPropertyOp55
 70
     1
102
RTVSPropertyOp56
 70
     1
102
RTVSPropertyOp57
 70
     1
102
RTVSPropertyOp58
 70
     1
102
RTVSPropertyOp59
 70
     1
102
RTVSPropertyOp60
 70
     1
102
RTVSPropertyOp61
 70
     1
102
RTVSPropertyOp62
 70
     1
  0
XRECORD
  5
1ED8
102
{ACAD_REACTORS
330
1ED7
102
}
330
1ED7
100
AcDbXrecord
280
     1
102
RTVSPost2010Prop28
280
     0
102
RTVSPost2010PropOp28
 70
     1
102
RTVSPost2010Prop29
280
     1
102
RTVSPost2010PropOp29
 70
     1
102
RTVSPost2010Prop30
280
     1
102
RTVSPost2010PropOp30
 70
     1
102
RTVSPost2010Prop31
280
     0
102
RTVSPost2010PropOp31
 70
     1
102
RTVSPost2010Prop32
280
     0
102
RTVSPost2010PropOp32
 70
     1
102
RTVSPost2010Prop33
280
     0
102
RTVSPost2010PropOp33
 70
     1
102
RTVSPost2010Prop34
280
     0
102
RTVSPost2010PropOp34
 70
     1
102
RTVSPost2010Prop35
280
     0
102
RTVSPost2010PropOp35
 70
     1
102
RTVSPost2010Prop36
280
     0
102
RTVSPost2010PropOp36
 70
     1
102
RTVSPost2010Prop37
 90
       50
102
RTVSPost2010PropOp37
 70
     1
102
RTVSPost2010Prop38
140
0.0
102
RTVSPost2010PropOp38
 70
     1
102
RTVSPost2010Prop39
140
1.0
102
RTVSPost2010PropOp39
 70
     1
102
RTVSPost2010Prop40
 90
        0
102
RTVSPost2010PropOp40
 70
     1
102
RTVSPost2010Prop41ColorIndex
 90
       18
102
RTVSPost2010Prop41ColorRGB
 90
        0
102
RTVSPost2010PropOp41
 70
     1
102
RTVSPost2010Prop42
 90
       50
102
RTVSPost2010PropOp42
 70
     1
102
RTVSPost2010Prop43
 90
        3
102
RTVSPost2010PropOp43
 70
     1
102
RTVSPost2010Prop44ColorIndex
 90
        5
102
RTVSPost2010Prop44ColorRGB
 90
      255
102
RTVSPost2010PropOp44
 70
     1
102
RTVSPost2010Prop45
280
     0
102
RTVSPost2010PropOp45
 70
     1
102
RTVSPost2010Prop46
 90
       50
102
RTVSPost2010PropOp46
 70
     1
102
RTVSPost2010Prop47
 90
       50
102
RTVSPost2010PropOp47
 70
     1
102
RTVSPost2010Prop48
 90
       50
102
RTVSPost2010PropOp48
 70
     1
102
RTVSPost2010Prop49
280
     0
102
RTVSPost2010PropOp49
 70
     1
102
RTVSPost2010Prop50
 90
       50
102
RTVSPost2010PropOp50
 70
     1
102
RTVSPost2010Prop51ColorIndex
 90
      256
102
RTVSPost2010Prop51ColorRGB
 90
-16777216
102
RTVSPost2010PropOp51
 70
     0
102
RTVSPost2010Prop52
140
1.0
102
RTVSPost2010PropOp52
 70
     0
102
RTVSPost2010Prop53
 90
        2
102
RTVSPost2010PropOp53
 70
     1
102
RTVSPost2010Prop54
  1
strokes_ogs.tif
102
RTVSPost2010PropOp54
 70
     1
102
RTVSPost2010Prop55
280
     0
102
RTVSPost2010PropOp55
 70
     1
102
RTVSPost2010Prop56
140
1.0
102
RTVSPost2010PropOp56
 70
     1
102
RTVSPost2010Prop57
140
1.0
102
RTVSPost2010PropOp57
 70
     1
102
RTVSPropertyOp0
 70
     1
102
RTVSPropertyOp1
 70
     1
102
RTVSPropertyOp2
 70
     1
102
RTVSPropertyOp3
 70
     1
102
RTVSPropertyOp4
 70
     1
102
RTVSPropertyOp5
 70
     1
102
RTVSPropertyOp6
 70
     1
102
RTVSPropertyOp7
 70
     1
102
RTVSPropertyOp8
 70
     1
102
RTVSPropertyOp9
 70
     1
102
RTVSPropertyOp10
 70
     1
102
RTVSPropertyOp11
 70
     1
102
RTVSPropertyOp12
 70
     1
102
RTVSPropertyOp13
 70
     1
102
RTVSPropertyOp14
 70
     1
102
RTVSPropertyOp15
 70
     1
102
RTVSPropertyOp16
 70
     1
102
RTVSPropertyOp17
 70
     1
102
RTVSPropertyOp18
 70
     1
102
RTVSPropertyOp19
 70
     1
102
RTVSPropertyOp20
 70
     1
102
RTVSPropertyOp21
 70
     1
102
RTVSPropertyOp22
 70
     1
102
RTVSPropertyOp23
 70
     1
102
RTVSPropertyOp24
 70
     1
102
RTVSPropertyOp25
 70
     1
102
RTVSPropertyOp26
 70
     1
102
RTVSPropertyOp27
 70
     1
102
RTVSPropertyOp28
 70
     1
102
RTVSPropertyOp29
 70
     1
102
RTVSPropertyOp30
 70
     1
102
RTVSPropertyOp31
 70
     1
102
RTVSPropertyOp32
 70
     1
102
RTVSPropertyOp33
 70
     1
102
RTVSPropertyOp34
 70
     1
102
RTVSPropertyOp35
 70
     1
102
RTVSPropertyOp36
 70
     1
102
RTVSPropertyOp37
 70
     1
102
RTVSPropertyOp38
 70
     1
102
RTVSPropertyOp39
 70
     1
102
RTVSPropertyOp40
 70
     1
102
RTVSPropertyOp41
 70
     1
102
RTVSPropertyOp42
 70
     1
102
RTVSPropertyOp43
 70
     1
102
RTVSPropertyOp44
 70
     1
102
RTVSPropertyOp45
 70
     1
102
RTVSPropertyOp46
 70
     1
102
RTVSPropertyOp47
 70
     1
102
RTVSPropertyOp48
 70
     1
102
RTVSPropertyOp49
 70
     1
102
RTVSPropertyOp50
 70
     1
102
RTVSPropertyOp51
 70
     0
102
RTVSPropertyOp52
 70
     0
102
RTVSPropertyOp53
 70
     1
102
RTVSPropertyOp54
 70
     1
102
RTVSPropertyOp55
 70
     1
102
RTVSPropertyOp56
 70
     1
102
RTVSPropertyOp57
 70
     1
102
RTVSPropertyOp58
 70
     1
102
RTVSPropertyOp59
 70
     1
102
RTVSPropertyOp60
 70
     1
102
RTVSPropertyOp61
 70
     1
102
RTVSPropertyOp62
 70
     1
  0
XRECORD
  5
1EBA
102
{ACAD_REACTORS
330
1EB9
102
}
330
1EB9
100
AcDbXrecord
280
     1
102
RTVSPost2010Prop28
280
     0
102
RTVSPost2010PropOp28
 70
     1
102
RTVSPost2010Prop29
280
     1
102
RTVSPost2010PropOp29
 70
     1
102
RTVSPost2010Prop30
280
     1
102
RTVSPost2010PropOp30
 70
     1
102
RTVSPost2010Prop31
280
     0
102
RTVSPost2010PropOp31
 70
     1
102
RTVSPost2010Prop32
280
     0
102
RTVSPost2010PropOp32
 70
     1
102
RTVSPost2010Prop33
280
     0
102
RTVSPost2010PropOp33
 70
     1
102
RTVSPost2010Prop34
280
     0
102
RTVSPost2010PropOp34
 70
     1
102
RTVSPost2010Prop35
280
     0
102
RTVSPost2010PropOp35
 70
     1
102
RTVSPost2010Prop36
280
     0
102
RTVSPost2010PropOp36
 70
     1
102
RTVSPost2010Prop37
 90
       50
102
RTVSPost2010PropOp37
 70
     1
102
RTVSPost2010Prop38
140
0.0
102
RTVSPost2010PropOp38
 70
     1
102
RTVSPost2010Prop39
140
1.0
102
RTVSPost2010PropOp39
 70
     1
102
RTVSPost2010Prop40
 90
        0
102
RTVSPost2010PropOp40
 70
     1
102
RTVSPost2010Prop41ColorIndex
 90
       18
102
RTVSPost2010Prop41ColorRGB
 90
        0
102
RTVSPost2010PropOp41
 70
     1
102
RTVSPost2010Prop42
 90
       50
102
RTVSPost2010PropOp42
 70
     1
102
RTVSPost2010Prop43
 90
        3
102
RTVSPost2010PropOp43
 70
     1
102
RTVSPost2010Prop44ColorIndex
 90
        5
102
RTVSPost2010Prop44ColorRGB
 90
      255
102
RTVSPost2010PropOp44
 70
     1
102
RTVSPost2010Prop45
280
     0
102
RTVSPost2010PropOp45
 70
     1
102
RTVSPost2010Prop46
 90
       50
102
RTVSPost2010PropOp46
 70
     1
102
RTVSPost2010Prop47
 90
       50
102
RTVSPost2010PropOp47
 70
     1
102
RTVSPost2010Prop48
 90
       50
102
RTVSPost2010PropOp48
 70
     1
102
RTVSPost2010Prop49
280
     0
102
RTVSPost2010PropOp49
 70
     1
102
RTVSPost2010Prop50
 90
       50
102
RTVSPost2010PropOp50
 70
     1
102
RTVSPost2010Prop51ColorIndex
 90
      256
102
RTVSPost2010Prop51ColorRGB
 90
-16777216
102
RTVSPost2010PropOp51
 70
     0
102
RTVSPost2010Prop52
140
1.0
102
RTVSPost2010PropOp52
 70
     0
102
RTVSPost2010Prop53
 90
        2
102
RTVSPost2010PropOp53
 70
     1
102
RTVSPost2010Prop54
  1
strokes_ogs.tif
102
RTVSPost2010PropOp54
 70
     1
102
RTVSPost2010Prop55
280
     0
102
RTVSPost2010PropOp55
 70
     1
102
RTVSPost2010Prop56
140
1.0
102
RTVSPost2010PropOp56
 70
     1
102
RTVSPost2010Prop57
140
1.0
102
RTVSPost2010PropOp57
 70
     1
102
RTVSPropertyOp0
 70
     1
102
RTVSPropertyOp1
 70
     1
102
RTVSPropertyOp2
 70
     1
102
RTVSPropertyOp3
 70
     1
102
RTVSPropertyOp4
 70
     1
102
RTVSPropertyOp5
 70
     1
102
RTVSPropertyOp6
 70
     1
102
RTVSPropertyOp7
 70
     1
102
RTVSPropertyOp8
 70
     1
102
RTVSPropertyOp9
 70
     1
102
RTVSPropertyOp10
 70
     1
102
RTVSPropertyOp11
 70
     1
102
RTVSPropertyOp12
 70
     1
102
RTVSPropertyOp13
 70
     1
102
RTVSPropertyOp14
 70
     1
102
RTVSPropertyOp15
 70
     1
102
RTVSPropertyOp16
 70
     1
102
RTVSPropertyOp17
 70
     1
102
RTVSPropertyOp18
 70
     1
102
RTVSPropertyOp19
 70
     1
102
RTVSPropertyOp20
 70
     1
102
RTVSPropertyOp21
 70
     1
102
RTVSPropertyOp22
 70
     1
102
RTVSPropertyOp23
 70
     1
102
RTVSPropertyOp24
 70
     1
102
RTVSPropertyOp25
 70
     1
102
RTVSPropertyOp26
 70
     1
102
RTVSPropertyOp27
 70
     1
102
RTVSPropertyOp28
 70
     1
102
RTVSPropertyOp29
 70
     1
102
RTVSPropertyOp30
 70
     1
102
RTVSPropertyOp31
 70
     1
102
RTVSPropertyOp32
 70
     1
102
RTVSPropertyOp33
 70
     1
102
RTVSPropertyOp34
 70
     1
102
RTVSPropertyOp35
 70
     1
102
RTVSPropertyOp36
 70
     1
102
RTVSPropertyOp37
 70
     1
102
RTVSPropertyOp38
 70
     1
102
RTVSPropertyOp39
 70
     1
102
RTVSPropertyOp40
 70
     1
102
RTVSPropertyOp41
 70
     1
102
RTVSPropertyOp42
 70
     1
102
RTVSPropertyOp43
 70
     1
102
RTVSPropertyOp44
 70
     1
102
RTVSPropertyOp45
 70
     1
102
RTVSPropertyOp46
 70
     1
102
RTVSPropertyOp47
 70
     1
102
RTVSPropertyOp48
 70
     1
102
RTVSPropertyOp49
 70
     1
102
RTVSPropertyOp50
 70
     1
102
RTVSPropertyOp51
 70
     0
102
RTVSPropertyOp52
 70
     0
102
RTVSPropertyOp53
 70
     1
102
RTVSPropertyOp54
 70
     1
102
RTVSPropertyOp55
 70
     1
102
RTVSPropertyOp56
 70
     1
102
RTVSPropertyOp57
 70
     1
102
RTVSPropertyOp58
 70
     1
102
RTVSPropertyOp59
 70
     1
102
RTVSPropertyOp60
 70
     1
102
RTVSPropertyOp61
 70
     1
102
RTVSPropertyOp62
 70
     1
  0
XRECORD
  5
1ED2
102
{ACAD_REACTORS
330
1ED1
102
}
330
1ED1
100
AcDbXrecord
280
     1
102
RTVSPost2010Prop28
280
     0
102
RTVSPost2010PropOp28
 70
     1
102
RTVSPost2010Prop29
280
     1
102
RTVSPost2010PropOp29
 70
     1
102
RTVSPost2010Prop30
280
     1
102
RTVSPost2010PropOp30
 70
     1
102
RTVSPost2010Prop31
280
     0
102
RTVSPost2010PropOp31
 70
     1
102
RTVSPost2010Prop32
280
     0
102
RTVSPost2010PropOp32
 70
     1
102
RTVSPost2010Prop33
280
     0
102
RTVSPost2010PropOp33
 70
     1
102
RTVSPost2010Prop34
280
     0
102
RTVSPost2010PropOp34
 70
     1
102
RTVSPost2010Prop35
280
     0
102
RTVSPost2010PropOp35
 70
     1
102
RTVSPost2010Prop36
280
     0
102
RTVSPost2010PropOp36
 70
     1
102
RTVSPost2010Prop37
 90
       50
102
RTVSPost2010PropOp37
 70
     1
102
RTVSPost2010Prop38
140
0.0
102
RTVSPost2010PropOp38
 70
     1
102
RTVSPost2010Prop39
140
1.0
102
RTVSPost2010PropOp39
 70
     1
102
RTVSPost2010Prop40
 90
        0
102
RTVSPost2010PropOp40
 70
     1
102
RTVSPost2010Prop41ColorIndex
 90
       18
102
RTVSPost2010Prop41ColorRGB
 90
        0
102
RTVSPost2010PropOp41
 70
     1
102
RTVSPost2010Prop42
 90
       50
102
RTVSPost2010PropOp42
 70
     1
102
RTVSPost2010Prop43
 90
        3
102
RTVSPost2010PropOp43
 70
     1
102
RTVSPost2010Prop44ColorIndex
 90
        5
102
RTVSPost2010Prop44ColorRGB
 90
      255
102
RTVSPost2010PropOp44
 70
     1
102
RTVSPost2010Prop45
280
     0
102
RTVSPost2010PropOp45
 70
     1
102
RTVSPost2010Prop46
 90
       50
102
RTVSPost2010PropOp46
 70
     1
102
RTVSPost2010Prop47
 90
       50
102
RTVSPost2010PropOp47
 70
     1
102
RTVSPost2010Prop48
 90
       50
102
RTVSPost2010PropOp48
 70
     1
102
RTVSPost2010Prop49
280
     0
102
RTVSPost2010PropOp49
 70
     1
102
RTVSPost2010Prop50
 90
       50
102
RTVSPost2010PropOp50
 70
     1
102
RTVSPost2010Prop51ColorIndex
 90
      256
102
RTVSPost2010Prop51ColorRGB
 90
-16777216
102
RTVSPost2010PropOp51
 70
     0
102
RTVSPost2010Prop52
140
1.0
102
RTVSPost2010PropOp52
 70
     0
102
RTVSPost2010Prop53
 90
        2
102
RTVSPost2010PropOp53
 70
     1
102
RTVSPost2010Prop54
  1
strokes_ogs.tif
102
RTVSPost2010PropOp54
 70
     1
102
RTVSPost2010Prop55
280
     0
102
RTVSPost2010PropOp55
 70
     1
102
RTVSPost2010Prop56
140
1.0
102
RTVSPost2010PropOp56
 70
     1
102
RTVSPost2010Prop57
140
1.0
102
RTVSPost2010PropOp57
 70
     1
102
RTVSPropertyOp0
 70
     1
102
RTVSPropertyOp1
 70
     1
102
RTVSPropertyOp2
 70
     1
102
RTVSPropertyOp3
 70
     1
102
RTVSPropertyOp4
 70
     1
102
RTVSPropertyOp5
 70
     1
102
RTVSPropertyOp6
 70
     1
102
RTVSPropertyOp7
 70
     1
102
RTVSPropertyOp8
 70
     1
102
RTVSPropertyOp9
 70
     1
102
RTVSPropertyOp10
 70
     1
102
RTVSPropertyOp11
 70
     1
102
RTVSPropertyOp12
 70
     1
102
RTVSPropertyOp13
 70
     1
102
RTVSPropertyOp14
 70
     1
102
RTVSPropertyOp15
 70
     1
102
RTVSPropertyOp16
 70
     1
102
RTVSPropertyOp17
 70
     1
102
RTVSPropertyOp18
 70
     1
102
RTVSPropertyOp19
 70
     1
102
RTVSPropertyOp20
 70
     1
102
RTVSPropertyOp21
 70
     1
102
RTVSPropertyOp22
 70
     1
102
RTVSPropertyOp23
 70
     1
102
RTVSPropertyOp24
 70
     1
102
RTVSPropertyOp25
 70
     1
102
RTVSPropertyOp26
 70
     1
102
RTVSPropertyOp27
 70
     1
102
RTVSPropertyOp28
 70
     1
102
RTVSPropertyOp29
 70
     1
102
RTVSPropertyOp30
 70
     1
102
RTVSPropertyOp31
 70
     1
102
RTVSPropertyOp32
 70
     1
102
RTVSPropertyOp33
 70
     1
102
RTVSPropertyOp34
 70
     1
102
RTVSPropertyOp35
 70
     1
102
RTVSPropertyOp36
 70
     1
102
RTVSPropertyOp37
 70
     1
102
RTVSPropertyOp38
 70
     1
102
RTVSPropertyOp39
 70
     1
102
RTVSPropertyOp40
 70
     1
102
RTVSPropertyOp41
 70
     1
102
RTVSPropertyOp42
 70
     1
102
RTVSPropertyOp43
 70
     1
102
RTVSPropertyOp44
 70
     1
102
RTVSPropertyOp45
 70
     1
102
RTVSPropertyOp46
 70
     1
102
RTVSPropertyOp47
 70
     1
102
RTVSPropertyOp48
 70
     1
102
RTVSPropertyOp49
 70
     1
102
RTVSPropertyOp50
 70
     1
102
RTVSPropertyOp51
 70
     0
102
RTVSPropertyOp52
 70
     0
102
RTVSPropertyOp53
 70
     1
102
RTVSPropertyOp54
 70
     1
102
RTVSPropertyOp55
 70
     1
102
RTVSPropertyOp56
 70
     1
102
RTVSPropertyOp57
 70
     1
102
RTVSPropertyOp58
 70
     1
102
RTVSPropertyOp59
 70
     1
102
RTVSPropertyOp60
 70
     1
102
RTVSPropertyOp61
 70
     1
102
RTVSPropertyOp62
 70
     1
  0
XRECORD
  5
1EDA
102
{ACAD_REACTORS
330
1ED9
102
}
330
1ED9
100
AcDbXrecord
280
     1
102
RTVSPost2010Prop28
280
     0
102
RTVSPost2010PropOp28
 70
     1
102
RTVSPost2010Prop29
280
     1
102
RTVSPost2010PropOp29
 70
     1
102
RTVSPost2010Prop30
280
     1
102
RTVSPost2010PropOp30
 70
     1
102
RTVSPost2010Prop31
280
     0
102
RTVSPost2010PropOp31
 70
     1
102
RTVSPost2010Prop32
280
     0
102
RTVSPost2010PropOp32
 70
     1
102
RTVSPost2010Prop33
280
     0
102
RTVSPost2010PropOp33
 70
     1
102
RTVSPost2010Prop34
280
     0
102
RTVSPost2010PropOp34
 70
     1
102
RTVSPost2010Prop35
280
     0
102
RTVSPost2010PropOp35
 70
     1
102
RTVSPost2010Prop36
280
     0
102
RTVSPost2010PropOp36
 70
     1
102
RTVSPost2010Prop37
 90
       50
102
RTVSPost2010PropOp37
 70
     1
102
RTVSPost2010Prop38
140
0.0
102
RTVSPost2010PropOp38
 70
     1
102
RTVSPost2010Prop39
140
1.0
102
RTVSPost2010PropOp39
 70
     1
102
RTVSPost2010Prop40
 90
        0
102
RTVSPost2010PropOp40
 70
     1
102
RTVSPost2010Prop41ColorIndex
 90
       18
102
RTVSPost2010Prop41ColorRGB
 90
        0
102
RTVSPost2010PropOp41
 70
     1
102
RTVSPost2010Prop42
 90
       50
102
RTVSPost2010PropOp42
 70
     1
102
RTVSPost2010Prop43
 90
        3
102
RTVSPost2010PropOp43
 70
     1
102
RTVSPost2010Prop44ColorIndex
 90
        5
102
RTVSPost2010Prop44ColorRGB
 90
      255
102
RTVSPost2010PropOp44
 70
     1
102
RTVSPost2010Prop45
280
     0
102
RTVSPost2010PropOp45
 70
     1
102
RTVSPost2010Prop46
 90
       50
102
RTVSPost2010PropOp46
 70
     1
102
RTVSPost2010Prop47
 90
       50
102
RTVSPost2010PropOp47
 70
     1
102
RTVSPost2010Prop48
 90
       50
102
RTVSPost2010PropOp48
 70
     1
102
RTVSPost2010Prop49
280
     0
102
RTVSPost2010PropOp49
 70
     1
102
RTVSPost2010Prop50
 90
       50
102
RTVSPost2010PropOp50
 70
     1
102
RTVSPost2010Prop51ColorIndex
 90
      256
102
RTVSPost2010Prop51ColorRGB
 90
-16777216
102
RTVSPost2010PropOp51
 70
     0
102
RTVSPost2010Prop52
140
1.0
102
RTVSPost2010PropOp52
 70
     0
102
RTVSPost2010Prop53
 90
        2
102
RTVSPost2010PropOp53
 70
     1
102
RTVSPost2010Prop54
  1
strokes_ogs.tif
102
RTVSPost2010PropOp54
 70
     1
102
RTVSPost2010Prop55
280
     0
102
RTVSPost2010PropOp55
 70
     1
102
RTVSPost2010Prop56
140
1.0
102
RTVSPost2010PropOp56
 70
     1
102
RTVSPost2010Prop57
140
1.0
102
RTVSPost2010PropOp57
 70
     1
102
RTVSPropertyOp0
 70
     1
102
RTVSPropertyOp1
 70
     1
102
RTVSPropertyOp2
 70
     1
102
RTVSPropertyOp3
 70
     1
102
RTVSPropertyOp4
 70
     1
102
RTVSPropertyOp5
 70
     1
102
RTVSPropertyOp6
 70
     1
102
RTVSPropertyOp7
 70
     1
102
RTVSPropertyOp8
 70
     1
102
RTVSPropertyOp9
 70
     1
102
RTVSPropertyOp10
 70
     1
102
RTVSPropertyOp11
 70
     1
102
RTVSPropertyOp12
 70
     1
102
RTVSPropertyOp13
 70
     1
102
RTVSPropertyOp14
 70
     1
102
RTVSPropertyOp15
 70
     1
102
RTVSPropertyOp16
 70
     1
102
RTVSPropertyOp17
 70
     1
102
RTVSPropertyOp18
 70
     1
102
RTVSPropertyOp19
 70
     1
102
RTVSPropertyOp20
 70
     1
102
RTVSPropertyOp21
 70
     1
102
RTVSPropertyOp22
 70
     1
102
RTVSPropertyOp23
 70
     1
102
RTVSPropertyOp24
 70
     1
102
RTVSPropertyOp25
 70
     1
102
RTVSPropertyOp26
 70
     1
102
RTVSPropertyOp27
 70
     1
102
RTVSPropertyOp28
 70
     1
102
RTVSPropertyOp29
 70
     1
102
RTVSPropertyOp30
 70
     1
102
RTVSPropertyOp31
 70
     1
102
RTVSPropertyOp32
 70
     1
102
RTVSPropertyOp33
 70
     1
102
RTVSPropertyOp34
 70
     1
102
RTVSPropertyOp35
 70
     1
102
RTVSPropertyOp36
 70
     1
102
RTVSPropertyOp37
 70
     1
102
RTVSPropertyOp38
 70
     1
102
RTVSPropertyOp39
 70
     1
102
RTVSPropertyOp40
 70
     1
102
RTVSPropertyOp41
 70
     1
102
RTVSPropertyOp42
 70
     1
102
RTVSPropertyOp43
 70
     1
102
RTVSPropertyOp44
 70
     1
102
RTVSPropertyOp45
 70
     1
102
RTVSPropertyOp46
 70
     1
102
RTVSPropertyOp47
 70
     1
102
RTVSPropertyOp48
 70
     1
102
RTVSPropertyOp49
 70
     1
102
RTVSPropertyOp50
 70
     1
102
RTVSPropertyOp51
 70
     0
102
RTVSPropertyOp52
 70
     0
102
RTVSPropertyOp53
 70
     1
102
RTVSPropertyOp54
 70
     1
102
RTVSPropertyOp55
 70
     1
102
RTVSPropertyOp56
 70
     1
102
RTVSPropertyOp57
 70
     1
102
RTVSPropertyOp58
 70
     1
102
RTVSPropertyOp59
 70
     1
102
RTVSPropertyOp60
 70
     1
102
RTVSPropertyOp61
 70
     1
102
RTVSPropertyOp62
 70
     1
  0
ENDSEC
  0
EOF
