  0
SECTION
  2
HEADER
  9
$ACADVER
  1
AC1015
  9
$ACADMAINTVER
 70
    20
  9
$DWGCODEPAGE
  3
ANSI_1252
  9
$INSBASE
 10
0.0
 20
0.0
 30
0.0
  9
$EXTMIN
 10
-32.4018537043617
 20
-40.6575000689568
 30
-0.0015258207003583
  9
$EXTMAX
 10
122.038605878407
 20
140.991516975909
 30
0.0000000349246037
  9
$LIMMIN
 10
-170.0
 20
-170.0
  9
$LIMMAX
 10
519.0
 20
260.0
  9
$ORTHOMODE
 70
     1
  9
$REGENMODE
 70
     1
  9
$FILLMODE
 70
     1
  9
$QTEXTMODE
 70
     0
  9
$MIRRTEXT
 70
     0
  9
$LTSCALE
 40
1.0
  9
$ATTMODE
 70
     1
  9
$TEXTSIZE
 40
5.0
  9
$TRACEWID
 40
1.0
  9
$TEXTSTYLE
  7
USER1
  9
$CLAYER
  8
0
  9
$CELTYPE
  6
BYLAYER
  9
$CECOLOR
 62
   256
  9
$CELTSCALE
 40
1.0
  9
$DISPSILH
 70
     0
  9
$DIMSCALE
 40
1.0
  9
$DIMASZ
 40
2.5
  9
$DIMEXO
 40
1.0
  9
$DIMDLI
 40
15.0
  9
$DIMRND
 40
0.0
  9
$DIMDLE
 40
0.0
  9
$DIMEXE
 40
2.0
  9
$DIMTP
 40
0.0
  9
$DIMTM
 40
0.000000001
  9
$DIMTXT
 40
3.5
  9
$DIMCEN
 40
0.09
  9
$DIMTSZ
 40
0.0
  9
$DIMTOL
 70
     0
  9
$DIMLIM
 70
     0
  9
$DIMTIH
 70
     0
  9
$DIMTOH
 70
     0
  9
$DIMSE1
 70
     0
  9
$DIMSE2
 70
     0
  9
$DIMTAD
 70
     1
  9
$DIMZIN
 70
     8
  9
$DIMBLK
  1

  9
$DIMASO
 70
     1
  9
$DIMSHO
 70
     1
  9
$DIMPOST
  1

  9
$DIMAPOST
  1

  9
$DIMALT
 70
     0
  9
$DIMALTD
 70
     3
  9
$DIMALTF
 40
0.0393701
  9
$DIMLFAC
 40
1.0
  9
$DIMTOFL
 70
     1
  9
$DIMTVP
 40
0.0
  9
$DIMTIX
 70
     0
  9
$DIMSOXD
 70
     0
  9
$DIMSAH
 70
     0
  9
$DIMBLK1
  1

  9
$DIMBLK2
  1

  9
$DIMSTYLE
  2
AM_DIN
  9
$DIMCLRD
 70
     0
  9
$DIMCLRE
 70
     0
  9
$DIMCLRT
 70
     0
  9
$DIMTFAC
 40
0.7071069999999999
  9
$DIMGAP
 40
1.0
  9
$DIMJUST
 70
     0
  9
$DIMSD1
 70
     0
  9
$DIMSD2
 70
     0
  9
$DIMTOLJ
 70
     1
  9
$DIMTZIN
 70
     8
  9
$DIMALTZ
 70
    11
  9
$DIMALTTZ
 70
     8
  9
$DIMUPT
 70
     0
  9
$DIMDEC
 70
     2
  9
$DIMTDEC
 70
     2
  9
$DIMALTU
 70
     3
  9
$DIMALTTD
 70
     3
  9
$DIMTXSTY
  7
STANDARD 3.5 mm
  9
$DIMAUNIT
 70
     0
  9
$DIMADEC
 70
     0
  9
$DIMALTRND
 40
0.0
  9
$DIMAZIN
 70
     2
  9
$DIMDSEP
 70
    46
  9
$DIMATFIT
 70
     3
  9
$DIMFRAC
 70
     0
  9
$DIMLDRBLK
  1

  9
$DIMLUNIT
 70
     2
  9
$DIMLWD
 70
    -1
  9
$DIMLWE
 70
    -1
  9
$DIMTMOVE
 70
     0
  9
$LUNITS
 70
     2
  9
$LUPREC
 70
     2
  9
$SKETCHINC
 40
1.0
  9
$FILLETRAD
 40
0.0
  9
$AUNITS
 70
     0
  9
$AUPREC
 70
     0
  9
$MENU
  1
c:\tdm21\cad\caduti13\tdm13
  9
$ELEVATION
 40
0.0
  9
$PELEVATION
 40
0.0
  9
$THICKNESS
 40
0.0
  9
$LIMCHECK
 70
     0
  9
$CHAMFERA
 40
0.0
  9
$CHAMFERB
 40
0.0
  9
$CHAMFERC
 40
0.0
  9
$CHAMFERD
 40
0.0
  9
$SKPOLY
 70
     0
  9
$TDCREATE
 40
2459759.416562500
  9
$TDUCREATE
 40
2459759.187395833
  9
$TDUPDATE
 40
2459759.692002315
  9
$TDUUPDATE
 40
2459759.462835648
  9
$TDINDWG
 40
0.0219504167
  9
$TDUSRTIMER
 40
0.0219504167
  9
$USRTIMER
 70
     1
  9
$ANGBASE
 50
0.0
  9
$ANGDIR
 70
     0
  9
$PDMODE
 70
     1
  9
$PDSIZE
 40
0.0
  9
$PLINEWID
 40
0.0
  9
$SPLFRAME
 70
     0
  9
$SPLINETYPE
 70
     6
  9
$SPLINESEGS
 70
     8
  9
$HANDSEED
  5
26C9
  9
$SURFTAB1
 70
     6
  9
$SURFTAB2
 70
     6
  9
$SURFTYPE
 70
     6
  9
$SURFU
 70
     6
  9
$SURFV
 70
     6
  9
$UCSBASE
  2

  9
$UCSNAME
  2

  9
$UCSORG
 10
0.0
 20
0.0
 30
0.0
  9
$UCSXDIR
 10
1.0
 20
0.0
 30
0.0
  9
$UCSYDIR
 10
0.0
 20
1.0
 30
0.0
  9
$UCSORTHOREF
  2

  9
$UCSORTHOVIEW
 70
     0
  9
$UCSORGTOP
 10
0.0
 20
0.0
 30
0.0
  9
$UCSORGBOTTOM
 10
0.0
 20
0.0
 30
0.0
  9
$UCSORGLEFT
 10
0.0
 20
0.0
 30
0.0
  9
$UCSORGRIGHT
 10
0.0
 20
0.0
 30
0.0
  9
$UCSORGFRONT
 10
0.0
 20
0.0
 30
0.0
  9
$UCSORGBACK
 10
0.0
 20
0.0
 30
0.0
  9
$PUCSBASE
  2

  9
$PUCSNAME
  2

  9
$PUCSORG
 10
0.0
 20
0.0
 30
0.0
  9
$PUCSXDIR
 10
1.0
 20
0.0
 30
0.0
  9
$PUCSYDIR
 10
0.0
 20
1.0
 30
0.0
  9
$PUCSORTHOREF
  2

  9
$PUCSORTHOVIEW
 70
     0
  9
$PUCSORGTOP
 10
0.0
 20
0.0
 30
0.0
  9
$PUCSORGBOTTOM
 10
0.0
 20
0.0
 30
0.0
  9
$PUCSORGLEFT
 10
0.0
 20
0.0
 30
0.0
  9
$PUCSORGRIGHT
 10
0.0
 20
0.0
 30
0.0
  9
$PUCSORGFRONT
 10
0.0
 20
0.0
 30
0.0
  9
$PUCSORGBACK
 10
0.0
 20
0.0
 30
0.0
  9
$USERI1
 70
     0
  9
$USERI2
 70
     0
  9
$USERI3
 70
     0
  9
$USERI4
 70
     0
  9
$USERI5
 70
     0
  9
$USERR1
 40
0.0
  9
$USERR2
 40
0.0
  9
$USERR3
 40
0.0
  9
$USERR4
 40
0.0
  9
$USERR5
 40
0.0
  9
$WORLDVIEW
 70
     1
  9
$SHADEDGE
 70
     3
  9
$SHADEDIF
 70
    70
  9
$TILEMODE
 70
     1
  9
$MAXACTVP
 70
    64
  9
$PINSBASE
 10
0.0
 20
0.0
 30
0.0
  9
$PLIMCHECK
 70
     0
  9
$PEXTMIN
 10
-0.0226558438690745
 20
-0.0160192835437556
 30
-0.000000000000013
  9
$PEXTMAX
 10
297.000001383183
 20
210.0000009780083
 30
0.0000000000000023
  9
$PLIMMIN
 10
0.0
 20
0.0
  9
$PLIMMAX
 10
297.0
 20
210.0
  9
$UNITMODE
 70
     0
  9
$VISRETAIN
 70
     0
  9
$PLINEGEN
 70
     0
  9
$PSLTSCALE
 70
     1
  9
$TREEDEPTH
 70
  3020
  9
$CMLSTYLE
  2
STANDARD
  9
$CMLJUST
 70
     0
  9
$CMLSCALE
 40
20.0
  9
$PROXYGRAPHICS
 70
     1
  9
$MEASUREMENT
 70
     1
  9
$CELWEIGHT
370
    -1
  9
$ENDCAPS
280
     0
  9
$JOINSTYLE
280
     0
  9
$LWDISPLAY
290
     0
  9
$INSUNITS
 70
     0
  9
$HYPERLINKBASE
  1
HTTP://WWW.SECOTOOLS.COM/
  9
$STYLESHEET
  1
MONOCHROME.CTB
  9
$XEDIT
290
     1
  9
$CEPSNTYPE
380
     0
  9
$PSTYLEMODE
290
     1
  9
$FINGERPRINTGUID
  2
{B734D01F-EF0C-2B42-B517-193DA160F1A4}
  9
$VERSIONGUID
  2
{0CAB354C-30B4-7146-98E3-85496CB98D97}
  9
$EXTNAMES
290
     1
  9
$PSVPSCALE
 40
0.0
  9
$OLESTARTUP
290
     0
  0
ENDSEC
  0
SECTION
  2
CLASSES
  0
CLASS
  1
ACDBDICTIONARYWDFLT
  2
AcDbDictionaryWithDefault
  3
ObjectDBX Classes
 90
        0
280
     0
281
     0
  0
CLASS
  1
ACDBPLACEHOLDER
  2
AcDbPlaceHolder
  3
ObjectDBX Classes
 90
        0
280
     0
281
     0
  0
CLASS
  1
LAYOUT
  2
AcDbLayout
  3
ObjectDBX Classes
 90
        0
280
     0
281
     0
  0
CLASS
  1
DICTIONARYVAR
  2
AcDbDictionaryVar
  3
ObjectDBX Classes
 90
        0
280
     0
281
     0
  0
CLASS
  1
TABLESTYLE
  2
AcDbTableStyle
  3
ObjectDBX Classes
 90
     4095
280
     0
281
     0
  0
CLASS
  1
MATERIAL
  2
AcDbMaterial
  3
ObjectDBX Classes
 90
     1153
280
     0
281
     0
  0
CLASS
  1
VISUALSTYLE
  2
AcDbVisualStyle
  3
ObjectDBX Classes
 90
     4095
280
     0
281
     0
  0
CLASS
  1
SCALE
  2
AcDbScale
  3
ObjectDBX Classes
 90
     1153
280
     0
281
     0
  0
CLASS
  1
MLEADERSTYLE
  2
AcDbMLeaderStyle
  3
ACDB_MLEADERSTYLE_CLASS
 90
     4095
280
     0
281
     0
  0
CLASS
  1
ACME_DOCUMENT
  2
AcMeDbDoc
  3
AcMeServices
 90
     1024
280
     0
281
     0
  0
CLASS
  1
AMGSETTINGSOBJ
  2
AmgSettingsObj
  3
"AcadM|Product Description: AutoCAD Mechanical|Company: Autodesk, Inc."
 90
     1024
280
     0
281
     0
  0
CLASS
  1
ACMESCOPE
  2
AcMeScope
  3
AcMeServices
 90
     1024
280
     0
281
     0
  0
CLASS
  1
ACMECOMMANDHISTORY
  2
AcMeCommandHistory
  3
AcMeServices
 90
     1024
280
     0
281
     0
  0
CLASS
  1
ACIMSYSVARMAN
  2
AcImSysVarManager
  3
AcMeServices
 90
     1024
280
     0
281
     0
  0
CLASS
  1
ACIMINTSYSVAR
  2
AcImIntSysVar
  3
AcMeServices
 90
     1024
280
     0
281
     0
  0
CLASS
  1
ACMEDRAWINGMAN
  2
AcMeDrawingMan
  3
AcMeServices
 90
    33792
280
     0
281
     0
  0
CLASS
  1
ACMEVIEW
  2
AcMeView
  3
AcMeServices
 90
    33792
280
     0
281
     0
  0
CLASS
  1
ACDBENTITYCACHE
  2
AcMeEntityCache
  3
AcMeServices
 90
     1024
280
     0
281
     0
  0
CLASS
  1
GSMANAGER
  2
AcMeGSManager
  3
AcMeServices
 90
    33792
280
     0
281
     0
  0
CLASS
  1
AMDTINTERNALREACTOR
  2
AmdtInternalReactor
  3
AcMeServices
 90
    33792
280
     0
281
     0
  0
CLASS
  1
ACMESTATEMGR
  2
AcMeStateMgr
  3
AcMeServices
 90
     1024
280
     0
281
     0
  0
CLASS
  1
ACGREFMASTER
  2
AcGrefMaster
  3
AcAttribServices
 90
     1024
280
     0
281
     0
  0
CLASS
  1
AM_DRAWING_MGR
  2
AcDmDwgMgr
  3
AcMechDwgViewMgmt
 90
    33792
280
     0
281
     0
  0
CLASS
  1
AM_DWG_DOCUMENT
  2
AcDmDwgDocument
  3
AcMechDwgViewMgmt
 90
    33792
280
     0
281
     0
  0
CLASS
  1
AM_DWG_SHEET
  2
AcDmSheet
  3
AcMechDwgViewMgmt
 90
    33792
280
     0
281
     0
  0
CLASS
  1
AM_VIEWDIMPARMAP
  2
AcDmViewDimParMap
  3
AcMechDwgViewMgmt
 90
    33792
280
     0
281
     0
  0
CLASS
  1
ACIMREALSYSVAR
  2
AcImRealSysVar
  3
AcMeServices
 90
    33792
280
     0
281
     0
  0
CLASS
  1
AM_DWGMGR_NAME
  2
AcDmDwgMgrName
  3
AcMechDwgViewMgmt
 90
    33792
280
     0
281
     0
  0
CLASS
  1
ACME_DATABASE
  2
AcMeDbDatabase
  3
AcMeServices
 90
     1024
280
     0
281
     0
  0
CLASS
  1
ACRFINSADJUSTERMGR
  2
AcRfInsAdjusterMgr
  3
AcMeServices
 90
     1024
280
     0
281
     0
  0
CLASS
  1
ACGREFACADMASTER
  2
AcGrefacadMaster
  3
AcGrefServices
 90
     1024
280
     0
281
     0
  0
CLASS
  1
AMDTMENUSTATEMGR
  2
AmdtMenuStateMgr
  3
McadcomServices
 90
     1024
280
     0
281
     0
  0
CLASS
  1
AMDTMCOMMENUSTATE
  2
AmdtMcomMenuState
  3
McadcomServices
 90
     1024
280
     0
281
     0
  0
CLASS
  1
AMIMASTER
  2
AmiMaster
  3
AmiServices
 90
     1024
280
     0
281
     0
  0
CLASS
  1
MAPIAMMOUDLE
  2
MApiAmModule
  3
MApiAmServices
 90
     1024
280
     0
281
     0
  0
CLASS
  1
ACIMSTRSYSVAR
  2
AcImStrSysVar
  3
AcMeServices
 90
     1024
280
     0
281
     0
  0
CLASS
  1
AMDTADMENUSTATE
  2
AmdtAdMenuState
  3
DesignerServices
 90
    33792
280
     0
281
     0
  0
CLASS
  1
ADAPPL
  2
AcAdAppl
  3
DesignerAssemblies
 90
    33792
280
     0
281
     0
  0
CLASS
  1
DEPMGR
  2
AcAdDepMgr
  3
DesignerAssemblies
 90
    33792
280
     0
281
     0
  0
CLASS
  1
PARAMMGR
  2
AcAdParamMgr
  3
DesignerAssemblies
 90
    33792
280
     0
281
     0
  0
CLASS
  1
PARAMSCOPE
  2
AcAdParamScope
  3
DesignerAssemblies
 90
    33792
280
     0
281
     0
  0
CLASS
  1
NAMEDAPPL
  2
AcAdNamedAppl
  3
DesignerAssemblies
 90
    33792
280
     0
281
     0
  0
CLASS
  1
AMDTDMMENUSTATE
  2
AmdtDmMenuState
  3
AcMechDwgViewMgmt
 90
    33792
280
     0
281
     0
  0
CLASS
  1
AMDTAMMENUSTATE
  2
AmdtAmMenuState
  3
DesignerAssemblies_arx
 90
     1024
280
     0
281
     0
  0
CLASS
  1
ACAMPROJECT
  2
AcAmProject
  3
DesignerAssemblies
 90
     1024
280
     0
281
     0
  0
CLASS
  1
ACAMGRCOMPDEF
  2
AcAmGrCompDef
  3
DesignerAssemblies
 90
     1024
280
     0
281
     0
  0
CLASS
  1
ACCMCONTEXT
  2
AcCmContext
  3
DesignerAssemblies
 90
    33792
280
     0
281
     0
  0
CLASS
  1
ACAMCOMPDEF
  2
AcAmCompDef
  3
DesignerAssemblies
 90
     1024
280
     0
281
     0
  0
CLASS
  1
ACAMCOMPDEFMGR
  2
AcAmCompDefMgr
  3
DesignerAssemblies
 90
     1024
280
     0
281
     0
  0
CLASS
  1
AMCONTEXTMGR
  2
AcAmContextMgr
  3
DesignerAssemblies
 90
     1024
280
     0
281
     0
  0
CLASS
  1
ACAMCONTEXTMODELER
  2
AcAmContextModeler
  3
DesignerAssemblies
 90
     1024
280
     0
281
     0
  0
CLASS
  1
ACMDATADICTIONARY
  2
AcmDataDictionary
  3
"AcmSymBB|Product Description: AutoCAD Mechanical|Company: Autodesk, Inc."
 90
     1024
280
     0
281
     0
  0
CLASS
  1
CATALOGSTATE
  2
AcAmCatalogState
  3
DesignerAssemblies_arx
 90
    33792
280
     0
281
     0
  0
CLASS
  1
ACAMGRCOMPDEFSET
  2
AcAmGrCompDefSet
  3
DesignerAssemblies
 90
     1024
280
     0
281
     0
  0
CLASS
  1
AMDTBROWSERDBTAB
  2
AmdtBrowserDbTab
  3
McadcomServices
 90
     1024
280
     0
281
     0
  0
CLASS
  1
CBROWSERAPPOBJECT
  2
CBrowserAppObject
  3
McadcomServices
 90
     1024
280
     0
281
     0
  0
CLASS
  1
DM_PLACEHOLDER
  2
AcDmSelsetPlaceholder
  3
McadcomServices
 90
     1024
280
     0
281
     0
  0
CLASS
  1
ACMSTANDARDDIN
  2
AcmStandardDIN
  3
"Amdt_StdImp|Product Description: AutoCAD Mechanical|Company: Autodesk, Inc."
 90
    33792
280
     0
281
     0
  0
CLASS
  1
AMGOBJPROPCFG
  2
AmgObjPropCfg
  3
"AmgLay|Product Description: AutoCAD Mechanical|Company: Autodesk, Inc."
 90
     1024
280
     0
281
     0
  0
CLASS
  1
AMDTEDGESTANDARDDIN13715
  2
AmdtEdgeStdDIN13715
  3
"Amdt_StdImp|Product Description: AutoCAD Mechanical|Company: Autodesk, Inc."
 90
    33792
280
     0
281
     0
  0
CLASS
  1
ACMSURFSTANDARDDIN2002
  2
AcmSurfTextStdDIN2002
  3
"Amdt_StdImp|Product Description: AutoCAD Mechanical|Company: Autodesk, Inc."
 90
    33792
280
     0
281
     0
  0
CLASS
  1
ACMFCFSTANDARDDIN
  2
AcmFCFStdDIN
  3
"Amdt_StdImp|Product Description: AutoCAD Mechanical|Company: Autodesk, Inc."
 90
    33792
280
     0
281
     0
  0
CLASS
  1
ACMWELDSTANDARDDIN
  2
AcmWeldingStdDIN
  3
"Amdt_StdImp|Product Description: AutoCAD Mechanical|Company: Autodesk, Inc."
 90
    33792
280
     0
281
     0
  0
CLASS
  1
ACMIDSTANDARDDIN
  2
AcmIdStdDIN
  3
"Amdt_StdImp|Product Description: AutoCAD Mechanical|Company: Autodesk, Inc."
 90
    33792
280
     0
281
     0
  0
CLASS
  1
ACMDATUMSTANDARDDIN
  2
AcmDatumStdDIN
  3
"Amdt_StdImp|Product Description: AutoCAD Mechanical|Company: Autodesk, Inc."
 90
    33792
280
     0
281
     0
  0
CLASS
  1
ACMBOMSTANDARDDIN
  2
AcmBOMStdDIN
  3
"Amdt_StdImp|Product Description: AutoCAD Mechanical|Company: Autodesk, Inc."
 90
    33792
280
     0
281
     0
  0
CLASS
  1
ACMDETAILSTANDARDDIN
  2
AmdtDetailSymStdDIN
  3
"Amdt_StdImp|Product Description: AutoCAD Mechanical|Company: Autodesk, Inc."
 90
    33792
280
     0
281
     0
  0
CLASS
  1
ACMSECTIONSTANDARDDIN
  2
AmdtSectionSymStdDIN
  3
"Amdt_StdImp|Product Description: AutoCAD Mechanical|Company: Autodesk, Inc."
 90
    33792
280
     0
281
     0
  0
CLASS
  1
ACMCENTERLINESTANDARDDIN
  2
AmdtCenterLineStdDIN
  3
"Amdt_StdImp|Product Description: AutoCAD Mechanical|Company: Autodesk, Inc."
 90
    33792
280
     0
281
     0
  0
CLASS
  1
ACMTHREADLINESTANDARDDIN
  2
AmdtThreadLineStdDIN
  3
"Amdt_StdImp|Product Description: AutoCAD Mechanical|Company: Autodesk, Inc."
 90
    33792
280
     0
281
     0
  0
CLASS
  1
ACMNOTESTANDARDDIN
  2
AmdtNoteStdDIN
  3
"Amdt_StdImp|Product Description: AutoCAD Mechanical|Company: Autodesk, Inc."
 90
    33792
280
     0
281
     0
  0
CLASS
  1
ACMTAPERSTANDARDDIN
  2
AcmTaperStdDIN
  3
"Amdt_StdImp|Product Description: AutoCAD Mechanical|Company: Autodesk, Inc."
 90
    33792
280
     0
281
     0
  0
CLASS
  1
ACMANOOTATIONVIEWSTANDARDDIN
  2
AmdtAnViewStdDIN
  3
"Amdt_StdImp|Product Description: AutoCAD Mechanical|Company: Autodesk, Inc."
 90
    33792
280
     0
281
     0
  0
CLASS
  1
AMDTNOTETEMPLATEDB
  2
AmdtNoteTemplateDB
  3
"AcmSymBB" "Product Description: AutoCAD Mechanical|Company: Autodesk, Inc."
 90
     1024
280
     0
281
     0
  0
CLASS
  1
ACAMGLAYSTD
  2
AcAmgLayStd
  3
"AmgLay|Product Description: AutoCAD Mechanical|Company: Autodesk, Inc."
 90
     1024
280
     0
281
     0
  0
CLASS
  1
ACAMGDIMSTD
  2
AcAmgDimStd
  3
"AmgDim|Product Description: AutoCAD Mechanical|Company: Autodesk, Inc."
 90
     1024
280
     0
281
     0
  0
CLASS
  1
ACAMGHOLECHARTSTDDIN
  2
AcAmgHoleChartStdDIN
  3
"AmgDim" "Product Description: AutoCAD Mechanical|Company: Autodesk, Inc."
 90
    33792
280
     0
281
     0
  0
CLASS
  1
ACAMGTITLESTD
  2
AcAmgTitleStd
  3
"AmgTitle|Product Description: AutoCAD Mechanical|Company: Autodesk, Inc."
 90
     1024
280
     0
281
     0
  0
CLASS
  1
ACAMGFILTERDAT
  2
AcAmgFilterDat
  3
"AcadM|Product Description: AutoCAD Mechanical|Company: Autodesk, Inc."
 90
    33792
280
     0
281
     0
  0
CLASS
  1
CAMSSTRUCTBTNSTATE
  2
StructBtnState
  3
DesignerAssemblies_arx
 90
    33792
280
     0
281
     0
  0
CLASS
  1
CELLSTYLEMAP
  2
AcDbCellStyleMap
  3
ObjectDBX Classes
 90
     1152
280
     0
281
     0
  0
CLASS
  1
SORTENTSTABLE
  2
AcDbSortentsTable
  3
ObjectDBX Classes
 90
        0
280
     0
281
     0
  0
CLASS
  1
PLOTSETTINGS
  2
AcDbPlotSettings
  3
ObjectDBX Classes
 90
        0
280
     0
281
     0
  0
CLASS
  1
SOLID_BACKGROUND
  2
AcDbSolidBackground
  3
SCENEOE
 90
    36863
280
     0
281
     0
  0
CLASS
  1
NPOCOLLECTION
  2
AcDbImpNonPersistentObjectsCollection
  3
ObjectDBX Classes
 90
    33921
280
     0
281
     0
  0
CLASS
  1
ACDBSECTIONVIEWSTYLE
  2
AcDbSectionViewStyle
  3
ObjectDBX Classes
 90
     1025
280
     0
281
     0
  0
CLASS
  1
ACDBDETAILVIEWSTYLE
  2
AcDbDetailViewStyle
  3
ObjectDBX Classes
 90
     1025
280
     0
281
     0
  0
CLASS
  1
ACMSECTIONSTANDARDCUSTOM
  2
AmdtSectionSymStdCustom
  3
"Amdt_StdImp|Product Description: AutoCAD Mechanical|Company: Autodesk, Inc."
 90
     1024
280
     0
281
     0
  0
CLASS
  1
ACMDETAILTANDARDCUSTOM
  2
AmdtDetailSymStdCustom
  3
"Amdt_StdImp|Product Description: AutoCAD Mechanical|Company: Autodesk, Inc."
 90
     1024
280
     0
281
     0
  0
CLASS
  1
FIELD
  2
AcDbField
  3
ObjectDBX Classes
 90
     1152
280
     0
281
     0
  0
CLASS
  1
FIELDLIST
  2
AcDbFieldList
  3
ObjectDBX Classes
 90
     1152
280
     0
281
     0
  0
CLASS
  1
DIMASSOC
  2
AcDbDimAssoc
  3
"AcDbDimAssoc|Product Desc:     AcDim ARX App For Dimension|Company:          Autodesk, Inc.|WEB Address:      www.autodesk.com"
 90
        0
280
     0
281
     0
  0
CLASS
  1
ACMSTANDARDISO
  2
AcmStandardISO
  3
"Amdt_StdImp|Product Description: AutoCAD Mechanical|Company: Autodesk, Inc."
 90
     1024
280
     0
281
     0
  0
CLASS
  1
AMDTEDGESTANDARDISO13715
  2
AmdtEdgeStdISO13715
  3
"Amdt_StdImp|Product Description: AutoCAD Mechanical|Company: Autodesk, Inc."
 90
     1024
280
     0
281
     0
  0
CLASS
  1
ACMSURFSTANDARDISO2002
  2
AcmSurfTextStdISO2002
  3
"Amdt_StdImp|Product Description: AutoCAD Mechanical|Company: Autodesk, Inc."
 90
     1024
280
     0
281
     0
  0
CLASS
  1
ACMFCFSTANDARDISO2012
  2
AcmFCFStdISO2012
  3
"Amdt_StdImp|Product Description: AutoCAD Mechanical|Company: Autodesk, Inc."
 90
     1024
280
     0
281
     0
  0
CLASS
  1
ACMWELDSTANDARDISO
  2
AcmWeldingStdISO
  3
"Amdt_StdImp|Product Description: AutoCAD Mechanical|Company: Autodesk, Inc."
 90
     1024
280
     0
281
     0
  0
CLASS
  1
ACMIDSTANDARDISO2012
  2
AcmIdStdISO2012
  3
"Amdt_StdImp|Product Description: AutoCAD Mechanical|Company: Autodesk, Inc."
 90
     1024
280
     0
281
     0
  0
CLASS
  1
ACMDATUMSTANDARDISO2012
  2
AcmDatumStdISO2012
  3
"Amdt_StdImp|Product Description: AutoCAD Mechanical|Company: Autodesk, Inc."
 90
     1024
280
     0
281
     0
  0
CLASS
  1
ACMBOMSTANDARDISO
  2
AcmBOMStdISO
  3
"Amdt_StdImp|Product Description: AutoCAD Mechanical|Company: Autodesk, Inc."
 90
     1024
280
     0
281
     0
  0
CLASS
  1
ACMDETAILSTANDARDISO
  2
AmdtDetailSymStdISO
  3
"Amdt_StdImp|Product Description: AutoCAD Mechanical|Company: Autodesk, Inc."
 90
     1024
280
     0
281
     0
  0
CLASS
  1
ACMSECTIONSTANDARDISO2001
  2
AmdtSectionSymStdISO2001
  3
"Amdt_StdImp|Product Description: AutoCAD Mechanical|Company: Autodesk, Inc."
 90
     1024
280
     0
281
     0
  0
CLASS
  1
ACMCENTERLINESTANDARDISO
  2
AmdtCenterLineStdISO
  3
"Amdt_StdImp|Product Description: AutoCAD Mechanical|Company: Autodesk, Inc."
 90
     1024
280
     0
281
     0
  0
CLASS
  1
ACMTHREADLINESTANDARDISO
  2
AmdtThreadLineStdISO
  3
"Amdt_StdImp|Product Description: AutoCAD Mechanical|Company: Autodesk, Inc."
 90
     1024
280
     0
281
     0
  0
CLASS
  1
ACMNOTESTANDARDISO
  2
AmdtNoteStdISO
  3
"Amdt_StdImp|Product Description: AutoCAD Mechanical|Company: Autodesk, Inc."
 90
     1024
280
     0
281
     0
  0
CLASS
  1
ACMTAPERSTANDARDISO
  2
AcmTaperStdISO
  3
"Amdt_StdImp|Product Description: AutoCAD Mechanical|Company: Autodesk, Inc."
 90
     1024
280
     0
281
     0
  0
CLASS
  1
ACMANOOTATIONVIEWSTANDARDISO
  2
AmdtAnViewStdISO
  3
"Amdt_StdImp|Product Description: AutoCAD Mechanical|Company: Autodesk, Inc."
 90
     1024
280
     0
281
     0
  0
CLASS
  1
ACAMGHOLECHARTSTDISO
  2
AcAmgHoleChartStdISO
  3
"AmgDim" "Product Description: AutoCAD Mechanical|Company: Autodesk, Inc."
 90
     1024
280
     0
281
     0
  0
CLASS
  1
ACMFCFSTANDARDISO2004
  2
AcmFCFStdISO2004
  3
"Amdt_StdImp|Product Description: AutoCAD Mechanical|Company: Autodesk, Inc."
 90
    33792
280
     0
281
     0
  0
CLASS
  1
ACMIDSTANDARDISO2004
  2
AcmIdStdISO2004
  3
"Amdt_StdImp|Product Description: AutoCAD Mechanical|Company: Autodesk, Inc."
 90
    33792
280
     0
281
     0
  0
CLASS
  1
ACMDATUMSTANDARDISO
  2
AcmDatumStdISO
  3
"Amdt_StdImp|Product Description: AutoCAD Mechanical|Company: Autodesk, Inc."
 90
    33792
280
     0
281
     0
  0
ENDSEC
  0
SECTION
  2
TABLES
  0
TABLE
  2
VPORT
  5
8
102
{ACAD_XDICTIONARY
360
A45
102
}
330
0
100
AcDbSymbolTable
 70
     1
  0
VPORT
  5
AD1
330
8
100
AcDbSymbolTableRecord
100
AcDbViewportTableRecord
  2
*Active
 70
     0
 10
0.0
 20
0.0
 11
1.0
 21
1.0
 12
44.8183760870229
 22
50.1670084534761
 13
0.0
 23
0.0
 14
5.0
 24
5.0
 15
5.0
 25
5.0
 16
0.0
 26
0.0
 36
1.0
 17
0.0
 27
0.0
 37
0.0
 40
183.0887714732267
 41
2.525132275132275
 42
50.0
 43
0.0
 44
0.0
 50
0.0
 51
0.0
 71
     0
 72
  2000
 73
     1
 74
     3
 75
     0
 76
     0
 77
     0
 78
     0
281
     0
 65
     0
110
0.0
120
0.0
130
0.0
111
1.0
121
0.0
131
0.0
112
0.0
122
1.0
132
0.0
 79
     0
146
0.0
1001
ACAD_NAV_VCDISPLAY
1070
     3
  0
ENDTAB
  0
TABLE
  2
LTYPE
  5
5
330
0
100
AcDbSymbolTable
 70
    19
  0
LTYPE
  5
12
330
5
100
AcDbSymbolTableRecord
100
AcDbLinetypeTableRecord
  2
BYBLOCK
 70
     0
  3

 72
    65
 73
     0
 40
0.0
  0
LTYPE
  5
13
330
5
100
AcDbSymbolTableRecord
100
AcDbLinetypeTableRecord
  2
BYLAYER
 70
     0
  3

 72
    65
 73
     0
 40
0.0
  0
LTYPE
  5
1A82
330
5
100
AcDbSymbolTableRecord
100
AcDbLinetypeTableRecord
  2
Continuous
 70
     0
  3
Solid line
 72
    65
 73
     0
 40
0.0
  0
LTYPE
  5
4EF
330
5
100
AcDbSymbolTableRecord
100
AcDbLinetypeTableRecord
  2
ACDINWELD
 70
     0
  3
_ _ _ _ _
 72
    65
 73
     2
 40
2.0
 49
2.0
 74
     0
 49
-1.0
 74
     0
  0
LTYPE
  5
4F0
330
5
100
AcDbSymbolTableRecord
100
AcDbLinetypeTableRecord
  2
ACDINTGB
 70
     0
  3
__ . . __ . .
 72
    65
 73
     6
 40
9.0
 49
4.0
 74
     0
 49
-1.0
 74
     0
 49
1.0
 74
     0
 49
-1.0
 74
     0
 49
1.0
 74
     0
 49
-1.0
 74
     0
  0
LTYPE
  5
4F1
330
5
100
AcDbSymbolTableRecord
100
AcDbLinetypeTableRecord
  2
ACDINTGL
 70
     0
  3
_ _ _ _ _
 72
    65
 73
     2
 40
3.0
 49
2.0
 74
     0
 49
-1.0
 74
     0
  0
LTYPE
  5
916
330
5
100
AcDbSymbolTableRecord
100
AcDbLinetypeTableRecord
  2
LONGDASH_DASH
 70
     0
  3
ISO center line ____ _ ____ _ ____ _ ____ _ ___ _ ___
 72
    65
 73
     4
 40
10.5
 49
6.0
 74
     0
 49
-0.75
 74
     0
 49
3.0
 74
     0
 49
-0.75
 74
     0
  0
LTYPE
  5
917
330
5
100
AcDbSymbolTableRecord
100
AcDbLinetypeTableRecord
  2
DASH
 70
     0
  3
ISO hidden line __ __ __ __ __ __ __ __ __ __ __ __ __
 72
    65
 73
     2
 40
3.75
 49
3.0
 74
     0
 49
-0.75
 74
     0
  0
LTYPE
  5
CFA
330
5
100
AcDbSymbolTableRecord
100
AcDbLinetypeTableRecord
  2
HIDDEN
 70
     0
  3
Hidden __ __ __ __ __ __ __ __ __ __ __ __ __ _
 72
    65
 73
     2
 40
9.524999999999996
 49
6.349999999999997
 74
     0
 49
-3.174999999999998
 74
     0
  0
LTYPE
  5
CFB
330
5
100
AcDbSymbolTableRecord
100
AcDbLinetypeTableRecord
  2
PHANTOM2
 70
     0
  3
Phantom (.5x) ___ _ _ ___ _ _ ___ _ _ ___ _ _
 72
    65
 73
     6
 40
31.75
 49
15.875
 74
     0
 49
-3.174999999999998
 74
     0
 49
3.174999999999998
 74
     0
 49
-3.174999999999998
 74
     0
 49
3.174999999999998
 74
     0
 49
-3.174999999999998
 74
     0
  0
LTYPE
  5
CFC
330
5
100
AcDbSymbolTableRecord
100
AcDbLinetypeTableRecord
  2
CENTER
 70
     0
  3
Center ____ _ ____ _ ____ _ ____ _ ____ _ ____
 72
    65
 73
     4
 40
50.8
 49
31.75
 74
     0
 49
-6.349999999999997
 74
     0
 49
6.349999999999997
 74
     0
 49
-6.349999999999997
 74
     0
  0
LTYPE
  5
ED8
330
5
100
AcDbSymbolTableRecord
100
AcDbLinetypeTableRecord
  2
ACISOWELD
 70
     0
  3
_ _ _ _ _
 72
    65
 73
     2
 40
2.0
 49
2.0
 74
     0
 49
-1.0
 74
     0
  0
LTYPE
  5
ED9
330
5
100
AcDbSymbolTableRecord
100
AcDbLinetypeTableRecord
  2
ACISOTGL
 70
     0
  3
_ _ _ _ _
 72
    65
 73
     2
 40
3.0
 49
2.0
 74
     0
 49
-1.0
 74
     0
  0
LTYPE
  5
EDA
330
5
100
AcDbSymbolTableRecord
100
AcDbLinetypeTableRecord
  2
ACISOTGB
 70
     0
  3
__ . . __ . .
 72
    65
 73
     6
 40
9.0
 49
4.0
 74
     0
 49
-1.0
 74
     0
 49
1.0
 74
     0
 49
-1.0
 74
     0
 49
1.0
 74
     0
 49
-1.0
 74
     0
  0
LTYPE
  5
EDB
330
5
100
AcDbSymbolTableRecord
100
AcDbLinetypeTableRecord
  2
AM_ISO02W050
 70
     0
  3
__ __ __ __ __ __ __ __ __ __ __ __ __ __ __
 72
    65
 73
     2
 40
7.5
 49
6.0
 74
     0
 49
-1.5
 74
     0
  0
LTYPE
  5
EDC
330
5
100
AcDbSymbolTableRecord
100
AcDbLinetypeTableRecord
  2
AM_ISO08W050
 70
     0
  3
____ . ____ . ____ . ____ . ____ . ____ . ____
 72
    65
 73
     4
 40
18.0
 49
12.0
 74
     0
 49
-1.5
 74
     0
 49
3.0
 74
     0
 49
-1.5
 74
     0
  0
LTYPE
  5
EDD
330
5
100
AcDbSymbolTableRecord
100
AcDbLinetypeTableRecord
  2
AM_ISO09W050
 70
     0
  3
_____ . . _____ . . _____ . . ____ .. ____
 72
    65
 73
     6
 40
22.5
 49
12.0
 74
     0
 49
-1.5
 74
     0
 49
3.0
 74
     0
 49
-1.5
 74
     0
 49
3.0
 74
     0
 49
-1.5
 74
     0
  0
LTYPE
  5
EDE
330
5
100
AcDbSymbolTableRecord
100
AcDbLinetypeTableRecord
  2
Amconstr
 70
     0
  3
_______________________
 72
    65
 73
     2
 40
9999.0
 49
9999.0
 74
     0
 49
0.0
 74
     0
  0
LTYPE
  5
EDF
330
5
100
AcDbSymbolTableRecord
100
AcDbLinetypeTableRecord
  2
AM_ISO08W050x2
 70
     0
  3
__ . __ . __ . __ . __ . __
 72
    65
 73
     4
 40
9.0
 49
6.0
 74
     0
 49
-0.75
 74
     0
 49
1.5
 74
     0
 49
-0.75
 74
     0
  0
LTYPE
  5
EE0
330
5
100
AcDbSymbolTableRecord
100
AcDbLinetypeTableRecord
  2
AM_ISO02W050x2
 70
     0
  3
 _ _ _ _ _ _ _ _ _ _ _ _
 72
    65
 73
     2
 40
3.75
 49
3.0
 74
     0
 49
-0.75
 74
     0
  0
LTYPE
  5
EE1
330
5
100
AcDbSymbolTableRecord
100
AcDbLinetypeTableRecord
  2
Amzigzag
 70
     0
  3
/\/-/\/-/\/-/\/-/\/-/\/
 72
    65
 73
     2
 40
11.0001
 49
0.0001
 74
     4
 75
   136
340
EE3
 46
0.04
 50
0.0
 44
0.0
 45
0.0
 49
-11.0
 74
     0
  0
ENDTAB
  0
TABLE
  2
LAYER
  5
2
102
{ACAD_XDICTIONARY
360
43C
102
}
330
0
100
AcDbSymbolTable
 70
    11
  0
LAYER
  5
F
102
{ACAD_XDICTIONARY
360
52D
102
}
330
2
100
AcDbSymbolTableRecord
100
AcDbLayerTableRecord
  2
0
 70
     0
 62
     7
  6
Continuous
290
     0
370
    -3
390
300
  0
LAYER
  5
23
102
{ACAD_XDICTIONARY
360
52F
102
}
330
2
100
AcDbSymbolTableRecord
100
AcDbLayerTableRecord
  2
1
 70
     0
 62
     4
  6
Continuous
370
    50
390
300
  0
LAYER
  5
24
102
{ACAD_XDICTIONARY
360
531
102
}
330
2
100
AcDbSymbolTableRecord
100
AcDbLayerTableRecord
  2
SK1
 70
     0
 62
     4
  6
Continuous
370
    50
390
300
  0
LAYER
  5
25
102
{ACAD_XDICTIONARY
360
533
102
}
330
2
100
AcDbSymbolTableRecord
100
AcDbLayerTableRecord
  2
2
 70
     0
 62
     7
  6
Continuous
370
    25
390
300
  0
LAYER
  5
27
102
{ACAD_XDICTIONARY
360
537
102
}
330
2
100
AcDbSymbolTableRecord
100
AcDbLayerTableRecord
  2
SK2
 70
     0
 62
     7
  6
Continuous
370
    25
390
300
  0
LAYER
  5
29
102
{ACAD_XDICTIONARY
360
53B
102
}
330
2
100
AcDbSymbolTableRecord
100
AcDbLayerTableRecord
  2
SK3
 70
     0
 62
     1
  6
DASH
370
    35
390
300
  0
LAYER
  5
2A
102
{ACAD_XDICTIONARY
360
53D
102
}
330
2
100
AcDbSymbolTableRecord
100
AcDbLayerTableRecord
  2
4
 70
     0
 62
     2
  6
LONGDASH_DASH
370
    25
390
300
  0
LAYER
  5
2B
102
{ACAD_XDICTIONARY
360
53F
102
}
330
2
100
AcDbSymbolTableRecord
100
AcDbLayerTableRecord
  2
SK4
 70
     0
 62
     2
  6
LONGDASH_DASH
370
    25
390
300
  0
LAYER
  5
2E
102
{ACAD_XDICTIONARY
360
545
102
}
330
2
100
AcDbSymbolTableRecord
100
AcDbLayerTableRecord
  2
SK6
 70
     0
 62
     5
  6
Continuous
370
    35
390
300
  0
LAYER
  5
2F
330
2
100
AcDbSymbolTableRecord
100
AcDbLayerTableRecord
  2
DEFPOINTS
 70
     0
 62
     7
  6
Continuous
290
     0
370
    -3
390
300
  0
LAYER
  5
EB5
102
{ACAD_XDICTIONARY
360
1A1E
102
}
330
2
100
AcDbSymbolTableRecord
100
AcDbLayerTableRecord
  2
NOCUT
 70
     0
 62
     7
  6
Continuous
370
    25
390
300
1001
AcAecLayerStandard
1000

1000

  0
ENDTAB
  0
TABLE
  2
STYLE
  5
3
330
0
100
AcDbSymbolTable
 70
     9
  0
STYLE
  5
10
330
3
100
AcDbSymbolTableRecord
100
AcDbTextStyleTableRecord
  2
STANDARD
 70
     0
 40
0.0
 41
1.0
 50
0.0
 71
     0
 42
5.0
  3
monos.ttf
  4

1001
ACAD
1000
Monospac821 BT
1071
       49
  0
STYLE
  5
1E
330
3
100
AcDbSymbolTableRecord
100
AcDbTextStyleTableRecord
  2
STANDARD 5 mm
 70
     0
 40
5.0
 41
1.0
 50
0.0
 71
     0
 42
3.5
  3
monos.ttf
  4

1001
ACAD
1000
Monospac821 BT
1071
       49
  0
STYLE
  5
4DF
330
3
100
AcDbSymbolTableRecord
100
AcDbTextStyleTableRecord
  2
ACDINTS
 70
     0
 40
1.0
 41
1.0
 50
0.0
 71
     0
 42
3.5
  3
monos.ttf
  4

1001
ACAD
1000
Monospac821 BT
1071
       49
  0
STYLE
  5
4EE
330
3
100
AcDbSymbolTableRecord
100
AcDbTextStyleTableRecord
  2
ACDINGDT
 70
     0
 40
0.0
 41
1.0
 50
0.0
 71
     0
 42
3.5
  3
monos.ttf
  4

1001
ACAD
1000
Monospac821 BT
1071
       49
  0
STYLE
  5
7DE
330
3
100
AcDbSymbolTableRecord
100
AcDbTextStyleTableRecord
  2
STANDARD 3.5 mm
 70
     0
 40
3.5
 41
1.0
 50
0.0
 71
     0
 42
3.5
  3
monos.ttf
  4

1001
ACAD
1000
Monospac821 BT
1071
       49
  0
STYLE
  5
E90
330
3
100
AcDbSymbolTableRecord
100
AcDbTextStyleTableRecord
  2
USER1
 70
     0
 40
0.0
 41
1.0
 50
0.0
 71
     0
 42
5.0
  3
TXT.SHX
  4

  0
STYLE
  5
EE2
330
3
100
AcDbSymbolTableRecord
100
AcDbTextStyleTableRecord
  2
ACISOGDT
 70
     0
 40
0.0
 41
1.0
 50
0.0
 71
     0
 42
0.2
  3
amgdt.shx
  4

  0
STYLE
  5
EE3
330
3
100
AcDbSymbolTableRecord
100
AcDbTextStyleTableRecord
  2

 70
     1
 40
0.0
 41
1.0
 50
0.0
 71
     0
 42
0.2
  3
genltshp.shx
  4

  0
STYLE
  5
1ACC
330
3
100
AcDbSymbolTableRecord
100
AcDbTextStyleTableRecord
  2
ACISOTS
 70
     0
 40
0.0
 41
1.0
 50
0.0
 71
     0
 42
5.0
  3
isocp.shx
  4

  0
ENDTAB
  0
TABLE
  2
VIEW
  5
6
330
0
100
AcDbSymbolTable
 70
     6
  0
VIEW
  5
758
330
6
100
AcDbSymbolTableRecord
100
AcDbViewTableRecord
  2
AM_VIEW1
 70
     1
 40
148.5265045166015
 10
121.0318359737553
 20
219.614756822586
 41
248.4136475334483
 11
0.0
 21
0.0
 31
1.0
 12
0.0
 22
0.0
 32
0.0
 42
50.0
 43
0.0
 44
0.0
 50
0.0
 71
     0
281
     0
 72
     0
  0
VIEW
  5
759
330
6
100
AcDbSymbolTableRecord
100
AcDbViewTableRecord
  2
AM_VIEW2
 70
     1
 40
148.5265045166015
 10
292.4378600711665
 20
219.614756822586
 41
248.4136475334483
 11
0.0
 21
0.0
 31
1.0
 12
0.0
 22
0.0
 32
0.0
 42
50.0
 43
0.0
 44
0.0
 50
0.0
 71
     0
281
     0
 72
     0
  0
VIEW
  5
75A
330
6
100
AcDbSymbolTableRecord
100
AcDbViewTableRecord
  2
AM_VIEW3
 70
     1
 40
148.5265045166015
 10
121.0318359737553
 20
71.0882523059845
 41
248.4136475334483
 11
0.0
 21
0.0
 31
1.0
 12
0.0
 22
0.0
 32
0.0
 42
50.0
 43
0.0
 44
0.0
 50
0.0
 71
     0
281
     0
 72
     0
  0
VIEW
  5
75B
330
6
100
AcDbSymbolTableRecord
100
AcDbViewTableRecord
  2
AM_VIEW4
 70
     1
 40
148.5265045166015
 10
292.4378600711665
 20
71.0882523059845
 41
248.4136475334483
 11
0.0
 21
0.0
 31
1.0
 12
0.0
 22
0.0
 32
0.0
 42
50.0
 43
0.0
 44
0.0
 50
0.0
 71
     0
281
     0
 72
     0
  0
VIEW
  5
75C
330
6
100
AcDbSymbolTableRecord
100
AcDbViewTableRecord
  2
AM_VIEW5
 70
     1
 40
148.5265045166015
 10
206.7348480224609
 20
145.3515045642852
 41
248.4136475334483
 11
0.0
 21
0.0
 31
1.0
 12
0.0
 22
0.0
 32
0.0
 42
50.0
 43
0.0
 44
0.0
 50
0.0
 71
     0
281
     0
 72
     0
  0
VIEW
  5
75D
330
6
100
AcDbSymbolTableRecord
100
AcDbViewTableRecord
  2
AM_VIEW6
 70
     1
 40
297.0500385031128
 10
206.7348480224609
 20
145.3515045642852
 41
496.8223267939458
 11
0.0
 21
0.0
 31
1.0
 12
0.0
 22
0.0
 32
0.0
 42
50.0
 43
0.0
 44
0.0
 50
0.0
 71
     0
281
     0
 72
     0
  0
ENDTAB
  0
TABLE
  2
UCS
  5
7
330
0
100
AcDbSymbolTable
 70
     0
  0
ENDTAB
  0
TABLE
  2
APPID
  5
9
330
0
100
AcDbSymbolTable
 70
    42
  0
APPID
  5
11
330
9
100
AcDbSymbolTableRecord
100
AcDbRegAppTableRecord
  2
ACAD
 70
     0
  0
APPID
  5
3A6
330
9
100
AcDbSymbolTableRecord
100
AcDbRegAppTableRecord
  2
ACAD_PSEXT
 70
     0
  0
APPID
  5
3A8
330
9
100
AcDbSymbolTableRecord
100
AcDbRegAppTableRecord
  2
ACAD_EXEMPT_FROM_CAD_STANDARDS
 70
     0
  0
APPID
  5
433
330
9
100
AcDbSymbolTableRecord
100
AcDbRegAppTableRecord
  2
AcAecLayerStandard
 70
     0
  0
APPID
  5
471
330
9
100
AcDbSymbolTableRecord
100
AcDbRegAppTableRecord
  2
ACAD_MLEADERVER
 70
     0
  0
APPID
  5
47D
330
9
100
AcDbSymbolTableRecord
100
AcDbRegAppTableRecord
  2
MCAD_NO_VIS
 70
     0
  0
APPID
  5
47E
330
9
100
AcDbSymbolTableRecord
100
AcDbRegAppTableRecord
  2
ACAD_TEMP_GRAPHIC
 70
     0
  0
APPID
  5
4AC
330
9
100
AcDbSymbolTableRecord
100
AcDbRegAppTableRecord
  2
AD_DRAW
 70
     0
  0
APPID
  5
4AF
330
9
100
AcDbSymbolTableRecord
100
AcDbRegAppTableRecord
  2
ACATTRIBSERVICES
 70
     0
  0
APPID
  5
4D0
330
9
100
AcDbSymbolTableRecord
100
AcDbRegAppTableRecord
  2
DESIGNERASSEMBLIES
 70
     0
  0
APPID
  5
4D6
330
9
100
AcDbSymbolTableRecord
100
AcDbRegAppTableRecord
  2
ACADM_DIM_EDIT
 70
     0
  0
APPID
  5
4D7
330
9
100
AcDbSymbolTableRecord
100
AcDbRegAppTableRecord
  2
AMDT_DM_ADJ
 70
     0
  0
APPID
  5
5CD
330
9
100
AcDbSymbolTableRecord
100
AcDbRegAppTableRecord
  2
AcDbAttr
 70
     0
  0
APPID
  5
5CE
330
9
100
AcDbSymbolTableRecord
100
AcDbRegAppTableRecord
  2
ACAUTHENVIRON
 70
     0
  0
APPID
  5
5CF
330
9
100
AcDbSymbolTableRecord
100
AcDbRegAppTableRecord
  2
AcDbDynamicBlockTrueName
 70
     0
  0
APPID
  5
5D0
330
9
100
AcDbSymbolTableRecord
100
AcDbRegAppTableRecord
  2
ACDBBLOCKREPETAG
 70
     0
  0
APPID
  5
723
330
9
100
AcDbSymbolTableRecord
100
AcDbRegAppTableRecord
  2
GENIUS_GENTRA_14
 70
     0
  0
APPID
  5
752
330
9
100
AcDbSymbolTableRecord
100
AcDbRegAppTableRecord
  2
GENIUS_GENOENT_13
 70
     0
  0
APPID
  5
753
330
9
100
AcDbSymbolTableRecord
100
AcDbRegAppTableRecord
  2
GENIUS_GENOBJ-N-TIT_13
 70
     0
  0
APPID
  5
754
330
9
100
AcDbSymbolTableRecord
100
AcDbRegAppTableRecord
  2
GENIUS_GENODEF_13
 70
     0
  0
APPID
  5
755
330
9
100
AcDbSymbolTableRecord
100
AcDbRegAppTableRecord
  2
GENIUS_GENOLIS_13
 70
     0
  0
APPID
  5
756
330
9
100
AcDbSymbolTableRecord
100
AcDbRegAppTableRecord
  2
GENIUS_GENTITLE_13
 70
     0
  0
APPID
  5
757
330
9
100
AcDbSymbolTableRecord
100
AcDbRegAppTableRecord
  2
GENIUS_GENOREF_13
 70
     0
  0
APPID
  5
75E
330
9
100
AcDbSymbolTableRecord
100
AcDbRegAppTableRecord
  2
GENIUS_GENSCREG_15
 70
     0
  0
APPID
  5
75F
330
9
100
AcDbSymbolTableRecord
100
AcDbRegAppTableRecord
  2
GENIUS_GENOBJ-N-SDF_13
 70
     0
  0
APPID
  5
7BE
330
9
100
AcDbSymbolTableRecord
100
AcDbRegAppTableRecord
  2
AcadAnnoPO
 70
     0
  0
APPID
  5
7BF
330
9
100
AcDbSymbolTableRecord
100
AcDbRegAppTableRecord
  2
ACAD_DSTYLE_DIMJAG
 70
     0
  0
APPID
  5
7C0
330
9
100
AcDbSymbolTableRecord
100
AcDbRegAppTableRecord
  2
ACAD_DSTYLE_DIMTALN
 70
     0
  0
APPID
  5
A53
330
9
100
AcDbSymbolTableRecord
100
AcDbRegAppTableRecord
  2
ACAD_DSTYLE_DIMARC_LENGTH_SYMBOL
 70
     0
  0
APPID
  5
A65
330
9
100
AcDbSymbolTableRecord
100
AcDbRegAppTableRecord
  2
ACAD_DSTYLE_DIMJOGGED_JOGANGLE_SYMBOL
 70
     0
  0
APPID
  5
CCE
330
9
100
AcDbSymbolTableRecord
100
AcDbRegAppTableRecord
  2
ACAD_DSTYLE_DIMBREAK
 70
     0
  0
APPID
  5
D24
330
9
100
AcDbSymbolTableRecord
100
AcDbRegAppTableRecord
  2
ACAD_NAV_VCDISPLAY
 70
     0
  0
APPID
  5
D4A
330
9
100
AcDbSymbolTableRecord
100
AcDbRegAppTableRecord
  2
GENIUS_GENREC_14
 70
     0
  0
APPID
  5
D4B
330
9
100
AcDbSymbolTableRecord
100
AcDbRegAppTableRecord
  2
GENIUS_GENOBJ-N-REC_13
 70
     0
  0
APPID
  5
DC9
330
9
100
AcDbSymbolTableRecord
100
AcDbRegAppTableRecord
  2
ACAD_DSTYLE_DIMRADIAL_EXTENSION
 70
     0
  0
APPID
  5
10FA
330
9
100
AcDbSymbolTableRecord
100
AcDbRegAppTableRecord
  2
GENIUS_GENDTOL_13
 70
     0
  0
APPID
  5
10FB
330
9
100
AcDbSymbolTableRecord
100
AcDbRegAppTableRecord
  2
ACAD_DSTYLE_DIMINSPECT
 70
     0
  0
APPID
  5
1109
330
9
100
AcDbSymbolTableRecord
100
AcDbRegAppTableRecord
  2
ACAD_DSTYLE_DIMANGULAR_EXTENSION
 70
     0
  0
APPID
  5
1128
330
9
100
AcDbSymbolTableRecord
100
AcDbRegAppTableRecord
  2
AcadAnnoMonitorAlertIconDisabled
 70
     0
  0
APPID
  5
1A7D
330
9
100
AcDbSymbolTableRecord
100
AcDbRegAppTableRecord
  2
ACAD_DSTYLE_DIM_LINETYPE
 70
     0
  0
APPID
  5
1A7E
330
9
100
AcDbSymbolTableRecord
100
AcDbRegAppTableRecord
  2
ACAD_DSTYLE_DIM_EXT1_LINETYPE
 70
     0
  0
APPID
  5
1A7F
330
9
100
AcDbSymbolTableRecord
100
AcDbRegAppTableRecord
  2
ACAD_DSTYLE_DIM_EXT2_LINETYPE
 70
     0
  0
ENDTAB
  0
TABLE
  2
DIMSTYLE
  5
A
330
0
100
AcDbSymbolTable
 70
    17
100
AcDbDimStyleTable
 71
     4
340
4FC
340
3F
340
501
340
506
  0
DIMSTYLE
105
3F
330
A
100
AcDbSymbolTableRecord
100
AcDbDimStyleTableRecord
  2
STANDARD
 70
     0
 41
5.0
 42
1.0
 43
15.0
 44
2.0
 48
0.000000001
 73
     0
 74
     0
 77
     1
 78
     9
 79
     2
140
3.5
143
0.0393700787401575
147
2.299999999999998
171
     3
172
     1
271
     2
272
     2
273
     3
274
     3
284
     8
285
    11
286
     8
340
7DE
1001
ACAD_DSTYLE_DIMJAG
1070
   388
1040
1.5
1001
ACAD_DSTYLE_DIMTALN
1070
   392
1070
     0
1001
ACAD_DSTYLE_DIMARC_LENGTH_SYMBOL
1070
   379
1070
     1
1001
ACAD_DSTYLE_DIMJOGGED_JOGANGLE_SYMBOL
1070
   384
1040
1.570796326794896
  0
DIMSTYLE
105
4FC
102
{ACAD_REACTORS
330
135B
330
11C0
330
1157
330
10DA
330
1244
330
12AD
330
128C
330
126B
330
1223
330
1202
330
11E1
102
}
330
A
100
AcDbSymbolTableRecord
100
AcDbDimStyleTableRecord
  2
AM_DIN
 70
     0
 41
2.5
 42
1.0
 43
15.0
 44
2.0
 48
0.000000001
 73
     0
 74
     0
 77
     1
 78
     8
 79
     2
140
3.5
143
0.0393701
146
0.7071069999999999
147
1.0
171
     3
172
     1
271
     2
272
     2
273
     3
274
     3
284
     8
285
    11
286
     8
340
7DE
371
    -1
372
    -1
1001
ACAD_DSTYLE_DIMJAG
1070
   388
1040
1.5
1001
ACAD_DSTYLE_DIMTALN
1070
   392
1070
     0
1001
ACAD_DSTYLE_DIMARC_LENGTH_SYMBOL
1070
   379
1070
     1
1001
ACAD_DSTYLE_DIMJOGGED_JOGANGLE_SYMBOL
1070
   384
1040
1.570796326794896
  0
DIMSTYLE
105
4FD
330
A
100
AcDbSymbolTableRecord
100
AcDbDimStyleTableRecord
  2
AM_DIN$3
 70
     0
 41
2.5
 42
1.0
 43
10.0
 44
2.0
 48
0.000000001
 73
     0
 77
     1
 78
     8
 79
     2
140
3.5
143
0.0393701
146
0.7071069999999999
147
1.0
171
     3
271
     2
272
     3
273
     3
274
     4
284
     8
285
    11
286
     8
288
     1
289
     0
340
7DE
371
    -1
372
    -1
1001
ACAD_DSTYLE_DIMBREAK
1070
   391
1040
3.75
1001
ACAD_DSTYLE_DIMJAG
1070
   388
1040
1.5
1001
ACAD_DSTYLE_DIMTALN
1070
   392
1070
     0
1001
ACAD_DSTYLE_DIMARC_LENGTH_SYMBOL
1070
   379
1070
     1
1001
ACAD_DSTYLE_DIMJOGGED_JOGANGLE_SYMBOL
1070
   384
1040
1.570796326794896
  0
DIMSTYLE
105
4FE
330
A
100
AcDbSymbolTableRecord
100
AcDbDimStyleTableRecord
  2
AM_DIN$4
 70
     0
 41
2.5
 42
1.0
 43
10.0
 44
2.0
 48
0.000000001
 73
     0
 77
     1
 78
     8
 79
     2
140
3.5
143
0.0393701
146
0.7071069999999999
147
1.0
171
     3
271
     2
272
     3
273
     3
274
     4
284
     8
285
    11
286
     8
288
     1
289
     0
340
7DE
371
    -1
372
    -1
1001
ACAD_DSTYLE_DIMBREAK
1070
   391
1040
3.75
1001
ACAD_DSTYLE_DIMJAG
1070
   388
1040
1.5
1001
ACAD_DSTYLE_DIMTALN
1070
   392
1070
     0
1001
ACAD_DSTYLE_DIMARC_LENGTH_SYMBOL
1070
   379
1070
     1
1001
ACAD_DSTYLE_DIMJOGGED_JOGANGLE_SYMBOL
1070
   384
1040
1.570796326794896
  0
DIMSTYLE
105
4FF
330
A
100
AcDbSymbolTableRecord
100
AcDbDimStyleTableRecord
  2
AM_DIN$6
 70
     0
 41
2.5
 42
1.0
 43
10.0
 44
2.0
 48
0.000000001
 73
     0
 74
     0
 78
     8
 79
     2
140
3.5
143
0.0393701
146
0.7071069999999999
147
1.0
171
     3
172
     1
271
     2
272
     2
273
     3
274
     3
284
     8
285
    11
286
     8
340
7DE
371
    -1
372
    -1
1001
ACAD_DSTYLE_DIMBREAK
1070
   391
1040
3.75
1001
ACAD_DSTYLE_DIMJAG
1070
   388
1040
1.5
1001
ACAD_DSTYLE_DIMTALN
1070
   392
1070
     0
1001
ACAD_DSTYLE_DIMARC_LENGTH_SYMBOL
1070
   379
1070
     1
1001
ACAD_DSTYLE_DIMJOGGED_JOGANGLE_SYMBOL
1070
   384
1040
1.570796326794896
  0
DIMSTYLE
105
500
330
A
100
AcDbSymbolTableRecord
100
AcDbDimStyleTableRecord
  2
AM_DIN$7
 70
     0
 41
2.5
 42
1.0
 43
10.0
 44
2.0
 48
0.000000001
 73
     0
 74
     0
 77
     1
 78
     8
 79
     2
140
5.0
143
0.0393701
146
0.7071069999999999
147
1.0
171
     3
172
     1
271
     2
272
     3
273
     3
274
     4
284
     8
285
    11
286
     8
340
7DE
371
    -1
372
    -1
1001
ACAD_DSTYLE_DIMBREAK
1070
   391
1040
3.75
1001
ACAD_DSTYLE_DIMJAG
1070
   388
1040
1.5
1001
ACAD_DSTYLE_DIMTALN
1070
   392
1070
     0
1001
ACAD_DSTYLE_DIMARC_LENGTH_SYMBOL
1070
   379
1070
     1
1001
ACAD_DSTYLE_DIMJOGGED_JOGANGLE_SYMBOL
1070
   384
1040
1.570796326794896
  0
DIMSTYLE
105
501
330
A
100
AcDbSymbolTableRecord
100
AcDbDimStyleTableRecord
  2
AM_DIN$SF
 70
     0
 41
2.5
 42
1.0
 43
10.0
 44
2.0
 48
0.000000001
 73
     0
 74
     0
 75
     1
 76
     1
 77
     1
 78
     8
 79
     2
140
3.5
143
0.0393701
146
0.7071069999999999
147
1.0
171
     3
172
     1
271
     2
272
     2
273
     3
274
     3
284
     8
285
    11
286
     8
340
7DE
371
    -1
372
    -1
1001
ACAD_DSTYLE_DIMBREAK
1070
   391
1040
3.75
1001
ACAD_DSTYLE_DIMJAG
1070
   388
1040
1.5
1001
ACAD_DSTYLE_DIMTALN
1070
   392
1070
     0
1001
ACAD_DSTYLE_DIMARC_LENGTH_SYMBOL
1070
   379
1070
     1
1001
ACAD_DSTYLE_DIMJOGGED_JOGANGLE_SYMBOL
1070
   384
1040
1.570796326794896
  0
DIMSTYLE
105
506
330
A
100
AcDbSymbolTableRecord
100
AcDbDimStyleTableRecord
  2
AM_DIN$SH
 70
     0
 41
2.5
 42
1.0
 43
10.0
 44
2.0
 48
0.000000001
 73
     0
 74
     0
 75
     1
 76
     1
 77
     1
 78
     8
 79
     2
140
3.5
143
0.0393701
144
2.0
146
0.7071069999999999
147
1.0
171
     3
172
     1
271
     2
272
     2
273
     3
274
     3
284
     8
285
    11
286
     8
340
7DE
371
    -1
372
    -1
1001
ACAD_DSTYLE_DIMBREAK
1070
   391
1040
3.75
1001
ACAD_DSTYLE_DIMJAG
1070
   388
1040
1.5
1001
ACAD_DSTYLE_DIMTALN
1070
   392
1070
     0
1001
ACAD_DSTYLE_DIMARC_LENGTH_SYMBOL
1070
   379
1070
     1
1001
ACAD_DSTYLE_DIMJOGGED_JOGANGLE_SYMBOL
1070
   384
1040
1.570796326794896
  0
DIMSTYLE
105
EE4
102
{ACAD_REACTORS
330
1F9C
102
}
330
A
100
AcDbSymbolTableRecord
100
AcDbDimStyleTableRecord
  2
AM_ISO
 70
     0
  4
"
 41
3.5
 42
1.0
 43
10.0
 44
1.0
 47
0.1
 48
0.1
 73
     0
 74
     0
 77
     1
 78
     8
 79
     2
140
3.5
141
0.0
143
0.0393701
146
0.71
147
1.5
172
     1
176
   256
177
   256
178
     2
271
     2
272
     3
274
     4
283
     0
284
     8
340
10
371
    -1
372
    -1
1001
ACAD_DSTYLE_DIMJAG
1070
   388
1040
1.5
1001
ACAD_DSTYLE_DIMBREAK
1070
   391
1040
3.75
1001
ACAD_DSTYLE_DIMARC_LENGTH_SYMBOL
1070
   379
1070
     1
1001
ACAD_DSTYLE_DIM_LINETYPE
1070
   380
1005
12
1001
ACAD_DSTYLE_DIM_EXT1_LINETYPE
1070
   381
1005
12
1001
ACAD_DSTYLE_DIM_EXT2_LINETYPE
1070
   382
1005
12
  0
DIMSTYLE
105
EE5
330
A
100
AcDbSymbolTableRecord
100
AcDbDimStyleTableRecord
  2
AM_ISO$3
 70
     0
  4
"
 41
3.5
 42
1.0
 43
10.0
 44
1.0
 47
0.1
 48
0.1
 73
     0
 77
     1
 78
     8
 79
     2
140
3.5
141
0.0
143
0.0393701
146
0.71
147
1.5
176
   256
177
   256
178
     2
271
     2
272
     3
274
     4
283
     0
284
     8
288
     1
289
     0
340
10
371
    -1
372
    -1
1001
ACAD_DSTYLE_DIMBREAK
1070
   391
1040
3.75
1001
ACAD_DSTYLE_DIMJAG
1070
   388
1040
1.5
1001
ACAD_DSTYLE_DIMARC_LENGTH_SYMBOL
1070
   379
1070
     1
1001
ACAD_DSTYLE_DIM_LINETYPE
1070
   380
1005
12
1001
ACAD_DSTYLE_DIM_EXT1_LINETYPE
1070
   381
1005
12
1001
ACAD_DSTYLE_DIM_EXT2_LINETYPE
1070
   382
1005
12
  0
DIMSTYLE
105
EE6
330
A
100
AcDbSymbolTableRecord
100
AcDbDimStyleTableRecord
  2
AM_ISO$4
 70
     0
  4
"
 41
3.5
 42
1.0
 43
10.0
 44
1.0
 47
0.1
 48
0.1
 73
     0
 77
     1
 78
     8
 79
     2
140
3.5
141
0.0
143
0.0393701
146
0.71
147
1.5
176
   256
177
   256
178
     2
271
     2
272
     3
274
     4
283
     0
284
     8
288
     1
289
     0
340
10
371
    -1
372
    -1
1001
ACAD_DSTYLE_DIMBREAK
1070
   391
1040
3.75
1001
ACAD_DSTYLE_DIMJAG
1070
   388
1040
1.5
1001
ACAD_DSTYLE_DIMARC_LENGTH_SYMBOL
1070
   379
1070
     1
1001
ACAD_DSTYLE_DIM_LINETYPE
1070
   380
1005
12
1001
ACAD_DSTYLE_DIM_EXT1_LINETYPE
1070
   381
1005
12
1001
ACAD_DSTYLE_DIM_EXT2_LINETYPE
1070
   382
1005
12
  0
DIMSTYLE
105
EE7
330
A
100
AcDbSymbolTableRecord
100
AcDbDimStyleTableRecord
  2
AM_ISO$6
 70
     0
  4
"
 41
3.5
 42
1.0
 43
10.0
 44
1.0
 47
0.1
 48
0.1
 73
     0
 74
     0
 78
     8
 79
     2
140
3.5
141
0.0
143
0.0393701
146
0.71
147
1.5
172
     1
176
   256
177
   256
178
     2
271
     2
272
     3
274
     4
283
     0
284
     8
340
10
371
    -1
372
    -1
1001
ACAD_DSTYLE_DIMBREAK
1070
   391
1040
3.75
1001
ACAD_DSTYLE_DIMJAG
1070
   388
1040
1.5
1001
ACAD_DSTYLE_DIMARC_LENGTH_SYMBOL
1070
   379
1070
     1
1001
ACAD_DSTYLE_DIM_LINETYPE
1070
   380
1005
12
1001
ACAD_DSTYLE_DIM_EXT1_LINETYPE
1070
   381
1005
12
1001
ACAD_DSTYLE_DIM_EXT2_LINETYPE
1070
   382
1005
12
  0
DIMSTYLE
105
EE8
330
A
100
AcDbSymbolTableRecord
100
AcDbDimStyleTableRecord
  2
AM_ISO$7
 70
     0
  4
"
 41
3.5
 42
1.0
 43
10.0
 44
1.0
 47
0.1
 48
0.1
 73
     0
 74
     0
 77
     1
 78
     8
 79
     2
140
3.5
141
0.0
143
0.0393701
146
0.71
147
1.5
172
     1
176
   256
177
   256
178
     2
271
     2
272
     3
274
     4
283
     0
284
     8
340
10
371
    -1
372
    -1
1001
ACAD_DSTYLE_DIMBREAK
1070
   391
1040
3.75
1001
ACAD_DSTYLE_DIMJAG
1070
   388
1040
1.5
1001
ACAD_DSTYLE_DIMARC_LENGTH_SYMBOL
1070
   379
1070
     1
1001
ACAD_DSTYLE_DIM_LINETYPE
1070
   380
1005
12
1001
ACAD_DSTYLE_DIM_EXT1_LINETYPE
1070
   381
1005
12
1001
ACAD_DSTYLE_DIM_EXT2_LINETYPE
1070
   382
1005
12
  0
DIMSTYLE
105
EE9
330
A
100
AcDbSymbolTableRecord
100
AcDbDimStyleTableRecord
  2
AM_ISO$SF
 70
     0
  4
"
 41
3.5
 42
1.0
 43
10.0
 44
1.0
 47
0.1
 48
0.1
 73
     0
 74
     0
 75
     1
 76
     1
 77
     1
 78
     8
 79
     2
140
3.5
141
0.0
143
0.0393701
146
0.71
147
1.5
172
     1
176
   256
177
   256
178
     2
271
     2
272
     3
274
     4
283
     0
284
     8
340
10
371
    -1
372
    -1
1001
ACAD_DSTYLE_DIMBREAK
1070
   391
1040
3.75
1001
ACAD_DSTYLE_DIMJAG
1070
   388
1040
1.5
1001
ACAD_DSTYLE_DIMARC_LENGTH_SYMBOL
1070
   379
1070
     1
1001
ACAD_DSTYLE_DIM_LINETYPE
1070
   380
1005
12
1001
ACAD_DSTYLE_DIM_EXT1_LINETYPE
1070
   381
1005
12
1001
ACAD_DSTYLE_DIM_EXT2_LINETYPE
1070
   382
1005
12
  0
DIMSTYLE
105
EEA
330
A
100
AcDbSymbolTableRecord
100
AcDbDimStyleTableRecord
  2
AM_ISO$SH
 70
     0
  4
"
 41
3.5
 42
1.0
 43
10.0
 44
1.0
 47
0.1
 48
0.1
 73
     0
 74
     0
 75
     1
 76
     1
 77
     1
 78
     8
 79
     2
140
3.5
141
0.0
143
0.0393701
144
2.0
146
0.71
147
1.5
172
     1
173
     1
176
   256
177
   256
178
     2
271
     2
272
     3
274
     4
283
     0
284
     8
340
10
343
ED4
371
    -1
372
    -1
1001
ACAD_DSTYLE_DIMBREAK
1070
   391
1040
3.75
1001
ACAD_DSTYLE_DIMJAG
1070
   388
1040
1.5
1001
ACAD_DSTYLE_DIMARC_LENGTH_SYMBOL
1070
   379
1070
     1
1001
ACAD_DSTYLE_DIM_LINETYPE
1070
   380
1005
12
1001
ACAD_DSTYLE_DIM_EXT1_LINETYPE
1070
   381
1005
12
1001
ACAD_DSTYLE_DIM_EXT2_LINETYPE
1070
   382
1005
12
  0
DIMSTYLE
105
10D8
330
A
100
AcDbSymbolTableRecord
100
AcDbDimStyleTableRecord
  2
AM_DIN$2
 70
     0
 41
2.5
 42
1.0
 43
15.0
 44
2.0
 48
0.000000001
 73
     0
 74
     0
 77
     1
 78
     8
 79
     2
140
3.5
143
0.0393701
146
0.7071069999999999
147
1.0
171
     3
172
     1
271
     2
272
     2
273
     3
274
     3
284
     8
285
    11
286
     8
340
7DE
371
    -1
372
    -1
1001
ACAD_DSTYLE_DIMBREAK
1070
   391
1040
3.75
1001
ACAD_DSTYLE_DIMJAG
1070
   388
1040
1.5
1001
ACAD_DSTYLE_DIMARC_LENGTH_SYMBOL
1070
   379
1070
     1
1001
ACAD_DSTYLE_DIMJOGGED_JOGANGLE_SYMBOL
1070
   384
1040
1.570796326794896
  0
DIMSTYLE
105
1156
330
A
100
AcDbSymbolTableRecord
100
AcDbDimStyleTableRecord
  2
AM_DIN$0
 70
     0
 41
2.5
 42
1.0
 43
15.0
 44
2.0
 48
0.000000001
 73
     0
 74
     0
 77
     1
 78
     8
 79
     2
140
3.5
143
0.0393701
146
0.7071069999999999
147
1.0
171
     3
172
     1
271
     2
272
     2
273
     3
274
     3
284
     8
285
    11
286
     8
340
7DE
371
    -1
372
    -1
1001
ACAD_DSTYLE_DIMBREAK
1070
   391
1040
3.75
1001
ACAD_DSTYLE_DIMJAG
1070
   388
1040
1.5
1001
ACAD_DSTYLE_DIMARC_LENGTH_SYMBOL
1070
   379
1070
     1
1001
ACAD_DSTYLE_DIMJOGGED_JOGANGLE_SYMBOL
1070
   384
1040
1.570796326794896
  0
ENDTAB
  0
TABLE
  2
BLOCK_RECORD
  5
1
330
0
100
AcDbSymbolTable
 70
    17
  0
BLOCK_RECORD
  5
18
102
{ACAD_XDICTIONARY
360
DB1
102
}
330
1
100
AcDbSymbolTableRecord
100
AcDbBlockTableRecord
  2
*MODEL_SPACE
340
303
  0
BLOCK_RECORD
  5
B56
330
1
100
AcDbSymbolTableRecord
100
AcDbBlockTableRecord
  2
*Paper_Space
340
B57
  0
BLOCK_RECORD
  5
D0B
330
1
100
AcDbSymbolTableRecord
100
AcDbBlockTableRecord
  2
_ACMFILLED15
340
0
  0
BLOCK_RECORD
  5
D16
330
1
100
AcDbSymbolTableRecord
100
AcDbBlockTableRecord
  2
_ACMFILLED30
340
0
  0
BLOCK_RECORD
  5
ED4
330
1
100
AcDbSymbolTableRecord
100
AcDbBlockTableRecord
  2
GENAXEH
340
0
  0
BLOCK_RECORD
  5
10DB
330
1
100
AcDbSymbolTableRecord
100
AcDbBlockTableRecord
  2
*D3
340
0
  0
BLOCK_RECORD
  5
1158
330
1
100
AcDbSymbolTableRecord
100
AcDbBlockTableRecord
  2
*D4
340
0
  0
BLOCK_RECORD
  5
11C1
330
1
100
AcDbSymbolTableRecord
100
AcDbBlockTableRecord
  2
*D5
340
0
  0
BLOCK_RECORD
  5
11E2
330
1
100
AcDbSymbolTableRecord
100
AcDbBlockTableRecord
  2
*D6
340
0
  0
BLOCK_RECORD
  5
1203
330
1
100
AcDbSymbolTableRecord
100
AcDbBlockTableRecord
  2
*D7
340
0
  0
BLOCK_RECORD
  5
1224
330
1
100
AcDbSymbolTableRecord
100
AcDbBlockTableRecord
  2
*D8
340
0
  0
BLOCK_RECORD
  5
1245
330
1
100
AcDbSymbolTableRecord
100
AcDbBlockTableRecord
  2
*D9
340
0
  0
BLOCK_RECORD
  5
126C
330
1
100
AcDbSymbolTableRecord
100
AcDbBlockTableRecord
  2
*D10
340
0
  0
BLOCK_RECORD
  5
128D
330
1
100
AcDbSymbolTableRecord
100
AcDbBlockTableRecord
  2
*D11
340
0
  0
BLOCK_RECORD
  5
12AE
330
1
100
AcDbSymbolTableRecord
100
AcDbBlockTableRecord
  2
*D12
340
0
  0
BLOCK_RECORD
  5
135C
330
1
100
AcDbSymbolTableRecord
100
AcDbBlockTableRecord
  2
*D13
340
0
  0
BLOCK_RECORD
  5
154A
330
1
100
AcDbSymbolTableRecord
100
AcDbBlockTableRecord
  2
*D14
340
0
  0
BLOCK_RECORD
  5
1686
330
1
100
AcDbSymbolTableRecord
100
AcDbBlockTableRecord
  2
*D15
340
0
  0
ENDTAB
  0
ENDSEC
  0
SECTION
  2
BLOCKS
  0
BLOCK
  5
32
330
18
100
AcDbEntity
  8
0
100
AcDbBlockBegin
  2
*MODEL_SPACE
 70
     0
 10
0.0
 20
0.0
 30
0.0
  3
*MODEL_SPACE
  1

  0
ENDBLK
  5
33
330
18
100
AcDbEntity
  8
0
100
AcDbBlockEnd
  0
BLOCK
  5
B58
330
B56
100
AcDbEntity
 67
     1
  8
0
100
AcDbBlockBegin
  2
*Paper_Space
 70
     0
 10
0.0
 20
0.0
 30
0.0
  3
*Paper_Space
  1

  0
ENDBLK
  5
B59
330
B56
100
AcDbEntity
 67
     1
  8
0
100
AcDbBlockEnd
  0
BLOCK
  5
D0D
330
D0B
100
AcDbEntity
  8
0
100
AcDbBlockBegin
  2
_ACMFILLED15
 70
     0
 10
0.0
 20
0.0
 30
0.0
  3
_ACMFILLED15
  1

  0
TRACE
  5
D0C
330
D0B
100
AcDbEntity
  8
1
 62
     0
100
AcDbTrace
 10
-1
 20
-0.131652497
 30
0.0
 11
-1
 21
0.131652497
 31
0.0
 12
0
 22
0
 32
0.0
 13
0
 23
0
 33
0.0
  0
ENDBLK
  5
D0E
330
D0B
100
AcDbEntity
  8
0
100
AcDbBlockEnd
  0
BLOCK
  5
D18
330
D16
100
AcDbEntity
  8
0
100
AcDbBlockBegin
  2
_ACMFILLED30
 70
     0
 10
0.0
 20
0.0
 30
0.0
  3
_ACMFILLED30
  1

  0
TRACE
  5
D17
330
D16
100
AcDbEntity
  8
1
 62
     0
100
AcDbTrace
 10
-1
 20
-0.26794919
 30
0.0
 11
-1
 21
0.26794919
 31
0.0
 12
0
 22
0
 32
0.0
 13
0
 23
0
 33
0.0
  0
ENDBLK
  5
D19
330
D16
100
AcDbEntity
  8
0
100
AcDbBlockEnd
  0
BLOCK
  5
ED5
330
ED4
100
AcDbEntity
  8
0
370
    18
100
AcDbBlockBegin
  2
GENAXEH
 70
     0
 10
0.0
 20
0.0
 30
0.0
  3
GENAXEH
  1

  0
LINE
  5
ED6
330
ED4
100
AcDbEntity
  8
0
100
AcDbLine
 10
-1
 20
0
 30
0.0
 11
1
 21
0
 31
0.0
  0
ENDBLK
  5
ED7
330
ED4
100
AcDbEntity
  8
0
370
    18
100
AcDbBlockEnd
  0
BLOCK
  5
10DC
330
10DB
100
AcDbEntity
  8
0
100
AcDbBlockBegin
  2
*D3
 70
     1
 10
0.0
 20
0.0
 30
0.0
  3
*D3
  1

  0
LINE
  5
2516
330
10DB
100
AcDbEntity
  8
2
 62
     0
100
AcDbLine
 10
68.9043238617583
 20
11.969473810702
 30
0.0
 11
82.480427691098
 21
10.1821458747691
 31
0.0
  0
LINE
  5
2517
330
10DB
100
AcDbEntity
  8
2
 62
     0
100
AcDbLine
 10
54.2910519999998
 20
14.025
 30
0.0
 11
82.7323016518722
 21
14.025
 31
0.0
  0
ARC
  5
2518
330
10DB
100
AcDbEntity
  8
2
 62
     0
100
AcDbCircle
 10
53.2910519999998
 20
14.025
 30
0.0
 40
27.44124965187242
100
AcDbArc
 50
342.0566688176328
 51
347.2783344932485
  0
ARC
  5
2519
330
10DB
100
AcDbEntity
  8
2
 62
     0
100
AcDbCircle
 10
53.2910519999998
 20
14.025
 30
0.0
 40
27.44124965187242
100
AcDbArc
 50
5.221665675615715
 51
10.44333135123143
  0
ARC
  5
251A
330
10DB
100
AcDbEntity
  8
2
 62
     0
100
AcDbCircle
 10
53.2910519999998
 20
14.025
 30
0.0
 40
27.44124965187242
100
AcDbArc
 50
352.5000001688642
 51
0.0
  0
SOLID
  5
251B
330
10DB
100
AcDbEntity
  8
2
 62
     0
100
AcDbTrace
 10
79.6484599845765
 20
8.05517026150912
 30
0.0
 11
80.4688516566922
 21
7.9088762125269
 31
0.0
 12
80.497537967581
 22
10.4431982533652
 32
0.0
 13
80.497537967581
 23
10.4431982533652
 33
0.0
  0
SOLID
  5
251C
330
10DB
100
AcDbEntity
  8
2
 62
     0
100
AcDbTrace
 10
81.0346561547834
 20
16.5413848802757
 30
0.0
 11
80.2021878421041
 21
16.5034249957995
 31
0.0
 12
80.7323016518722
 22
14.025
 32
0.0
 13
80.7323016518722
 23
14.025
 33
0.0
  0
MTEXT
  5
251D
330
10DB
100
AcDbEntity
  8
2
 62
     0
100
AcDbMText
 10
83.0394854886125
 20
19.4646128323781
 30
0.0
 40
3.5
 41
0.0
 71
     5
 72
     1
  1
\A1;7.5\U+00B0
  7
STANDARD 3.5 mm
 11
0.1798714356453662
 21
-0.9836901273464501
 31
0.0
 73
     1
 44
1.0
1001
ACAD
1000
MTEXTBEGIN
1070
    73
1070
     1
1070
    44
1040
1.0
1070
    74
1070
     0
1000
MTEXTEND
  0
POINT
  5
251E
330
10DB
100
AcDbEntity
  8
DEFPOINTS
 62
     0
100
AcDbPoint
 10
80.6278794169063
 20
11.6333375583792
 30
0.0
  0
POINT
  5
251F
330
10DB
100
AcDbEntity
  8
DEFPOINTS
 62
     0
100
AcDbPoint
 10
53.2910519999998
 20
14.025
 30
0.0
  0
POINT
  5
2520
330
10DB
100
AcDbEntity
  8
DEFPOINTS
 62
     0
100
AcDbPoint
 10
53.2910519999998
 20
14.025
 30
0.0
  0
POINT
  5
2521
330
10DB
100
AcDbEntity
  8
DEFPOINTS
 62
     0
100
AcDbPoint
 10
45
 20
14.025
 30
0.0
  0
POINT
  5
2522
330
10DB
100
AcDbEntity
  8
DEFPOINTS
 62
     0
100
AcDbPoint
 10
67.9128789999998
 20
12.1
 30
0.0
  0
ENDBLK
  5
10DD
330
10DB
100
AcDbEntity
  8
0
100
AcDbBlockEnd
  0
BLOCK
  5
1159
330
1158
100
AcDbEntity
  8
0
100
AcDbBlockBegin
  2
*D4
 70
     1
 10
0.0
 20
0.0
 30
0.0
  3
*D4
  1

  0
LINE
  5
250D
330
1158
100
AcDbEntity
  8
2
 62
     0
100
AcDbLine
 10
54.2910519999998
 20
14.025
 30
0.0
 11
107
 21
14.025
 31
0.0
  0
LINE
  5
250E
330
1158
100
AcDbEntity
  8
2
 62
     0
100
AcDbLine
 10
54.2910519999998
 20
-14.0250000000001
 30
0.0
 11
107
 21
-14.0250000000001
 31
0.0
  0
LINE
  5
250F
330
1158
100
AcDbEntity
  8
2
 62
     0
100
AcDbLine
 10
105
 20
11.525
 30
0.0
 11
105
 21
-11.5250000000001
 31
0.0
  0
SOLID
  5
2510
330
1158
100
AcDbEntity
  8
2
 62
     0
100
AcDbTrace
 10
104.583333333334
 20
11.525
 30
0.0
 11
105.416666666667
 21
11.525
 31
0.0
 12
105
 22
14.025
 32
0.0
 13
105
 23
14.025
 33
0.0
  0
SOLID
  5
2511
330
1158
100
AcDbEntity
  8
2
 62
     0
100
AcDbTrace
 10
104.583333333334
 20
-11.5250000000001
 30
0.0
 11
105.416666666667
 21
-11.5250000000001
 31
0.0
 12
105
 22
-14.0250000000001
 32
0.0
 13
105
 23
-14.0250000000001
 33
0.0
  0
MTEXT
  5
2512
330
1158
100
AcDbEntity
  8
2
 62
     0
100
AcDbMText
 10
102.136858749122
 20
-7.87E-14
 30
0.0
 40
3.5
 41
0.0
 71
     5
 72
     1
  1
\A1;%%c28
  7
STANDARD 3.5 mm
 11
0.0000000000000001
 21
1.0
 31
0.0
 73
     1
 44
1.0
1001
ACAD
1000
MTEXTBEGIN
1070
    73
1070
     1
1070
    44
1040
1.0
1070
    74
1070
     0
1000
MTEXTEND
  0
POINT
  5
2513
330
1158
100
AcDbEntity
  8
DEFPOINTS
 62
     0
100
AcDbPoint
 10
53.2910519999998
 20
14.025
 30
0.0
  0
POINT
  5
2514
330
1158
100
AcDbEntity
  8
DEFPOINTS
 62
     0
100
AcDbPoint
 10
53.2910519999998
 20
-14.0250000000001
 30
0.0
  0
POINT
  5
2515
330
1158
100
AcDbEntity
  8
DEFPOINTS
 62
     0
100
AcDbPoint
 10
105
 20
-14.0250000000001
 30
0.0
  0
ENDBLK
  5
115A
330
1158
100
AcDbEntity
  8
0
100
AcDbBlockEnd
  0
BLOCK
  5
11C2
330
11C1
100
AcDbEntity
  8
0
100
AcDbBlockBegin
  2
*D5
 70
     1
 10
0.0
 20
0.0
 30
0.0
  3
*D5
  1

  0
LINE
  5
2535
330
11C1
100
AcDbEntity
  8
2
 62
     0
100
AcDbLine
 10
39.999349
 20
25.1249999999999
 30
0.0
 11
122
 21
25.125
 31
0.0
  0
LINE
  5
2536
330
11C1
100
AcDbEntity
  8
2
 62
     0
100
AcDbLine
 10
39.999349
 20
-24.8750000000001
 30
0.0
 11
122
 21
-24.8750000000001
 31
0.0
  0
LINE
  5
2537
330
11C1
100
AcDbEntity
  8
2
 62
     0
100
AcDbLine
 10
120
 20
22.625
 30
0.0
 11
120
 21
-22.3750000000001
 31
0.0
  0
SOLID
  5
2538
330
11C1
100
AcDbEntity
  8
2
 62
     0
100
AcDbTrace
 10
119.583333333334
 20
22.625
 30
0.0
 11
120.416666666667
 21
22.625
 31
0.0
 12
120
 22
25.125
 32
0.0
 13
120
 23
25.125
 33
0.0
  0
SOLID
  5
2539
330
11C1
100
AcDbEntity
  8
2
 62
     0
100
AcDbTrace
 10
119.583333333334
 20
-22.3750000000001
 30
0.0
 11
120.416666666667
 21
-22.3750000000001
 31
0.0
 12
120
 22
-24.8750000000001
 32
0.0
 13
120
 23
-24.8750000000001
 33
0.0
  0
MTEXT
  5
253A
330
11C1
100
AcDbEntity
  8
2
 62
     0
100
AcDbMText
 10
117.136858749122
 20
0.12499999999989
 30
0.0
 40
3.5
 41
0.0
 71
     5
 72
     1
  1
\A1;%%c50
  7
STANDARD 3.5 mm
 11
0.0000000000000001
 21
1.0
 31
0.0
 73
     1
 44
1.0
1001
ACAD
1000
MTEXTBEGIN
1070
    73
1070
     1
1070
    44
1040
1.0
1070
    74
1070
     0
1000
MTEXTEND
  0
POINT
  5
253B
330
11C1
100
AcDbEntity
  8
DEFPOINTS
 62
     0
100
AcDbPoint
 10
38.999349
 20
25.1249999999999
 30
0.0
  0
POINT
  5
253C
330
11C1
100
AcDbEntity
  8
DEFPOINTS
 62
     0
100
AcDbPoint
 10
38.999349
 20
-24.8750000000001
 30
0.0
  0
POINT
  5
253D
330
11C1
100
AcDbEntity
  8
DEFPOINTS
 62
     0
100
AcDbPoint
 10
120
 20
-24.8750000000001
 30
0.0
  0
ENDBLK
  5
11C3
330
11C1
100
AcDbEntity
  8
0
100
AcDbBlockEnd
  0
BLOCK
  5
11E3
330
11E2
100
AcDbEntity
  8
0
100
AcDbBlockBegin
  2
*D6
 70
     1
 10
0.0
 20
0.0
 30
0.0
  3
*D6
  1

  0
LINE
  5
252C
330
11E2
100
AcDbEntity
  8
SK2
 62
     0
100
AcDbLine
 10
-31.8999999999999
 20
22.581088
 30
0.0
 11
-31.8999999999999
 21
137
 31
0.0
  0
LINE
  5
252D
330
11E2
100
AcDbEntity
  8
SK2
 62
     0
100
AcDbLine
 10
70
 20
11.8949999999999
 30
0.0
 11
70
 21
137
 31
0.0
  0
LINE
  5
252E
330
11E2
100
AcDbEntity
  8
SK2
 62
     0
100
AcDbLine
 10
-29.3999999999999
 20
135
 30
0.0
 11
67.5
 21
135
 31
0.0
  0
SOLID
  5
252F
330
11E2
100
AcDbEntity
  8
SK2
 62
     0
100
AcDbTrace
 10
-29.3999999999999
 20
135.416666666667
 30
0.0
 11
-29.3999999999999
 21
134.583333333333
 31
0.0
 12
-31.8999999999999
 22
135
 32
0.0
 13
-31.8999999999999
 23
135
 33
0.0
  0
SOLID
  5
2530
330
11E2
100
AcDbEntity
  8
SK2
 62
     0
100
AcDbTrace
 10
67.5
 20
135.416666666667
 30
0.0
 11
67.5
 21
134.583333333333
 31
0.0
 12
70
 22
135
 32
0.0
 13
70
 23
135
 33
0.0
  0
MTEXT
  5
2531
330
11E2
100
AcDbEntity
  8
SK2
 62
     0
100
AcDbMText
 10
19.0500000000001
 20
137.81148981026
 30
0.0
 40
3.5
 41
0.0
 71
     5
 72
     1
  1
\A1;101.9
  7
STANDARD 3.5 mm
 73
     1
 44
1.0
1001
ACAD
1000
MTEXTBEGIN
1070
    73
1070
     1
1070
    44
1040
1.0
1070
    74
1070
     0
1000
MTEXTEND
  0
POINT
  5
2532
330
11E2
100
AcDbEntity
  8
DEFPOINTS
 62
     0
100
AcDbPoint
 10
-31.8999999999999
 20
21.581088
 30
0.0
  0
POINT
  5
2533
330
11E2
100
AcDbEntity
  8
DEFPOINTS
 62
     0
100
AcDbPoint
 10
70
 20
10.8949999999999
 30
0.0
  0
POINT
  5
2534
330
11E2
100
AcDbEntity
  8
DEFPOINTS
 62
     0
100
AcDbPoint
 10
70
 20
135
 30
0.0
  0
ENDBLK
  5
11E4
330
11E2
100
AcDbEntity
  8
0
100
AcDbBlockEnd
  0
BLOCK
  5
1204
330
1203
100
AcDbEntity
  8
0
100
AcDbBlockBegin
  2
*D7
 70
     1
 10
0.0
 20
0.0
 30
0.0
  3
*D7
  1

  0
LINE
  5
24F2
330
1203
100
AcDbEntity
  8
2
 62
     0
100
AcDbLine
 10
1E-16
 20
31.9699999999999
 30
0.0
 11
5.6E-15
 21
122
 31
0.0
  0
LINE
  5
24F3
330
1203
100
AcDbEntity
  8
2
 62
     0
100
AcDbLine
 10
70
 20
11.8949999999999
 30
0.0
 11
70
 21
122
 31
0.0
  0
LINE
  5
24F4
330
1203
100
AcDbEntity
  8
2
 62
     0
100
AcDbLine
 10
2.5
 20
120
 30
0.0
 11
67.5
 21
120
 31
0.0
  0
SOLID
  5
24F5
330
1203
100
AcDbEntity
  8
2
 62
     0
100
AcDbTrace
 10
2.5
 20
120.416666666667
 30
0.0
 11
2.5
 21
119.583333333333
 31
0.0
 12
5.5E-15
 22
120
 32
0.0
 13
5.5E-15
 23
120
 33
0.0
  0
SOLID
  5
24F6
330
1203
100
AcDbEntity
  8
2
 62
     0
100
AcDbTrace
 10
67.5
 20
120.416666666667
 30
0.0
 11
67.5
 21
119.583333333333
 31
0.0
 12
70
 22
120
 32
0.0
 13
70
 23
120
 33
0.0
  0
MTEXT
  5
24F7
330
1203
100
AcDbEntity
  8
2
 62
     0
100
AcDbMText
 10
35
 20
122.81148981026
 30
0.0
 40
3.5
 41
0.0
 71
     5
 72
     1
  1
\A1;70
  7
STANDARD 3.5 mm
 73
     1
 44
1.0
1001
ACAD
1000
MTEXTBEGIN
1070
    73
1070
     1
1070
    44
1040
1.0
1070
    74
1070
     0
1000
MTEXTEND
  0
POINT
  5
24F8
330
1203
100
AcDbEntity
  8
DEFPOINTS
 62
     0
100
AcDbPoint
 10
0
 20
30.9699999999999
 30
0.0
  0
POINT
  5
24F9
330
1203
100
AcDbEntity
  8
DEFPOINTS
 62
     0
100
AcDbPoint
 10
70
 20
10.8949999999999
 30
0.0
  0
POINT
  5
24FA
330
1203
100
AcDbEntity
  8
DEFPOINTS
 62
     0
100
AcDbPoint
 10
70
 20
120
 30
0.0
  0
ENDBLK
  5
1205
330
1203
100
AcDbEntity
  8
0
100
AcDbBlockEnd
  0
BLOCK
  5
1225
330
1224
100
AcDbEntity
  8
0
100
AcDbBlockBegin
  2
*D8
 70
     1
 10
0.0
 20
0.0
 30
0.0
  3
*D8
  1

  0
LINE
  5
24E9
330
1224
100
AcDbEntity
  8
2
 62
     0
100
AcDbLine
 10
25.95
 20
32.0700000000001
 30
0.0
 11
25.95
 21
107
 31
0.0
  0
LINE
  5
24EA
330
1224
100
AcDbEntity
  8
2
 62
     0
100
AcDbLine
 10
70
 20
11.8949999999999
 30
0.0
 11
70
 21
107
 31
0.0
  0
LINE
  5
24EB
330
1224
100
AcDbEntity
  8
2
 62
     0
100
AcDbLine
 10
28.45
 20
105
 30
0.0
 11
67.5
 21
105
 31
0.0
  0
SOLID
  5
24EC
330
1224
100
AcDbEntity
  8
2
 62
     0
100
AcDbTrace
 10
28.45
 20
105.416666666667
 30
0.0
 11
28.45
 21
104.583333333333
 31
0.0
 12
25.95
 22
105
 32
0.0
 13
25.95
 23
105
 33
0.0
  0
SOLID
  5
24ED
330
1224
100
AcDbEntity
  8
2
 62
     0
100
AcDbTrace
 10
67.5
 20
105.416666666667
 30
0.0
 11
67.5
 21
104.583333333333
 31
0.0
 12
70
 22
105
 32
0.0
 13
70
 23
105
 33
0.0
  0
MTEXT
  5
24EE
330
1224
100
AcDbEntity
  8
2
 62
     0
100
AcDbMText
 10
47.975
 20
107.75
 30
0.0
 40
3.5
 41
0.0
 71
     5
 72
     1
  1
\A1;44
  7
STANDARD 3.5 mm
 73
     1
 44
1.0
1001
ACAD
1000
MTEXTBEGIN
1070
    73
1070
     1
1070
    44
1040
1.0
1070
    74
1070
     0
1000
MTEXTEND
  0
POINT
  5
24EF
330
1224
100
AcDbEntity
  8
DEFPOINTS
 62
     0
100
AcDbPoint
 10
25.95
 20
31.0700000000001
 30
0.0
  0
POINT
  5
24F0
330
1224
100
AcDbEntity
  8
DEFPOINTS
 62
     0
100
AcDbPoint
 10
70
 20
10.8949999999999
 30
0.0
  0
POINT
  5
24F1
330
1224
100
AcDbEntity
  8
DEFPOINTS
 62
     0
100
AcDbPoint
 10
70
 20
105
 30
0.0
  0
ENDBLK
  5
1226
330
1224
100
AcDbEntity
  8
0
100
AcDbBlockEnd
  0
BLOCK
  5
1246
330
1245
100
AcDbEntity
  8
0
100
AcDbBlockBegin
  2
*D9
 70
     1
 10
0.0
 20
0.0
 30
0.0
  3
*D9
  1

  0
LINE
  5
24DE
330
1245
100
AcDbEntity
  8
SK2
 62
     0
100
AcDbLine
 10
31
 20
2.99999999999991
 30
0.0
 11
34.3401445284239
 21
2.99999999999991
 31
0.0
  0
LINE
  5
24DF
330
1245
100
AcDbEntity
  8
SK2
 62
     0
100
AcDbLine
 10
31
 20
-3.00000000000009
 30
0.0
 11
34.3401445284239
 21
-3.00000000000009
 31
0.0
  0
LINE
  5
24E0
330
1245
100
AcDbEntity
  8
SK2
 62
     0
100
AcDbLine
 10
32.3401445284239
 20
5.49999999999991
 30
0.0
 11
32.3401445284239
 21
7.99999999999991
 31
0.0
  0
LINE
  5
24E1
330
1245
100
AcDbEntity
  8
SK2
 62
     0
100
AcDbLine
 10
32.3401445284239
 20
-5.50000000000009
 30
0.0
 11
32.3401445284239
 21
-15.531623330991
 31
0.0
  0
LINE
  5
24E2
330
1245
100
AcDbEntity
  8
SK2
 62
     0
100
AcDbLine
 10
32.3401445284239
 20
2.99999999999991
 30
0.0
 11
32.3401445284239
 21
-3.00000000000009
 31
0.0
  0
SOLID
  5
24E3
330
1245
100
AcDbEntity
  8
SK2
 62
     0
100
AcDbTrace
 10
31.9234778617573
 20
5.49999999999991
 30
0.0
 11
32.7568111950906
 21
5.49999999999991
 31
0.0
 12
32.3401445284239
 22
2.99999999999991
 32
0.0
 13
32.3401445284239
 23
2.99999999999991
 33
0.0
  0
SOLID
  5
24E4
330
1245
100
AcDbEntity
  8
SK2
 62
     0
100
AcDbTrace
 10
31.9234778617573
 20
-5.50000000000009
 30
0.0
 11
32.7568111950906
 21
-5.50000000000009
 31
0.0
 12
32.3401445284239
 22
-3.00000000000009
 32
0.0
 13
32.3401445284239
 23
-3.00000000000009
 33
0.0
  0
MTEXT
  5
24E5
330
1245
100
AcDbEntity
  8
SK2
 62
     0
100
AcDbMText
 10
29.5286547181639
 20
-11.7658116654955
 30
0.0
 40
3.5
 41
0.0
 71
     5
 72
     1
  1
\A1;M6
  7
STANDARD 3.5 mm
 11
0.0000000000000001
 21
1.0
 31
0.0
 73
     1
 44
1.0
1001
ACAD
1000
MTEXTBEGIN
1070
    73
1070
     1
1070
    44
1040
1.0
1070
    74
1070
     0
1000
MTEXTEND
  0
POINT
  5
24E6
330
1245
100
AcDbEntity
  8
DEFPOINTS
 62
     0
100
AcDbPoint
 10
30
 20
2.99999999999991
 30
0.0
  0
POINT
  5
24E7
330
1245
100
AcDbEntity
  8
DEFPOINTS
 62
     0
100
AcDbPoint
 10
30
 20
-3.00000000000009
 30
0.0
  0
POINT
  5
24E8
330
1245
100
AcDbEntity
  8
DEFPOINTS
 62
     0
100
AcDbPoint
 10
32.3401445284239
 20
-3.00000000000009
 30
0.0
  0
ENDBLK
  5
1247
330
1245
100
AcDbEntity
  8
0
100
AcDbBlockEnd
  0
BLOCK
  5
126D
330
126C
100
AcDbEntity
  8
0
100
AcDbBlockBegin
  2
*D10
 70
     1
 10
0.0
 20
0.0
 30
0.0
  3
*D10
  1

  0
LINE
  5
24D5
330
126C
100
AcDbEntity
  8
2
 62
     0
100
AcDbLine
 10
70
 20
11.8949999999999
 30
0.0
 11
70
 21
61.9999999999999
 31
0.0
  0
LINE
  5
24D6
330
126C
100
AcDbEntity
  8
2
 62
     0
100
AcDbLine
 10
45
 20
15.025
 30
0.0
 11
45
 21
61.9999999999999
 31
0.0
  0
LINE
  5
24D7
330
126C
100
AcDbEntity
  8
2
 62
     0
100
AcDbLine
 10
67.5
 20
59.9999999999999
 30
0.0
 11
47.5
 21
59.9999999999999
 31
0.0
  0
SOLID
  5
24D8
330
126C
100
AcDbEntity
  8
2
 62
     0
100
AcDbTrace
 10
67.5
 20
60.4166666666666
 30
0.0
 11
67.5
 21
59.5833333333333
 31
0.0
 12
70
 22
59.9999999999999
 32
0.0
 13
70
 23
59.9999999999999
 33
0.0
  0
SOLID
  5
24D9
330
126C
100
AcDbEntity
  8
2
 62
     0
100
AcDbTrace
 10
47.5
 20
60.4166666666666
 30
0.0
 11
47.5
 21
59.5833333333333
 31
0.0
 12
45
 22
59.9999999999999
 32
0.0
 13
45
 23
59.9999999999999
 33
0.0
  0
MTEXT
  5
24DA
330
126C
100
AcDbEntity
  8
2
 62
     0
100
AcDbMText
 10
57.5
 20
62.8114898102599
 30
0.0
 40
3.5
 41
0.0
 71
     5
 72
     1
  1
\A1;25
  7
STANDARD 3.5 mm
 73
     1
 44
1.0
1001
ACAD
1000
MTEXTBEGIN
1070
    73
1070
     1
1070
    44
1040
1.0
1070
    74
1070
     0
1000
MTEXTEND
  0
POINT
  5
24DB
330
126C
100
AcDbEntity
  8
DEFPOINTS
 62
     0
100
AcDbPoint
 10
70
 20
10.8949999999999
 30
0.0
  0
POINT
  5
24DC
330
126C
100
AcDbEntity
  8
DEFPOINTS
 62
     0
100
AcDbPoint
 10
45
 20
14.025
 30
0.0
  0
POINT
  5
24DD
330
126C
100
AcDbEntity
  8
DEFPOINTS
 62
     0
100
AcDbPoint
 10
45
 20
59.9999999999999
 30
0.0
  0
ENDBLK
  5
126E
330
126C
100
AcDbEntity
  8
0
100
AcDbBlockEnd
  0
BLOCK
  5
128E
330
128D
100
AcDbEntity
  8
0
100
AcDbBlockBegin
  2
*D11
 70
     1
 10
0.0
 20
0.0
 30
0.0
  3
*D11
  1

  0
LINE
  5
24CC
330
128D
100
AcDbEntity
  8
SK2
 62
     0
100
AcDbLine
 10
70
 20
11.8949999999999
 30
0.0
 11
70
 21
76.9999999999999
 31
0.0
  0
LINE
  5
24CD
330
128D
100
AcDbEntity
  8
SK2
 62
     0
100
AcDbLine
 10
44
 20
5.17500000000004
 30
0.0
 11
44
 21
76.9999999999999
 31
0.0
  0
LINE
  5
24CE
330
128D
100
AcDbEntity
  8
SK2
 62
     0
100
AcDbLine
 10
67.5
 20
74.9999999999999
 30
0.0
 11
46.5
 21
74.9999999999999
 31
0.0
  0
SOLID
  5
24CF
330
128D
100
AcDbEntity
  8
SK2
 62
     0
100
AcDbTrace
 10
67.5
 20
75.4166666666666
 30
0.0
 11
67.5
 21
74.5833333333332
 31
0.0
 12
70
 22
74.9999999999999
 32
0.0
 13
70
 23
74.9999999999999
 33
0.0
  0
SOLID
  5
24D0
330
128D
100
AcDbEntity
  8
SK2
 62
     0
100
AcDbTrace
 10
46.5
 20
75.4166666666666
 30
0.0
 11
46.5
 21
74.5833333333332
 31
0.0
 12
44
 22
74.9999999999999
 32
0.0
 13
44
 23
74.9999999999999
 33
0.0
  0
MTEXT
  5
24D1
330
128D
100
AcDbEntity
  8
SK2
 62
     0
100
AcDbMText
 10
57
 20
77.8114898102599
 30
0.0
 40
3.5
 41
0.0
 71
     5
 72
     1
  1
\A1;26
  7
STANDARD 3.5 mm
 73
     1
 44
1.0
1001
ACAD
1000
MTEXTBEGIN
1070
    73
1070
     1
1070
    44
1040
1.0
1070
    74
1070
     0
1000
MTEXTEND
  0
POINT
  5
24D2
330
128D
100
AcDbEntity
  8
DEFPOINTS
 62
     0
100
AcDbPoint
 10
70
 20
10.8949999999999
 30
0.0
  0
POINT
  5
24D3
330
128D
100
AcDbEntity
  8
DEFPOINTS
 62
     0
100
AcDbPoint
 10
44
 20
4.17500000000004
 30
0.0
  0
POINT
  5
24D4
330
128D
100
AcDbEntity
  8
DEFPOINTS
 62
     0
100
AcDbPoint
 10
44
 20
74.9999999999999
 30
0.0
  0
ENDBLK
  5
128F
330
128D
100
AcDbEntity
  8
0
100
AcDbBlockEnd
  0
BLOCK
  5
12AF
330
12AE
100
AcDbEntity
  8
0
100
AcDbBlockBegin
  2
*D12
 70
     1
 10
0.0
 20
0.0
 30
0.0
  3
*D12
  1

  0
LINE
  5
24C3
330
12AE
100
AcDbEntity
  8
SK2
 62
     0
100
AcDbLine
 10
70
 20
11.8949999999999
 30
0.0
 11
70
 21
91.9999999999999
 31
0.0
  0
LINE
  5
24C4
330
12AE
100
AcDbEntity
  8
SK2
 62
     0
100
AcDbLine
 10
33
 20
4.99999999999991
 30
0.0
 11
33
 21
91.9999999999999
 31
0.0
  0
LINE
  5
24C5
330
12AE
100
AcDbEntity
  8
SK2
 62
     0
100
AcDbLine
 10
67.5
 20
89.9999999999999
 30
0.0
 11
35.5
 21
89.9999999999999
 31
0.0
  0
SOLID
  5
24C6
330
12AE
100
AcDbEntity
  8
SK2
 62
     0
100
AcDbTrace
 10
67.5
 20
90.4166666666666
 30
0.0
 11
67.5
 21
89.5833333333332
 31
0.0
 12
70
 22
89.9999999999999
 32
0.0
 13
70
 23
89.9999999999999
 33
0.0
  0
SOLID
  5
24C7
330
12AE
100
AcDbEntity
  8
SK2
 62
     0
100
AcDbTrace
 10
35.5
 20
90.4166666666666
 30
0.0
 11
35.5
 21
89.5833333333332
 31
0.0
 12
33
 22
89.9999999999999
 32
0.0
 13
33
 23
89.9999999999999
 33
0.0
  0
MTEXT
  5
24C8
330
12AE
100
AcDbEntity
  8
SK2
 62
     0
100
AcDbMText
 10
51.5
 20
92.8114898102599
 30
0.0
 40
3.5
 41
0.0
 71
     5
 72
     1
  1
\A1;37
  7
STANDARD 3.5 mm
 73
     1
 44
1.0
1001
ACAD
1000
MTEXTBEGIN
1070
    73
1070
     1
1070
    44
1040
1.0
1070
    74
1070
     0
1000
MTEXTEND
  0
POINT
  5
24C9
330
12AE
100
AcDbEntity
  8
DEFPOINTS
 62
     0
100
AcDbPoint
 10
70
 20
10.8949999999999
 30
0.0
  0
POINT
  5
24CA
330
12AE
100
AcDbEntity
  8
DEFPOINTS
 62
     0
100
AcDbPoint
 10
33
 20
3.99999999999991
 30
0.0
  0
POINT
  5
24CB
330
12AE
100
AcDbEntity
  8
DEFPOINTS
 62
     0
100
AcDbPoint
 10
33
 20
89.9999999999999
 30
0.0
  0
ENDBLK
  5
12B0
330
12AE
100
AcDbEntity
  8
0
100
AcDbBlockEnd
  0
BLOCK
  5
135D
330
135C
100
AcDbEntity
  8
0
100
AcDbBlockBegin
  2
*D13
 70
     1
 10
0.0
 20
0.0
 30
0.0
  3
*D13
  1

  0
LINE
  5
2523
330
135C
100
AcDbEntity
  8
SK2
 62
     0
100
AcDbLine
 10
70.4803839999997
 20
3.99999999999975
 30
0.0
 11
92.0000000000005
 21
3.99999999999975
 31
0.0
  0
LINE
  5
2524
330
135C
100
AcDbEntity
  8
SK2
 62
     0
100
AcDbLine
 10
70.4803839999997
 20
-4.00000000000009
 30
0.0
 11
92.0000000000005
 21
-4.00000000000008
 31
0.0
  0
LINE
  5
2525
330
135C
100
AcDbEntity
  8
SK2
 62
     0
100
AcDbLine
 10
90.0000000000005
 20
1.49999999999975
 30
0.0
 11
90.0000000000005
 21
-1.50000000000008
 31
0.0
  0
SOLID
  5
2526
330
135C
100
AcDbEntity
  8
SK2
 62
     0
100
AcDbTrace
 10
89.5833333333338
 20
1.49999999999975
 30
0.0
 11
90.4166666666671
 21
1.49999999999975
 31
0.0
 12
90.0000000000005
 22
3.99999999999975
 32
0.0
 13
90.0000000000005
 23
3.99999999999975
 33
0.0
  0
SOLID
  5
2527
330
135C
100
AcDbEntity
  8
SK2
 62
     0
100
AcDbTrace
 10
89.5833333333338
 20
-1.50000000000008
 30
0.0
 11
90.4166666666671
 21
-1.50000000000008
 31
0.0
 12
90.0000000000005
 22
-4.00000000000008
 32
0.0
 13
90.0000000000005
 23
-4.00000000000008
 33
0.0
  0
MTEXT
  5
2528
330
135C
100
AcDbEntity
  8
SK2
 62
     0
100
AcDbMText
 10
87.136858749122
 20
-1.926E-13
 30
0.0
 40
3.5
 41
0.0
 71
     5
 72
     1
  1
\A1;%%c8
  7
STANDARD 3.5 mm
 11
0.0000000000000001
 21
1.0
 31
0.0
 73
     1
 44
1.0
1001
ACAD
1000
MTEXTBEGIN
1070
    73
1070
     1
1070
    44
1040
1.0
1070
    74
1070
     0
1000
MTEXTEND
  0
POINT
  5
2529
330
135C
100
AcDbEntity
  8
DEFPOINTS
 62
     0
100
AcDbPoint
 10
69.4803839999997
 20
3.99999999999975
 30
0.0
  0
POINT
  5
252A
330
135C
100
AcDbEntity
  8
DEFPOINTS
 62
     0
100
AcDbPoint
 10
69.4803839999997
 20
-4.00000000000009
 30
0.0
  0
POINT
  5
252B
330
135C
100
AcDbEntity
  8
DEFPOINTS
 62
     0
100
AcDbPoint
 10
90.0000000000005
 20
-4.00000000000008
 30
0.0
  0
ENDBLK
  5
135E
330
135C
100
AcDbEntity
  8
0
100
AcDbBlockEnd
  0
BLOCK
  5
154B
330
154A
100
AcDbEntity
  8
0
100
AcDbBlockBegin
  2
*D14
 70
     1
 10
0.0
 20
0.0
 30
0.0
  3
*D14
  1

  0
LINE
  5
154C
330
154A
100
AcDbEntity
  8
SK2
 62
     0
100
AcDbLine
 10
31
 20
2.99999999999992
 30
0.0
 11
33.6239644732387
 21
2.99999999999992
 31
0.0
  0
LINE
  5
154D
330
154A
100
AcDbEntity
  8
SK2
 62
     0
100
AcDbLine
 10
31
 20
-3.00000000000009
 30
0.0
 11
33.6239644732387
 21
-3.00000000000009
 31
0.0
  0
LINE
  5
154E
330
154A
100
AcDbEntity
  8
SK2
 62
     0
100
AcDbLine
 10
31.6239644732387
 20
5.49999999999992
 30
0.0
 11
31.6239644732387
 21
7.99999999999992
 31
0.0
  0
LINE
  5
154F
330
154A
100
AcDbEntity
  8
SK2
 62
     0
100
AcDbLine
 10
31.6239644732387
 20
-5.50000000000009
 30
0.0
 11
31.6239644732387
 21
-15.531623330991
 31
0.0
  0
LINE
  5
1550
330
154A
100
AcDbEntity
  8
SK2
 62
     0
100
AcDbLine
 10
31.6239644732387
 20
2.99999999999992
 30
0.0
 11
31.6239644732387
 21
-3.00000000000009
 31
0.0
  0
SOLID
  5
1551
330
154A
100
AcDbEntity
  8
SK2
 62
     0
100
AcDbTrace
 10
31.207297806572
 20
5.49999999999992
 30
0.0
 11
32.0406311399054
 21
5.49999999999992
 31
0.0
 12
31.6239644732387
 22
2.99999999999992
 32
0.0
 13
31.6239644732387
 23
2.99999999999992
 33
0.0
  0
SOLID
  5
1552
330
154A
100
AcDbEntity
  8
SK2
 62
     0
100
AcDbTrace
 10
31.207297806572
 20
-5.50000000000009
 30
0.0
 11
32.0406311399054
 21
-5.50000000000009
 31
0.0
 12
31.6239644732387
 22
-3.00000000000009
 32
0.0
 13
31.6239644732387
 23
-3.00000000000009
 33
0.0
  0
MTEXT
  5
1553
330
154A
100
AcDbEntity
  8
SK2
 62
     0
100
AcDbMText
 10
28.8124746629787
 20
-11.7658116654955
 30
0.0
 40
3.5
 41
0.0
 71
     5
 72
     1
  1
\A1;M6
  7
STANDARD 3.5 mm
 11
0.0000000000000001
 21
1.0
 31
0.0
 73
     1
 44
1.0
1001
ACAD
1000
MTEXTBEGIN
1070
    73
1070
     1
1070
    44
1040
1.0
1070
    74
1070
     0
1000
MTEXTEND
  0
POINT
  5
1554
330
154A
100
AcDbEntity
  8
DEFPOINTS
 62
     0
100
AcDbPoint
 10
30
 20
2.99999999999991
 30
0.0
  0
POINT
  5
1555
330
154A
100
AcDbEntity
  8
DEFPOINTS
 62
     0
100
AcDbPoint
 10
30
 20
-3.00000000000009
 30
0.0
  0
POINT
  5
1556
330
154A
100
AcDbEntity
  8
DEFPOINTS
 62
     0
100
AcDbPoint
 10
31.6239644732387
 20
-3.00000000000009
 30
0.0
  0
ENDBLK
  5
1557
330
154A
100
AcDbEntity
  8
0
100
AcDbBlockEnd
  0
BLOCK
  5
1687
330
1686
100
AcDbEntity
  8
0
100
AcDbBlockBegin
  2
*D15
 70
     1
 10
0.0
 20
0.0
 30
0.0
  3
*D15
  1

  0
LINE
  5
169E
330
1686
100
AcDbEntity
  8
SK2
 62
     0
100
AcDbLine
 10
334.793826597515
 20
117.566719128901
 30
0.0
 11
337.417791070754
 21
117.566719128901
 31
0.0
  0
LINE
  5
169F
330
1686
100
AcDbEntity
  8
SK2
 62
     0
100
AcDbLine
 10
334.793826597515
 20
111.566719128901
 30
0.0
 11
337.417791070754
 21
111.566719128901
 31
0.0
  0
LINE
  5
16A0
330
1686
100
AcDbEntity
  8
SK2
 62
     0
100
AcDbLine
 10
335.417791070754
 20
120.066719128901
 30
0.0
 11
335.417791070754
 21
122.566719128901
 31
0.0
  0
LINE
  5
16A1
330
1686
100
AcDbEntity
  8
SK2
 62
     0
100
AcDbLine
 10
335.417791070754
 20
109.066719128901
 30
0.0
 11
335.417791070754
 21
99.0350957979105
 31
0.0
  0
LINE
  5
16A2
330
1686
100
AcDbEntity
  8
SK2
 62
     0
100
AcDbLine
 10
335.417791070754
 20
117.566719128901
 30
0.0
 11
335.417791070754
 21
111.566719128901
 31
0.0
  0
SOLID
  5
16A3
330
1686
100
AcDbEntity
  8
SK2
 62
     0
100
AcDbTrace
 10
335.001124404087
 20
120.066719128901
 30
0.0
 11
335.834457737421
 21
120.066719128901
 31
0.0
 12
335.417791070754
 22
117.566719128901
 32
0.0
 13
335.417791070754
 23
117.566719128901
 33
0.0
  0
SOLID
  5
16A4
330
1686
100
AcDbEntity
  8
SK2
 62
     0
100
AcDbTrace
 10
335.001124404087
 20
109.066719128901
 30
0.0
 11
335.834457737421
 21
109.066719128901
 31
0.0
 12
335.417791070754
 22
111.566719128901
 32
0.0
 13
335.417791070754
 23
111.566719128901
 33
0.0
  0
MTEXT
  5
16A5
330
1686
100
AcDbEntity
  8
SK2
 62
     0
100
AcDbMText
 10
332.606301260494
 20
102.800907463406
 30
0.0
 40
3.5
 41
0.0
 71
     5
 72
     1
  1
\A1;M6
  7
STANDARD 3.5 mm
 11
0.0000000000000001
 21
1.0
 31
0.0
 73
     1
 44
1.0
1001
ACAD
1000
MTEXTBEGIN
1070
    73
1070
     1
1070
    44
1040
1.0
1070
    74
1070
     0
1000
MTEXTEND
  0
POINT
  5
16A6
330
1686
100
AcDbEntity
  8
DEFPOINTS
 62
     0
100
AcDbPoint
 10
333.793826597515
 20
117.566719128901
 30
0.0
  0
POINT
  5
16A7
330
1686
100
AcDbEntity
  8
DEFPOINTS
 62
     0
100
AcDbPoint
 10
333.793826597515
 20
111.566719128901
 30
0.0
  0
POINT
  5
16A8
330
1686
100
AcDbEntity
  8
DEFPOINTS
 62
     0
100
AcDbPoint
 10
335.417791070754
 20
111.566719128901
 30
0.0
  0
ENDBLK
  5
1688
330
1686
100
AcDbEntity
  8
0
100
AcDbBlockEnd
  0
ENDSEC
  0
SECTION
  2
ENTITIES
  0
LINE
  5
FED
330
18
100
AcDbEntity
  8
1
100
AcDbLine
 10
25.55
 20
-8.0500000000001
 30
0.0
 11
21.585937
 21
-8.0500000000001
 31
0.0
  0
LINE
  5
FEE
330
18
100
AcDbEntity
  8
1
100
AcDbLine
 10
21.585937
 20
-31.4700000000001
 30
0.0
 11
21.585937
 21
-8.0500000000001
 31
0.0
  0
LINE
  5
FEF
330
18
100
AcDbEntity
  8
1
100
AcDbLine
 10
25.55
 20
7.99999999999991
 30
0.0
 11
21.585937
 21
7.99999999999991
 31
0.0
  0
LINE
  5
FF0
330
18
100
AcDbEntity
  8
1
100
AcDbLine
 10
25.55
 20
31.4699999999999
 30
0.0
 11
21.585937
 21
31.4699999999999
 31
0.0
  0
LINE
  5
FF1
330
18
100
AcDbEntity
  8
1
100
AcDbLine
 10
21.085937
 20
7.99999999999991
 30
0.0
 11
21.085937
 21
30.9699999999999
 31
0.0
  0
LINE
  5
FF2
330
18
100
AcDbEntity
  8
1
100
AcDbLine
 10
21.585937
 20
7.99999999999991
 30
0.0
 11
21.585937
 21
31.4699999999999
 31
0.0
  0
LINE
  5
FF3
330
18
100
AcDbEntity
  8
1
100
AcDbLine
 10
21.585937
 20
31.4699999999999
 30
0.0
 11
21.085937
 21
30.9699999999999
 31
0.0
  0
LINE
  5
FF4
330
18
100
AcDbEntity
  8
1
100
AcDbLine
 10
14.914063
 20
7.99999999999991
 30
0.0
 11
14.914063
 21
30.9699999999999
 31
0.0
  0
LINE
  5
FF5
330
18
100
AcDbEntity
  8
1
100
AcDbLine
 10
14.914063
 20
30.9699999999999
 30
0.0
 11
14.414063
 21
31.4699999999999
 31
0.0
  0
LINE
  5
FF6
330
18
100
AcDbEntity
  8
1
100
AcDbLine
 10
25.55
 20
31.4699999999999
 30
0.0
 11
25.55
 21
7.99999999999991
 31
0.0
  0
LINE
  5
FF7
330
18
100
AcDbEntity
  8
1
100
AcDbLine
 10
25.95
 20
31.0700000000001
 30
0.0
 11
25.55
 21
31.4699999999999
 31
0.0
  0
LINE
  5
FF8
330
18
100
AcDbEntity
  8
1
100
AcDbLine
 10
0.5
 20
-31.4700000000001
 30
0.0
 11
0
 21
-30.9699999999999
 31
0.0
  0
LINE
  5
FF9
330
18
100
AcDbEntity
  8
1
100
AcDbLine
 10
0.5
 20
31.4699999999999
 30
0.0
 11
0
 21
30.9699999999999
 31
0.0
  0
LINE
  5
FFA
102
{ACAD_REACTORS
330
1210
102
}
330
18
100
AcDbEntity
  8
1
100
AcDbLine
 10
0
 20
-30.9699999999999
 30
0.0
 11
0
 21
30.9699999999999
 31
0.0
  0
LINE
  5
FFB
330
18
100
AcDbEntity
  8
1
100
AcDbLine
 10
4.94999999999982
 20
-0.0500000000000966
 30
0.0
 11
4.94999999999982
 21
-8.53E-14
 31
0.0
  0
LINE
  5
FFE
330
18
100
AcDbEntity
  8
1
100
AcDbLine
 10
14.414063
 20
-31.4700000000001
 30
0.0
 11
14.414063
 21
-8.0500000000001
 31
0.0
  0
LINE
  5
FFF
330
18
100
AcDbEntity
  8
1
100
AcDbLine
 10
14.414063
 20
-8.0500000000001
 30
0.0
 11
12.9499999999998
 21
-8.0500000000001
 31
0.0
  0
LINE
  5
1000
330
18
100
AcDbEntity
  8
1
100
AcDbLine
 10
14.414063
 20
7.99999999999991
 30
0.0
 11
12.9499999999998
 21
7.99999999999991
 31
0.0
  0
LINE
  5
1001
330
18
100
AcDbEntity
  8
1
100
AcDbLine
 10
14.414063
 20
7.99999999999991
 30
0.0
 11
14.414063
 21
31.4699999999999
 31
0.0
  0
LINE
  5
1002
330
18
100
AcDbEntity
  8
1
100
AcDbLine
 10
12.0225
 20
31.4699999999999
 30
0.0
 11
14.414063
 21
31.4699999999999
 31
0.0
  0
LINE
  5
1003
330
18
100
AcDbEntity
  8
1
100
AcDbLine
 10
70
 20
10.8949999999999
 30
0.0
 11
67.9128789999998
 21
12.1
 31
0.0
  0
LINE
  5
1004
330
18
100
AcDbEntity
  8
1
100
AcDbLine
 10
70
 20
-10.8950000000001
 30
0.0
 11
67.9128789999998
 21
-12.0999999999999
 31
0.0
  0
LINE
  5
1005
102
{ACAD_REACTORS
330
11EF
330
1210
330
1231
330
1279
330
129A
330
12BB
102
}
330
18
100
AcDbEntity
  8
1
100
AcDbLine
 10
70
 20
-10.8950000000001
 30
0.0
 11
70
 21
10.8949999999999
 31
0.0
  0
LINE
  5
1006
330
18
100
AcDbEntity
  8
1
100
AcDbLine
 10
53.2910519999998
 20
-14.0250000000001
 30
0.0
 11
45
 21
-14.0250000000001
 31
0.0
  0
LINE
  5
1007
102
{ACAD_REACTORS
330
10EC
102
}
330
18
100
AcDbEntity
  8
1
100
AcDbLine
 10
53.2910519999998
 20
14.025
 30
0.0
 11
45
 21
14.025
 31
0.0
  0
LINE
  5
1008
330
18
100
AcDbEntity
  8
1
100
AcDbLine
 10
53.2910519999998
 20
14.025
 30
0.0
 11
53.2910519999998
 21
-14.0250000000001
 31
0.0
  0
LINE
  5
1009
102
{ACAD_REACTORS
330
1165
102
}
330
18
100
AcDbEntity
  8
1
100
AcDbLine
 10
53.2910519999998
 20
-14.0250000000001
 30
0.0
 11
67.9128789999998
 21
-12.0999999999999
 31
0.0
  0
LINE
  5
100A
330
18
100
AcDbEntity
  8
1
100
AcDbLine
 10
67.9128789999998
 20
12.1
 30
0.0
 11
67.9128789999998
 21
-12.0999999999999
 31
0.0
  0
LINE
  5
100B
102
{ACAD_REACTORS
330
10EC
330
1165
102
}
330
18
100
AcDbEntity
  8
1
100
AcDbLine
 10
53.2910519999998
 20
14.025
 30
0.0
 11
67.9128789999998
 21
12.1
 31
0.0
  0
LINE
  5
100C
102
{ACAD_REACTORS
330
1279
102
}
330
18
100
AcDbEntity
  8
1
100
AcDbLine
 10
45
 20
14.025
 30
0.0
 11
45
 21
-14.0250000000001
 31
0.0
  0
LINE
  5
100E
330
18
100
AcDbEntity
  8
1
100
AcDbLine
 10
14.914063
 20
-30.9699999999999
 30
0.0
 11
16.0875
 21
-28.9375469999999
 31
0.0
  0
LINE
  5
100F
330
18
100
AcDbEntity
  8
1
100
AcDbLine
 10
21.585937
 20
-31.4700000000001
 30
0.0
 11
25.55
 21
-31.4700000000001
 31
0.0
  0
LINE
  5
1012
330
18
100
AcDbEntity
  8
1
100
AcDbLine
 10
21.085937
 20
-30.9699999999999
 30
0.0
 11
21.585937
 21
-31.4700000000001
 31
0.0
  0
LINE
  5
1014
330
18
100
AcDbEntity
  8
1
100
AcDbLine
 10
14.414063
 20
-31.4700000000001
 30
0.0
 11
14.914063
 21
-30.9699999999999
 31
0.0
  0
LINE
  5
1015
330
18
100
AcDbEntity
  8
SK1
100
AcDbLine
 10
-1.42E-14
 20
-24.3206216247131
 30
0.0
 11
-30.760043
 21
-22.7795850000001
 31
0.0
  0
LINE
  5
1017
330
18
100
AcDbEntity
  8
SK1
100
AcDbLine
 10
-30.760043
 20
22.7795850000003
 30
0.0
 11
-1.42E-14
 21
24.3206216247132
 31
0.0
  0
LINE
  5
1018
330
18
100
AcDbEntity
  8
SK1
100
AcDbLine
 10
-25.8
 20
4.86999999999992
 30
0.0
 11
-25.8
 21
-4.86999999999992
 31
0.0
  0
LINE
  5
101A
330
18
100
AcDbEntity
  8
1
100
AcDbLine
 10
40.8787339999998
 20
23.8090399999999
 30
0.0
 11
40.8787339999998
 21
-16.4135170000001
 31
0.0
  0
LINE
  5
101B
330
18
100
AcDbEntity
  8
1
100
AcDbLine
 10
38.999349
 20
-24.6102630000001
 30
0.0
 11
35.276505
 21
-24.6102630000001
 31
0.0
  0
LINE
  5
101C
330
18
100
AcDbEntity
  8
1
100
AcDbLine
 10
26.75
 20
-24.6102630000001
 30
0.0
 11
31.723495
 21
-24.6102630000001
 31
0.0
  0
LINE
  5
101D
330
18
100
AcDbEntity
  8
1
100
AcDbLine
 10
41.263808
 20
-22.7510599999999
 30
0.0
 11
44.248246
 21
-14.551384
 31
0.0
  0
LINE
  5
101E
330
18
100
AcDbEntity
  8
1
100
AcDbLine
 10
44.248246
 20
14.5513839999999
 30
0.0
 11
44.248246
 21
-14.551384
 31
0.0
  0
LINE
  5
101F
330
18
100
AcDbEntity
  8
1
100
AcDbLine
 10
40.8787339999998
 20
23.8090399999999
 30
0.0
 11
44.248246
 21
14.5513839999999
 31
0.0
  0
LINE
  5
1023
330
18
100
AcDbEntity
  8
SK1
100
AcDbLine
 10
-13.2493740000002
 20
-8.53E-14
 30
0.0
 11
-12.75
 21
-8.53E-14
 31
0.0
  0
LINE
  5
1024
330
18
100
AcDbEntity
  8
SK1
100
AcDbLine
 10
-4.75062700000001
 20
-8.53E-14
 30
0.0
 11
-5.25
 21
-8.53E-14
 31
0.0
  0
LINE
  5
1028
330
18
100
AcDbEntity
  8
1
100
AcDbLine
 10
19.2125
 20
27.4749999999999
 30
0.0
 11
19.2125
 21
7.61023100000008
 31
0.0
  0
LINE
  5
1029
330
18
100
AcDbEntity
  8
1
100
AcDbLine
 10
16.0875
 20
-8.0500000000001
 30
0.0
 11
16.0875
 21
-28.9375469999999
 31
0.0
  0
LINE
  5
102A
330
18
100
AcDbEntity
  8
1
100
AcDbLine
 10
19.9125
 20
7.99999999999991
 30
0.0
 11
19.9125
 21
28.9375470000001
 31
0.0
  0
LINE
  5
102B
330
18
100
AcDbEntity
  8
1
100
AcDbLine
 10
21.085937
 20
30.9699999999999
 30
0.0
 11
19.9125
 21
28.9375470000001
 31
0.0
  0
LINE
  5
102C
330
18
100
AcDbEntity
  8
1
100
AcDbLine
 10
16.0875
 20
28.9375470000001
 30
0.0
 11
16.0875
 21
7.99999999999991
 31
0.0
  0
LINE
  5
102D
330
18
100
AcDbEntity
  8
1
100
AcDbLine
 10
16.0875
 20
28.9375470000001
 30
0.0
 11
14.914063
 21
30.9699999999999
 31
0.0
  0
LINE
  5
102E
330
18
100
AcDbEntity
  8
1
100
AcDbLine
 10
21.085937
 20
-8.0500000000001
 30
0.0
 11
21.085937
 21
-30.9699999999999
 31
0.0
  0
LINE
  5
102F
330
18
100
AcDbEntity
  8
1
100
AcDbLine
 10
14.914063
 20
-8.0500000000001
 30
0.0
 11
14.914063
 21
-30.9699999999999
 31
0.0
  0
LINE
  5
1031
330
18
100
AcDbEntity
  8
1
100
AcDbLine
 10
25.55
 20
-8.0500000000001
 30
0.0
 11
25.55
 21
-31.4700000000001
 31
0.0
  0
LINE
  5
1033
330
18
100
AcDbEntity
  8
1
100
AcDbLine
 10
19.9125
 20
-8.0500000000001
 30
0.0
 11
19.9125
 21
-28.9375469999999
 31
0.0
  0
LINE
  5
1034
330
18
100
AcDbEntity
  8
1
100
AcDbLine
 10
19.9125
 20
-28.9375469999999
 30
0.0
 11
21.085937
 21
-30.9699999999999
 31
0.0
  0
LINE
  5
1035
102
{ACAD_REACTORS
330
1231
102
}
330
18
100
AcDbEntity
  8
1
100
AcDbLine
 10
25.95
 20
31.0700000000001
 30
0.0
 11
25.95
 21
-31.0700000000001
 31
0.0
  0
LINE
  5
1037
330
18
100
AcDbEntity
  8
1
100
AcDbLine
 10
25.55
 20
-31.4700000000001
 30
0.0
 11
25.95
 21
-31.0700000000001
 31
0.0
  0
LINE
  5
1038
330
18
100
AcDbEntity
  8
SK1
100
AcDbLine
 10
-30.75
 20
-6.26999999999995
 30
0.0
 11
-31.9
 21
-7.41999999999993
 31
0.0
  0
LINE
  5
1039
330
18
100
AcDbEntity
  8
SK1
100
AcDbLine
 10
-31.9
 20
7.41999999999993
 30
0.0
 11
-30.75
 21
6.27000000000007
 31
0.0
  0
LINE
  5
103A
330
18
100
AcDbEntity
  8
SK1
100
AcDbLine
 10
-31.9
 20
7.41999999999993
 30
0.0
 11
-31.9
 21
21.581088
 31
0.0
  0
LINE
  5
103B
330
18
100
AcDbEntity
  8
SK1
100
AcDbLine
 10
-30.75
 20
6.27000000000007
 30
0.0
 11
-30.75
 21
22.7800881407407
 31
0.0
  0
LINE
  5
103C
330
18
100
AcDbEntity
  8
SK1
100
AcDbLine
 10
-30.75
 20
6.27000000000007
 30
0.0
 11
-27.2
 21
6.27000000000007
 31
0.0
  0
LINE
  5
103D
330
18
100
AcDbEntity
  8
SK1
100
AcDbLine
 10
-27.2
 20
-6.26999999999995
 30
0.0
 11
-30.75
 21
-6.26999999999995
 31
0.0
  0
LINE
  5
103E
330
18
100
AcDbEntity
  8
SK1
100
AcDbLine
 10
-30.75
 20
-6.26999999999995
 30
0.0
 11
-30.75
 21
-22.7800881407408
 31
0.0
  0
LINE
  5
103F
330
18
100
AcDbEntity
  8
SK1
100
AcDbLine
 10
-31.9
 20
-7.41999999999993
 30
0.0
 11
-31.9
 21
-21.581088
 31
0.0
  0
LINE
  5
1040
330
18
100
AcDbEntity
  8
SK3
100
AcDbLine
 10
31.5
 20
-2.50000000000008
 30
0.0
 11
22.3773499999998
 21
-2.50000000000008
 31
0.0
  0
LINE
  5
1041
330
18
100
AcDbEntity
  8
SK3
100
AcDbLine
 10
22.3773499999998
 20
2.50000000000003
 30
0.0
 11
31.5
 21
2.50000000000003
 31
0.0
  0
LINE
  5
1042
330
18
100
AcDbEntity
  8
SK3
100
AcDbLine
 10
22.3773499999998
 20
-2.50000000000008
 30
0.0
 11
22.3773499999998
 21
2.50000000000003
 31
0.0
  0
LINE
  5
1043
330
18
100
AcDbEntity
  8
SK3
100
AcDbLine
 10
22.3773499999998
 20
-2.50000000000008
 30
0.0
 11
21.8
 21
-3.50000000000008
 31
0.0
  0
LINE
  5
1044
330
18
100
AcDbEntity
  8
SK3
100
AcDbLine
 10
22.3773499999998
 20
2.50000000000003
 30
0.0
 11
21.8
 21
3.49999999999991
 31
0.0
  0
LINE
  5
1045
102
{ACAD_REACTORS
330
1369
102
}
330
18
100
AcDbEntity
  8
SK3
100
AcDbLine
 10
69.4803840000003
 20
-4.00000000000009
 30
0.0
 11
44
 21
-4.00000000000009
 31
0.0
  0
LINE
  5
1046
102
{ACAD_REACTORS
330
1369
102
}
330
18
100
AcDbEntity
  8
SK3
100
AcDbLine
 10
69.480384
 20
3.99999999999974
 30
0.0
 11
44
 21
3.99999999999991
 31
0.0
  0
LINE
  5
1047
330
18
100
AcDbEntity
  8
SK3
100
AcDbLine
 10
31.5
 20
4.17500000000004
 30
0.0
 11
31.5
 21
-4.17499999999993
 31
0.0
  0
LINE
  5
1048
330
18
100
AcDbEntity
  8
SK3
100
AcDbLine
 10
44
 20
4.17500000000004
 30
0.0
 11
44
 21
-4.17499999999993
 31
0.0
  0
LINE
  5
1049
330
18
100
AcDbEntity
  8
SK3
100
AcDbLine
 10
44
 20
-4.17499999999993
 30
0.0
 11
31.5
 21
-4.17499999999993
 31
0.0
  0
LINE
  5
104A
102
{ACAD_REACTORS
330
129A
102
}
330
18
100
AcDbEntity
  8
SK3
100
AcDbLine
 10
31.5
 20
4.17500000000004
 30
0.0
 11
44
 21
4.17500000000004
 31
0.0
  0
LINE
  5
104B
330
18
100
AcDbEntity
  8
SK3
100
AcDbLine
 10
69.480384
 20
-4.00000000000009
 30
0.0
 11
70
 21
-4.29999999999993
 31
0.0
  0
LINE
  5
104C
330
18
100
AcDbEntity
  8
SK3
100
AcDbLine
 10
69.480384
 20
3.99999999999991
 30
0.0
 11
69.480384
 21
-4.00000000000009
 31
0.0
  0
LINE
  5
104E
330
18
100
AcDbEntity
  8
1
100
AcDbLine
 10
26.75
 20
-15.4789490000001
 30
0.0
 11
38.999349
 21
-15.4789490000001
 31
0.0
  0
LINE
  5
104F
330
18
100
AcDbEntity
  8
1
100
AcDbLine
 10
38.999349
 20
25.1249999999999
 30
0.0
 11
38.999349
 21
-15.4789490000001
 31
0.0
  0
LINE
  5
1050
330
18
100
AcDbEntity
  8
1
100
AcDbLine
 10
38.999349
 20
25.1249999999999
 30
0.0
 11
26.75
 21
25.1249999999999
 31
0.0
  0
LINE
  5
1051
330
18
100
AcDbEntity
  8
1
100
AcDbLine
 10
26.75
 20
25.1249999999999
 30
0.0
 11
26.75
 21
-15.4789490000001
 31
0.0
  0
LINE
  5
1052
330
18
100
AcDbEntity
  8
1
100
AcDbLine
 10
26.05
 20
-25.5377019999999
 30
0.0
 11
26.05
 21
-15.2142330000001
 31
0.0
  0
LINE
  5
1053
330
18
100
AcDbEntity
  8
1
100
AcDbLine
 10
16.7875
 20
-27.4750000000001
 30
0.0
 11
19.2125
 21
-27.4750000000001
 31
0.0
  0
LINE
  5
1054
330
18
100
AcDbEntity
  8
1
100
AcDbLine
 10
19.2125
 20
27.4749999999999
 30
0.0
 11
16.7875
 21
27.4749999999999
 31
0.0
  0
LINE
  5
1055
330
18
100
AcDbEntity
  8
1
100
AcDbLine
 10
19.2125
 20
7.61023100000008
 30
0.0
 11
16.7875
 21
7.61023100000008
 31
0.0
  0
LINE
  5
1056
330
18
100
AcDbEntity
  8
1
100
AcDbLine
 10
19.2125
 20
-7.6102319999998
 30
0.0
 11
16.7875
 21
-7.6102319999998
 31
0.0
  0
LINE
  5
1057
330
18
100
AcDbEntity
  8
1
100
AcDbLine
 10
19.2125
 20
-27.4750000000001
 30
0.0
 11
19.2125
 21
-7.6102319999998
 31
0.0
  0
LINE
  5
1058
330
18
100
AcDbEntity
  8
1
100
AcDbLine
 10
16.7875
 20
-27.4750000000001
 30
0.0
 11
16.7875
 21
-7.6102319999998
 31
0.0
  0
LINE
  5
1059
330
18
100
AcDbEntity
  8
1
100
AcDbLine
 10
16.7875
 20
27.4749999999999
 30
0.0
 11
16.7875
 21
7.61023100000008
 31
0.0
  0
LINE
  5
105A
102
{ACAD_REACTORS
330
1369
102
}
330
18
100
AcDbEntity
  8
SK3
100
AcDbLine
 10
69.480384
 20
3.99999999999991
 30
0.0
 11
70
 21
4.29999999999993
 31
0.0
  0
LINE
  5
105B
330
18
100
AcDbEntity
  8
SK3
100
AcDbLine
 10
21.8
 20
-8.50000000000009
 30
0.0
 11
10.45
 21
-8.50000000000009
 31
0.0
  0
LINE
  5
105C
330
18
100
AcDbEntity
  8
SK3
100
AcDbLine
 10
21.8
 20
8.49999999999991
 30
0.0
 11
10.45
 21
8.49999999999991
 31
0.0
  0
LINE
  5
105D
330
18
100
AcDbEntity
  8
SK3
100
AcDbLine
 10
10.45
 20
8.49999999999991
 30
0.0
 11
10.45
 21
-8.50000000000009
 31
0.0
  0
LINE
  5
105E
330
18
100
AcDbEntity
  8
SK3
100
AcDbLine
 10
9.94999999999999
 20
-9.00000000000009
 30
0.0
 11
10.45
 21
-8.50000000000009
 31
0.0
  0
LINE
  5
105F
330
18
100
AcDbEntity
  8
SK3
100
AcDbLine
 10
9.94999999999999
 20
8.99999999999991
 30
0.0
 11
10.45
 21
8.49999999999991
 31
0.0
  0
LINE
  5
1060
330
18
100
AcDbEntity
  8
SK3
100
AcDbLine
 10
21.8
 20
8.49999999999991
 30
0.0
 11
21.8
 21
-8.50000000000009
 31
0.0
  0
LINE
  5
1061
330
18
100
AcDbEntity
  8
SK3
100
AcDbLine
 10
-18.98
 20
17.0249999999999
 30
0.0
 11
-30.75
 21
17.0249999999999
 31
0.0
  0
LINE
  5
1062
330
18
100
AcDbEntity
  8
SK3
100
AcDbLine
 10
31.5
 20
2.1999999999999
 30
0.0
 11
30.8
 21
2.1999999999999
 31
0.0
  0
LINE
  5
1063
330
18
100
AcDbEntity
  8
SK3
100
AcDbLine
 10
31.5
 20
-2.20000000000007
 30
0.0
 11
30.8
 21
-2.20000000000007
 31
0.0
  0
LINE
  5
1064
330
18
100
AcDbEntity
  8
SK3
100
AcDbLine
 10
30
 20
2.99999999999991
 30
0.0
 11
19.4999999999998
 21
2.99999999999991
 31
0.0
  0
LINE
  5
1065
330
18
100
AcDbEntity
  8
SK3
100
AcDbLine
 10
30
 20
-3.00000000000008
 30
0.0
 11
19.4999999999998
 21
-3.00000000000008
 31
0.0
  0
LINE
  5
1066
330
18
100
AcDbEntity
  8
SK3
100
AcDbLine
 10
19
 20
2.50000000000003
 30
0.0
 11
19.4999999999998
 21
2.99999999999991
 31
0.0
  0
LINE
  5
1067
330
18
100
AcDbEntity
  8
SK3
100
AcDbLine
 10
19
 20
-2.50000000000008
 30
0.0
 11
19
 21
2.50000000000003
 31
0.0
  0
LINE
  5
1068
330
18
100
AcDbEntity
  8
SK3
100
AcDbLine
 10
19
 20
-2.50000000000008
 30
0.0
 11
19.4999999999998
 21
-3.00000000000008
 31
0.0
  0
LINE
  5
1069
330
18
100
AcDbEntity
  8
SK3
100
AcDbLine
 10
19.4999999999998
 20
-3.00000000000008
 30
0.0
 11
19.4999999999998
 21
2.99999999999991
 31
0.0
  0
LINE
  5
106A
330
18
100
AcDbEntity
  8
SK3
100
AcDbLine
 10
30.8
 20
-2.20000000000007
 30
0.0
 11
30.8
 21
2.1999999999999
 31
0.0
  0
LINE
  5
106B
330
18
100
AcDbEntity
  8
SK3
100
AcDbLine
 10
30
 20
2.99999999999991
 30
0.0
 11
30.8
 21
2.1999999999999
 31
0.0
  0
LINE
  5
106C
102
{ACAD_REACTORS
330
1254
102
}
330
18
100
AcDbEntity
  8
SK3
100
AcDbLine
 10
30
 20
-3.00000000000008
 30
0.0
 11
30
 21
2.99999999999991
 31
0.0
  0
LINE
  5
106D
102
{ACAD_REACTORS
330
1254
102
}
330
18
100
AcDbEntity
  8
SK3
100
AcDbLine
 10
30
 20
-3.00000000000008
 30
0.0
 11
30.8
 21
-2.20000000000007
 31
0.0
  0
LINE
  5
106E
330
18
100
AcDbEntity
  8
SK3
100
AcDbLine
 10
33
 20
-4.00000000000009
 30
0.0
 11
33
 21
3.99999999999991
 31
0.0
  0
LINE
  5
106F
102
{ACAD_REACTORS
330
12BB
102
}
330
18
100
AcDbEntity
  8
SK3
100
AcDbLine
 10
31.5
 20
3.99999999999991
 30
0.0
 11
33
 21
3.99999999999991
 31
0.0
  0
LINE
  5
1070
330
18
100
AcDbEntity
  8
SK3
100
AcDbLine
 10
31.5
 20
-4.00000000000009
 30
0.0
 11
33
 21
-4.00000000000009
 31
0.0
  0
LINE
  5
1071
330
18
100
AcDbEntity
  8
SK3
100
AcDbLine
 10
-18.98
 20
-17.0250000000001
 30
0.0
 11
-30.75
 21
-17.0250000000001
 31
0.0
  0
LINE
  5
1072
330
18
100
AcDbEntity
  8
SK3
100
AcDbLine
 10
9.94999999999999
 20
-17.0250000000001
 30
0.0
 11
0.356977999999799
 21
-17.0250000000001
 31
0.0
  0
LINE
  5
1073
330
18
100
AcDbEntity
  8
SK3
100
AcDbLine
 10
9.94999999999999
 20
17.0249999999999
 30
0.0
 11
0.356977999999799
 21
17.0249999999999
 31
0.0
  0
LINE
  5
1074
330
18
100
AcDbEntity
  8
SK3
100
AcDbLine
 10
9.94999999999999
 20
17.0249999999999
 30
0.0
 11
9.94999999999999
 21
-17.0250000000001
 31
0.0
  0
LINE
  5
1075
330
18
100
AcDbEntity
  8
SK3
100
AcDbLine
 10
-18.98
 20
-17.0250000000001
 30
0.0
 11
-17.412494
 21
-19.7400000000001
 31
0.0
  0
LINE
  5
1076
330
18
100
AcDbEntity
  8
SK3
100
AcDbLine
 10
-18.98
 20
17.0249999999999
 30
0.0
 11
-18.98
 21
-17.0250000000001
 31
0.0
  0
LINE
  5
1077
330
18
100
AcDbEntity
  8
SK3
100
AcDbLine
 10
-18.98
 20
17.0249999999999
 30
0.0
 11
-17.412494
 21
19.7399999999999
 31
0.0
  0
LINE
  5
1078
330
18
100
AcDbEntity
  8
SK3
100
AcDbLine
 10
0.356977999999799
 20
17.0249999999999
 30
0.0
 11
0.356977999999799
 21
-17.0250000000001
 31
0.0
  0
LINE
  5
1079
330
18
100
AcDbEntity
  8
SK3
100
AcDbLine
 10
-16.892879
 20
-20.04
 30
0.0
 11
-5.89999999999998
 21
-20.04
 31
0.0
  0
LINE
  5
107A
330
18
100
AcDbEntity
  8
SK3
100
AcDbLine
 10
-16.892879
 20
20.0399999999999
 30
0.0
 11
-5.89999999999998
 21
20.0399999999999
 31
0.0
  0
LINE
  5
107B
330
18
100
AcDbEntity
  8
SK3
100
AcDbLine
 10
-16.892879
 20
20.0399999999999
 30
0.0
 11
-16.892879
 21
-20.04
 31
0.0
  0
LINE
  5
107C
330
18
100
AcDbEntity
  8
SK3
100
AcDbLine
 10
-17.412494
 20
19.7399999999999
 30
0.0
 11
-17.412494
 21
-19.7400000000001
 31
0.0
  0
LINE
  5
107D
330
18
100
AcDbEntity
  8
1
100
AcDbLine
 10
0.5
 20
31.4699999999999
 30
0.0
 11
1.97750000000002
 21
31.4699999999999
 31
0.0
  0
LINE
  5
107E
330
18
100
AcDbEntity
  8
1
100
AcDbLine
 10
0.5
 20
31.4699999999999
 30
0.0
 11
0.5
 21
-31.4700000000001
 31
0.0
  0
LINE
  5
107F
330
18
100
AcDbEntity
  8
1
100
AcDbLine
 10
0.5
 20
-31.4700000000001
 30
0.0
 11
14.414063
 21
-31.4700000000001
 31
0.0
  0
ARC
  5
1081
330
18
100
AcDbEntity
  8
1
100
AcDbCircle
 10
45
 20
-14.8250000000001
 30
0.0
 40
0.8
100
AcDbArc
 50
90.0
 51
160.0000000000003
  0
ARC
  5
1082
330
18
100
AcDbEntity
  8
1
100
AcDbCircle
 10
45
 20
14.8249999999999
 30
0.0
 40
0.8
100
AcDbArc
 50
199.9999999999997
 51
270.0
  0
ARC
  5
1085
102
{ACAD_REACTORS
330
11CE
102
}
330
18
100
AcDbEntity
  8
1
100
AcDbCircle
 10
38.999349
 20
23.1249999999999
 30
0.0
 40
2.0
100
AcDbArc
 50
19.99999999999971
 51
90.0
  0
ARC
  5
1086
102
{ACAD_REACTORS
330
11EF
102
}
330
18
100
AcDbEntity
  8
SK1
100
AcDbCircle
 10
-30.6999999999999
 20
21.581088
 30
0.0
 40
1.199999999999999
100
AcDbArc
 50
92.8680430000004
 51
180.0
  0
ARC
  5
1087
330
18
100
AcDbEntity
  8
SK1
100
AcDbCircle
 10
-27.2
 20
-4.86999999999992
 30
0.0
 40
1.399999999999999
100
AcDbArc
 50
270.0
 51
0.0
  0
ARC
  5
1088
330
18
100
AcDbEntity
  8
SK1
100
AcDbCircle
 10
-27.2
 20
4.86999999999992
 30
0.0
 40
1.399999999999999
100
AcDbArc
 50
0.0
 51
90.0
  0
ARC
  5
108B
330
18
100
AcDbEntity
  8
1
100
AcDbCircle
 10
16.7875
 20
28.1749999999999
 30
0.0
 40
0.7
100
AcDbArc
 50
180.0
 51
270.0
  0
ARC
  5
108C
330
18
100
AcDbEntity
  8
1
100
AcDbCircle
 10
19.2125
 20
28.1749999999999
 30
0.0
 40
0.7
100
AcDbArc
 50
270.0
 51
0.0
  0
ARC
  5
108D
330
18
100
AcDbEntity
  8
SK1
100
AcDbCircle
 10
-30.6999999999999
 20
-21.581088
 30
0.0
 40
1.199999999999999
100
AcDbArc
 50
180.0
 51
267.1319569999996
  0
ARC
  5
108E
330
18
100
AcDbEntity
  8
1
100
AcDbCircle
 10
26.75
 20
25.9249999999999
 30
0.0
 40
0.8
100
AcDbArc
 50
180.0
 51
270.0
  0
ARC
  5
108F
330
18
100
AcDbEntity
  8
1
100
AcDbCircle
 10
26.75
 20
-25.9250000000001
 30
0.0
 40
0.8
100
AcDbArc
 50
151.0449760000003
 51
180.0
  0
ARC
  5
1090
330
18
100
AcDbEntity
  8
1
100
AcDbCircle
 10
19.2125
 20
-28.1750000000001
 30
0.0
 40
0.7
100
AcDbArc
 50
0.0
 51
90.0
  0
ARC
  5
1091
330
18
100
AcDbEntity
  8
1
100
AcDbCircle
 10
16.7875
 20
-28.1750000000001
 30
0.0
 40
0.7
100
AcDbArc
 50
90.0
 51
180.0
  0
ARC
  5
1092
330
18
100
AcDbEntity
  8
SK3
100
AcDbCircle
 10
-30.75
 20
-18.1749999999999
 30
0.0
 40
1.149999999999999
100
AcDbArc
 50
90.0
 51
180.0
  0
ARC
  5
1093
330
18
100
AcDbEntity
  8
SK3
100
AcDbCircle
 10
-30.75
 20
18.1749999999999
 30
0.0
 40
1.149999999999999
100
AcDbArc
 50
180.0
 51
270.0
  0
ARC
  5
1094
330
18
100
AcDbEntity
  8
SK3
100
AcDbCircle
 10
-5.89999999999998
 20
12.0399999999999
 30
0.0
 40
8.0
100
AcDbArc
 50
38.54469899999858
 51
90.0
  0
ARC
  5
1095
330
18
100
AcDbEntity
  8
SK3
100
AcDbCircle
 10
-5.89999999999998
 20
-12.0400000000001
 30
0.0
 40
8.0
100
AcDbArc
 50
270.0
 51
321.4553010000014
  0
ARC
  5
1096
330
18
100
AcDbEntity
  8
SK3
100
AcDbCircle
 10
-16.892879
 20
-19.4400000000001
 30
0.0
 40
0.6
100
AcDbArc
 50
210.0000000000005
 51
270.0
  0
ARC
  5
1097
330
18
100
AcDbEntity
  8
SK3
100
AcDbCircle
 10
-16.892879
 20
19.4400000000001
 30
0.0
 40
0.6
100
AcDbArc
 50
90.0
 51
149.9999999999995
  0
ELLIPSE
  5
1098
330
18
100
AcDbEntity
  8
1
100
AcDbEllipse
 10
33.5
 20
-26.4255889999999
 30
0.0
 11
5.250000000000368
 21
0.0
 31
0.0
210
0.0
220
0.0
230
1.0
 40
0.367453
 41
1.225599474703254
 42
1.915993178886538
  0
SPLINE
  5
1099
330
18
100
AcDbEntity
  8
1
100
AcDbSpline
210
0.0
220
0.0
230
1.0
 70
    24
 71
     3
 72
    10
 73
     6
 74
     0
 42
0.000000001
 43
0.0000000001
 40
0.0
 40
0.0
 40
0.0
 40
0.0
 40
0.3333333333332999
 40
0.6666666666667
 40
1.0
 40
1.0
 40
1.0
 40
1.0
 10
21.5859369142814
 20
7.9999998220234
 30
0.0
 10
21.5296956761015
 20
7.9999998220234
 30
0.0
 10
21.4176705113614
 20
7.9999998220234
 30
0.0
 10
21.2510133570414
 20
7.9999998220234
 30
0.0
 10
21.1408110270614
 20
7.9999998220234
 30
0.0
 10
21.0859369142814
 20
7.9999998220234
 30
0.0
  0
SPLINE
  5
109A
330
18
100
AcDbEntity
  8
1
100
AcDbSpline
210
0.0
220
0.0
230
1.0
 70
    24
 71
     3
 72
    10
 73
     6
 74
     0
 42
0.000000001
 43
0.0000000001
 40
0.0
 40
0.0
 40
0.0
 40
0.0
 40
0.3333333333332999
 40
0.6666666666667
 40
1.0
 40
1.0
 40
1.0
 40
1.0
 10
14.4140625366414
 20
7.9999998220234
 30
0.0
 10
14.4703037748214
 20
7.9999998220234
 30
0.0
 10
14.5823289395614
 20
7.9999998220234
 30
0.0
 10
14.7489860938815
 20
7.9999998220234
 30
0.0
 10
14.8591884238614
 20
7.9999998220234
 30
0.0
 10
14.9140625366414
 20
7.9999998220234
 30
0.0
  0
SPLINE
  5
109B
330
18
100
AcDbEntity
  8
1
100
AcDbSpline
210
0.0
220
0.0
230
1.0
 70
    24
 71
     3
 72
    10
 73
     6
 74
     0
 42
0.000000001
 43
0.0000000001
 40
0.0
 40
0.0
 40
0.0
 40
0.0
 40
0.3333333333332999
 40
0.6666666666667
 40
1.0
 40
1.0
 40
1.0
 40
1.0
 10
25.5499997254613
 20
7.9999998220234
 30
0.0
 10
25.5948819821913
 20
7.9999998220234
 30
0.0
 10
25.6843545240114
 20
7.9999998220234
 30
0.0
 10
25.8176830040713
 20
7.9999998220234
 30
0.0
 10
25.9059909302115
 20
7.9999998220234
 30
0.0
 10
25.9499997254613
 20
7.9999998220234
 30
0.0
  0
SPLINE
  5
109D
330
18
100
AcDbEntity
  8
1
100
AcDbSpline
210
0.0
220
0.0
230
1.0
 70
     8
 71
     3
 72
    35
 73
    31
 74
     0
 42
0.000000001
 43
0.0000000001
 40
0.0
 40
0.0
 40
0.0
 40
0.0
 40
0.03571428571429
 40
0.07142857142857
 40
0.1071428571429
 40
0.1428571428571
 40
0.1785714285714
 40
0.2142857142857
 40
0.25
 40
0.2857142857143
 40
0.3214285714286
 40
0.3571428571429
 40
0.3928571428571
 40
0.4285714285714004
 40
0.4642857142857002
 40
0.5
 40
0.5357142857143
 40
0.5714285714286
 40
0.6071428571429
 40
0.6428571428571001
 40
0.6785714285714001
 40
0.7142857142857002
 40
0.75
 40
0.7857142857143
 40
0.8214285714285999
 40
0.8571428571429001
 40
0.8928571428570998
 40
0.9285714285714
 40
0.9642857142857
 40
1.0
 40
1.0
 40
1.0
 40
1.0
 10
12.9499997254613
 20
-8.05000017797661
 30
0.0
 10
12.8025343594214
 20
-8.05000017797661
 30
0.0
 10
12.5079959558515
 20
-8.04186049900764
 30
0.0
 10
12.0667403643513
 20
-8.00520085099564
 30
0.0
 10
11.6279117018115
 20
-7.94415451667979
 30
0.0
 10
11.1919185087315
 20
-7.85865082252579
 30
0.0
 10
10.7605426994613
 20
-7.74887193456558
 30
0.0
 10
10.3338603820513
 20
-7.61456725262573
 30
0.0
 10
9.91458884803137
 20
-7.45630283247377
 30
0.0
 10
9.50370846618148
 20
-7.27431580839371
 30
0.0
 10
9.10178591496145
 20
-7.0684978716848
 30
0.0
 10
8.71164464988146
 20
-6.84004038994161
 30
0.0
 10
8.33389609358136
 20
-6.58913391377158
 30
0.0
 10
7.97033820569152
 20
-6.31672642844384
 30
0.0
 10
7.62230769648147
 20
-6.02367103644079
 30
0.0
 10
7.2913167551215
 20
-5.71112814367561
 30
0.0
 10
6.97866185795135
 20
-5.3803050755026
 30
0.0
 10
6.68550582500148
 20
-5.03246605919364
 30
0.0
 10
6.41302263897148
 20
-4.6691525958536
 30
0.0
 10
6.1620066070314
 20
-4.29162864591578
 30
0.0
 10
5.9334160486315
 20
-3.90169939441861
 30
0.0
 10
5.72740933272138
 20
-3.49990710517861
 30
0.0
 10
5.54518106746138
 20
-3.08903592158785
 30
0.0
 10
5.38665050939136
 20
-2.6696724355867
 30
0.0
 10
5.25205326436134
 20
-2.24273593619361
 30
0.0
 10
5.14198302227146
 20
-1.8109406602787
 30
0.0
 10
5.05621679081139
 20
-1.37437880951674
 30
0.0
 10
4.99496225617133
 20
-0.934853966794804
 30
0.0
 10
4.95816986303134
 20
-0.492825622628317
 30
0.0
 10
4.94999972546134
 20
-0.197733646767944
 30
0.0
 10
4.94999972546134
 20
-0.0500001779767843
 30
0.0
  0
SPLINE
  5
109E
330
18
100
AcDbEntity
  8
1
100
AcDbSpline
210
0.0
220
0.0
230
1.0
 70
     8
 71
     3
 72
    35
 73
    31
 74
     0
 42
0.000000001
 43
0.0000000001
 40
0.0
 40
0.0
 40
0.0
 40
0.0
 40
0.03571428571429
 40
0.07142857142857
 40
0.1071428571429
 40
0.1428571428571
 40
0.1785714285714
 40
0.2142857142857
 40
0.25
 40
0.2857142857143
 40
0.3214285714286
 40
0.3571428571429
 40
0.3928571428571
 40
0.4285714285714004
 40
0.4642857142857002
 40
0.5
 40
0.5357142857143
 40
0.5714285714286
 40
0.6071428571429
 40
0.6428571428571001
 40
0.6785714285714001
 40
0.7142857142857002
 40
0.75
 40
0.7857142857143
 40
0.8214285714285999
 40
0.8571428571429001
 40
0.8928571428570998
 40
0.9285714285714
 40
0.9642857142857
 40
1.0
 40
1.0
 40
1.0
 40
1.0
 10
4.94999972546134
 20
-1.779766023E-07
 30
0.0
 10
4.94999972546134
 20
0.147732038161138
 30
0.0
 10
4.95816975989146
 20
0.442816461255546
 30
0.0
 10
4.99495869857139
 20
0.88481560795222
 30
0.0
 10
5.05620466658149
 20
1.3243014137793
 30
0.0
 10
5.14195638426145
 20
1.7608174835984
 30
0.0
 10
5.25200268938147
 20
2.19255346492926
 30
0.0
 10
5.38656833045133
 20
2.6194312642352
 30
0.0
 10
5.5450614882115
 20
3.03874062903921
 30
0.0
 10
5.72723899529148
 20
3.44954660434442
 30
0.0
 10
5.93318918653137
 20
3.85128291091141
 30
0.0
 10
6.16171796111149
 20
4.2411636194802
 30
0.0
 10
6.41266351855148
 20
4.61864153801341
 30
0.0
 10
6.68507474416151
 20
4.98192159078721
 30
0.0
 10
6.97815729942135
 20
5.32973777148626
 30
0.0
 10
7.29074435741131
 20
5.66055430182726
 30
0.0
 10
7.62167148066135
 20
5.97310234845642
 30
0.0
 10
7.96965157651152
 20
6.26617994132439
 30
0.0
 10
8.33316902934149
 20
6.53862022784821
 30
0.0
 10
8.71089828053135
 20
6.78957443766839
 30
0.0
 10
9.10103116147138
 20
7.01808421914942
 30
0.0
 10
9.50296888309134
 20
7.22396379904032
 30
0.0
 10
9.91389269556151
 20
7.40601848057039
 30
0.0
 10
10.3332125770514
 20
7.56434432165039
 30
0.0
 10
10.7599707274113
 20
7.6987108958252
 30
0.0
 10
11.1914453156915
 20
7.80854602623529
 30
0.0
 10
11.6275441113514
 20
7.89409477665421
 30
0.0
 10
12.0664921102315
 20
7.95517528389641
 30
0.0
 10
12.5078735397414
 20
7.99185568082621
 30
0.0
 10
12.8024935654515
 20
7.9999998220234
 30
0.0
 10
12.9499997254613
 20
7.9999998220234
 30
0.0
  0
SPLINE
  5
10A1
330
18
100
AcDbEntity
  8
SK1
100
AcDbSpline
210
0.0
220
0.0
230
1.0
 70
     8
 71
     3
 72
    49
 73
    45
 74
     0
 42
0.000000001
 43
0.0000000001
 40
0.0
 40
0.0
 40
0.0
 40
0.0
 40
0.02380952380952
 40
0.04761904761905
 40
0.07142857142857
 40
0.0952380952381
 40
0.1190476190476
 40
0.1428571428571
 40
0.1666666666667
 40
0.1904761904762
 40
0.2142857142857
 40
0.2380952380952
 40
0.2619047619048
 40
0.2857142857143
 40
0.3095238095238
 40
0.3333333333332999
 40
0.3571428571429
 40
0.3809523809524
 40
0.4047619047619
 40
0.4285714285714004
 40
0.452380952381
 40
0.4761904761905001
 40
0.5
 40
0.5238095238095
 40
0.5476190476190002
 40
0.5714285714286
 40
0.5952380952381004
 40
0.6190476190476
 40
0.6428571428571001
 40
0.6666666666667
 40
0.6904761904762001
 40
0.7142857142857002
 40
0.7380952380952
 40
0.7619047619048001
 40
0.7857142857143
 40
0.8095238095237997
 40
0.8333333333332999
 40
0.8571428571429001
 40
0.8809523809523998
 40
0.9047619047618999
 40
0.9285714285714
 40
0.9523809523809999
 40
0.9761904761905
 40
1.0
 40
1.0
 40
1.0
 40
1.0
 10
-4.75062656426866
 20
-1.779766023E-07
 30
0.0
 10
-4.75062650016861
 20
-0.104783127754814
 30
0.0
 10
-4.75832688542852
 20
-0.31382126791604
 30
0.0
 10
-4.79303083643862
 20
-0.626624362360047
 30
0.0
 10
-4.85067228478851
 20
-0.935795320737753
 30
0.0
 10
-4.93120928206849
 20
-1.24066796784174
 30
0.0
 10
-5.03419783911852
 20
-1.53900549648873
 30
0.0
 10
-5.15942920459849
 20
-1.8296886612757
 30
0.0
 10
-5.30623322011848
 20
-2.11060484293463
 30
0.0
 10
-5.47413993071854
 20
-2.38058466589271
 30
0.0
 10
-5.66193354879863
 20
-2.63736474372765
 30
0.0
 10
-5.86933626051865
 20
-2.88006854040961
 30
0.0
 10
-6.09424248785854
 20
-3.1063188927798
 30
0.0
 10
-6.33630448427851
 20
-3.31562503075858
 30
0.0
 10
-6.59327220825861
 20
-3.50570090131563
 30
0.0
 10
-6.86421556427854
 20
-3.67613705927968
 30
0.0
 10
-7.1469133341385
 20
-3.82553892110761
 30
0.0
 10
-7.44015419266861
 20
-3.95312446972159
 30
0.0
 10
-7.74167193043854
 20
-4.0582172243646
 30
0.0
 10
-8.05024650315869
 20
-4.14048562045858
 30
0.0
 10
-8.36353249420864
 20
-4.19921078467272
 30
0.0
 10
-8.68050762045863
 20
-4.23449210955763
 30
0.0
 10
-8.99871430026849
 20
-4.24610484209077
 30
0.0
 10
-9.31663471013849
 20
-4.23391915494474
 30
0.0
 10
-9.63259374290868
 20
-4.19822521372274
 30
0.0
 10
-9.94435073809854
 20
-4.1394071818128
 30
0.0
 10
-10.2509627966785
 20
-4.05751508932261
 30
0.0
 10
-10.5502687000787
 20
-3.95329463591574
 30
0.0
 10
-10.8412606621585
 20
-3.82709948110661
 30
0.0
 10
-11.1219003377785
 20
-3.67962056468079
 30
0.0
 10
-11.3911983270885
 20
-3.51144625989858
 30
0.0
 10
-11.6470437073087
 20
-3.32384065278958
 30
0.0
 10
-11.8887430530285
 20
-3.11700272929673
 30
0.0
 10
-12.1140422207486
 20
-2.89295121668161
 30
0.0
 10
-12.3225708210086
 20
-2.65192459764356
 30
0.0
 10
-12.5121449946985
 20
-2.39608417178559
 30
0.0
 10
-12.6822988533785
 20
-2.12626860062059
 30
0.0
 10
-12.8315857406687
 20
-1.8446927238127
 30
0.0
 10
-12.9592218671585
 20
-1.55267254094659
 30
0.0
 10
-13.0644269321386
 20
-1.25236417549658
 30
0.0
 10
-13.1468376862385
 20
-0.945051205473391
 30
0.0
 10
-13.2058897191785
 20
-0.633039154923012
 30
0.0
 10
-13.2414704745985
 20
-0.317127636808635
 30
0.0
 10
-13.2493739142186
 20
-0.105919226158079
 30
0.0
 10
-13.2493739848085
 20
-1.779766023E-07
 30
0.0
  0
SPLINE
  5
10A2
330
18
100
AcDbEntity
  8
SK1
100
AcDbSpline
210
0.0
220
0.0
230
1.0
 70
     8
 71
     3
 72
    49
 73
    45
 74
     0
 42
0.000000001
 43
0.0000000001
 40
0.0
 40
0.0
 40
0.0
 40
0.0
 40
0.02380952380952
 40
0.04761904761905
 40
0.07142857142857
 40
0.0952380952381
 40
0.1190476190476
 40
0.1428571428571
 40
0.1666666666667
 40
0.1904761904762
 40
0.2142857142857
 40
0.2380952380952
 40
0.2619047619048
 40
0.2857142857143
 40
0.3095238095238
 40
0.3333333333332999
 40
0.3571428571429
 40
0.3809523809524
 40
0.4047619047619
 40
0.4285714285714004
 40
0.452380952381
 40
0.4761904761905001
 40
0.5
 40
0.5238095238095
 40
0.5476190476190002
 40
0.5714285714286
 40
0.5952380952381004
 40
0.6190476190476
 40
0.6428571428571001
 40
0.6666666666667
 40
0.6904761904762001
 40
0.7142857142857002
 40
0.7380952380952
 40
0.7619047619048001
 40
0.7857142857143
 40
0.8095238095237997
 40
0.8333333333332999
 40
0.8571428571429001
 40
0.8809523809523998
 40
0.9047619047618999
 40
0.9285714285714
 40
0.9523809523809999
 40
0.9761904761905
 40
1.0
 40
1.0
 40
1.0
 40
1.0
 10
-13.2493739848085
 20
-1.779766023E-07
 30
0.0
 10
-13.2493740553885
 20
0.105916218996214
 30
0.0
 10
-13.2414708866887
 20
0.317120141778588
 30
0.0
 10
-13.2058911715485
 20
0.633026300541218
 30
0.0
 10
-13.1468405726786
 20
0.94503758110639
 30
0.0
 10
-13.0644338112187
 20
1.25234234440521
 30
0.0
 10
-12.9592293094386
 20
1.55265387515825
 30
0.0
 10
-12.8315969095185
 20
1.84466904874827
 30
0.0
 10
-12.6823108009287
 20
2.1262471188214
 30
0.0
 10
-12.5121624700386
 20
2.39605796285636
 30
0.0
 10
-12.3225880432486
 20
2.6519027552533
 30
0.0
 10
-12.1140642237986
 20
2.89292739948931
 30
0.0
 10
-11.8887638324385
 20
3.1169833988022
 30
0.0
 10
-11.6470678059685
 20
3.32382112642736
 30
0.0
 10
-11.3912227587886
 20
3.51142930707627
 30
0.0
 10
-11.1219242862485
 20
3.67960635012642
 30
0.0
 10
-10.8412854780685
 20
3.8270872796293
 30
0.0
 10
-10.5502919340686
 20
3.95328540468026
 30
0.0
 10
-10.2509861685585
 20
4.05750777812327
 30
0.0
 10
-9.9443717091986
 20
4.13940210562728
 30
0.0
 10
-9.63261330789851
 20
4.1982218341964
 30
0.0
 10
-9.3166467117685
 20
4.23391774996142
 30
0.0
 10
-8.99872719797861
 20
4.24610455243945
 30
0.0
 10
-8.68051447411852
 20
4.23449247336342
 30
0.0
 10
-8.36354235072855
 20
4.19921194129736
 30
0.0
 10
-8.0502568910785
 20
4.14048757127128
 30
0.0
 10
-7.74168441193848
 20
4.05822061313441
 30
0.0
 10
-7.44016668473847
 20
3.9531289421113
 30
0.0
 10
-7.14692698521856
 20
3.8255450962034
 30
0.0
 10
-6.86422872276864
 20
3.67614434881736
 30
0.0
 10
-6.5932863684385
 20
3.5057102196624
 30
0.0
 10
-6.33631924547853
 20
3.31563653047729
 30
0.0
 10
-6.09425570137853
 20
3.10633059698441
 30
0.0
 10
-5.86935158936859
 20
2.88008461717626
 30
0.0
 10
-5.66194518927864
 20
2.6373790382103
 30
0.0
 10
-5.47415333891865
 20
2.38060446368635
 30
0.0
 10
-5.30624317804847
 20
2.11062234476739
 30
0.0
 10
-5.15943994161853
 20
1.82971084298944
 30
0.0
 10
-5.0342062801385
 20
1.53902603748926
 30
0.0
 10
-4.93121794976861
 20
1.24069532245428
 30
0.0
 10
-4.8506760901385
 20
0.935812777427912
 30
0.0
 10
-4.7930328224985
 20
0.626640052288366
 30
0.0
 10
-4.75832754006859
 20
0.313831853892992
 30
0.0
 10
-4.75062662837854
 20
0.104786918936924
 30
0.0
 10
-4.75062656426866
 20
-1.779766023E-07
 30
0.0
  0
SPLINE
  5
10A3
330
18
100
AcDbEntity
  8
1
100
AcDbSpline
210
0.0
220
0.0
230
1.0
 70
     8
 71
     3
 72
    26
 73
    22
 74
     0
 42
0.000000001
 43
0.0000000001
 40
0.0
 40
0.0
 40
0.0
 40
0.0
 40
0.05263157894737
 40
0.1052631578947
 40
0.1578947368421
 40
0.2105263157895
 40
0.2631578947367999
 40
0.3157894736842
 40
0.3684210526316
 40
0.4210526315789
 40
0.4736842105263002
 40
0.5263157894737
 40
0.5789473684211
 40
0.6315789473684001
 40
0.6842105263158002
 40
0.7368421052632
 40
0.7894736842105
 40
0.8421052631579
 40
0.8947368421052999
 40
0.9473684210526
 40
1.0
 40
1.0
 40
1.0
 40
1.0
 10
40.8787342596914
 20
-23.6756938418968
 30
0.0
 10
40.8617365232415
 20
-23.7121213475066
 30
0.0
 10
40.8244648028313
 20
-23.7826439112066
 30
0.0
 10
40.7596934448415
 20
-23.8811831151866
 30
0.0
 10
40.6862021890315
 20
-23.9733886826467
 30
0.0
 10
40.6041278188414
 20
-24.0596807268767
 30
0.0
 10
40.5131869229613
 20
-24.1406044302867
 30
0.0
 10
40.4128844993615
 20
-24.2165377760369
 30
0.0
 10
40.3018952063015
 20
-24.2879384698667
 30
0.0
 10
40.1837473679215
 20
-24.3521927666466
 30
0.0
 10
40.0669481607415
 20
-24.4060320914066
 30
0.0
 10
39.9537038125015
 20
-24.4506051856766
 30
0.0
 10
39.8418340383515
 20
-24.4881854259367
 30
0.0
 10
39.7307803673416
 20
-24.5197515683566
 30
0.0
 10
39.6221430441313
 20
-24.5455811126566
 30
0.0
 10
39.5153328084215
 20
-24.5664792196366
 30
0.0
 10
39.4097636819715
 20
-24.5829811859867
 30
0.0
 10
39.3062371315414
 20
-24.5953400159867
 30
0.0
 10
39.2036758494815
 20
-24.6039905243367
 30
0.0
 10
39.1014147080214
 20
-24.6091283188767
 30
0.0
 10
39.0333478834515
 20
-24.6102627857866
 30
0.0
 10
38.9993490181213
 20
-24.6102627857866
 30
0.0
  0
SPLINE
  5
10A4
330
18
100
AcDbEntity
  8
1
100
AcDbSpline
210
0.0
220
0.0
230
1.0
 70
     8
 71
     3
 72
    26
 73
    22
 74
     0
 42
0.000000001
 43
0.0000000001
 40
0.0
 40
0.0
 40
0.0
 40
0.0
 40
0.05263157894737
 40
0.1052631578947
 40
0.1578947368421
 40
0.2105263157895
 40
0.2631578947367999
 40
0.3157894736842
 40
0.3684210526316
 40
0.4210526315789
 40
0.4736842105263002
 40
0.5263157894737
 40
0.5789473684211
 40
0.6315789473684001
 40
0.6842105263158002
 40
0.7368421052632
 40
0.7894736842105
 40
0.8421052631579
 40
0.8947368421052999
 40
0.9473684210526
 40
1.0
 40
1.0
 40
1.0
 40
1.0
 10
38.9993490181213
 20
-15.4789485518666
 30
0.0
 10
39.0334116052615
 20
-15.4789485518666
 30
0.0
 10
39.1015666166815
 20
-15.4800875590267
 30
0.0
 10
39.2038070259715
 20
-15.4852303228466
 30
0.0
 10
39.3063002369315
 20
-15.4938785576966
 30
0.0
 10
39.4097760984314
 20
-15.5062320801067
 30
0.0
 10
39.5153742516615
 20
-15.5227384488366
 30
0.0
 10
39.6223472226915
 20
-15.5436703243067
 30
0.0
 10
39.7312910681515
 20
-15.5695900027566
 30
0.0
 10
39.8422264636713
 20
-15.6011545546367
 30
0.0
 10
39.9536613174615
 20
-15.6385937147466
 30
0.0
 10
40.0670704924415
 20
-15.6832261985866
 30
0.0
 10
40.1839826823415
 20
-15.7371350153168
 30
0.0
 10
40.3021423239014
 20
-15.8014187360967
 30
0.0
 10
40.4131347415014
 20
-15.8728466605766
 30
0.0
 10
40.5134673658315
 20
-15.9488349798166
 30
0.0
 10
40.6043945866615
 20
-16.0297895071566
 30
0.0
 10
40.6863958607015
 20
-16.1160489524866
 30
0.0
 10
40.7598020475714
 20
-16.2081839481367
 30
0.0
 10
40.8245012367514
 20
-16.3066351906066
 30
0.0
 10
40.8617466838514
 20
-16.3771117651468
 30
0.0
 10
40.8787342596914
 20
-16.4135174957567
 30
0.0
  0
SPLINE
  5
10A5
330
18
100
AcDbEntity
  8
1
100
AcDbSpline
210
0.0
220
0.0
230
1.0
 70
     8
 71
     3
 72
    27
 73
    23
 74
     0
 42
0.000000001
 43
0.0000000001
 40
0.0
 40
0.0
 40
0.0
 40
0.0
 40
0.05
 40
0.1
 40
0.15
 40
0.2
 40
0.25
 40
0.3
 40
0.35
 40
0.4
 40
0.45
 40
0.5
 40
0.55
 40
0.6
 40
0.65
 40
0.7
 40
0.75
 40
0.8
 40
0.85
 40
0.9
 40
0.95
 40
1.0
 40
1.0
 40
1.0
 40
1.0
 10
41.2638075416014
 20
-22.7510603177266
 30
0.0
 10
41.3022593608915
 20
-22.6454148124968
 30
0.0
 10
41.3751116916615
 20
-22.4343465076567
 30
0.0
 10
41.4717789028015
 20
-22.1186286827168
 30
0.0
 10
41.5556726368215
 20
-21.8030794758066
 30
0.0
 10
41.6264610053914
 20
-21.4874133788566
 30
0.0
 10
41.6838105807715
 20
-21.1713982459567
 30
0.0
 10
41.7273848074714
 20
-20.8549517780867
 30
0.0
 10
41.7568901037315
 20
-20.5380997573467
 30
0.0
 10
41.7721062818115
 20
-20.2209602368668
 30
0.0
 10
41.7729128853714
 20
-19.9037101107267
 30
0.0
 10
41.7593033794614
 20
-19.5865485959466
 30
0.0
 10
41.7313859692014
 20
-19.2696571114466
 30
0.0
 10
41.6893708220915
 20
-18.9531624421367
 30
0.0
 10
41.6335450851515
 20
-18.6371020622767
 30
0.0
 10
41.5642417232814
 20
-18.3214062178168
 30
0.0
 10
41.4818006113214
 20
-18.0058695531066
 30
0.0
 10
41.3865370259615
 20
-17.6901634819266
 30
0.0
 10
41.2787054117015
 20
-17.3738146047467
 30
0.0
 10
41.1584594287615
 20
-17.0561947170767
 30
0.0
 10
41.0258981014015
 20
-16.7366664426066
 30
0.0
 10
40.9291398221015
 20
-16.5215406382766
 30
0.0
 10
40.8787342596914
 20
-16.4135174957567
 30
0.0
  0
SPLINE
  5
10A6
330
18
100
AcDbEntity
  8
SK1
100
AcDbSpline
210
0.0
220
0.0
230
1.0
 70
     8
 71
     3
 72
    49
 73
    45
 74
     0
 42
0.000000001
 43
0.0000000001
 40
0.0
 40
0.0
 40
0.0
 40
0.0
 40
0.02380952380952
 40
0.04761904761905
 40
0.07142857142857
 40
0.0952380952381
 40
0.1190476190476
 40
0.1428571428571
 40
0.1666666666667
 40
0.1904761904762
 40
0.2142857142857
 40
0.2380952380952
 40
0.2619047619048
 40
0.2857142857143
 40
0.3095238095238
 40
0.3333333333332999
 40
0.3571428571429
 40
0.3809523809524
 40
0.4047619047619
 40
0.4285714285714004
 40
0.452380952381
 40
0.4761904761905001
 40
0.5
 40
0.5238095238095
 40
0.5476190476190002
 40
0.5714285714286
 40
0.5952380952381004
 40
0.6190476190476
 40
0.6428571428571001
 40
0.6666666666667
 40
0.6904761904762001
 40
0.7142857142857002
 40
0.7380952380952
 40
0.7619047619048001
 40
0.7857142857143
 40
0.8095238095237997
 40
0.8333333333332999
 40
0.8571428571429001
 40
0.8809523809523998
 40
0.9047619047618999
 40
0.9285714285714
 40
0.9523809523809999
 40
0.9761904761905
 40
1.0
 40
1.0
 40
1.0
 40
1.0
 10
-5.25000027453854
 20
-1.779766023E-07
 30
0.0
 10
-5.25000027453854
 20
-0.0897240505812249
 30
0.0
 10
-5.2564412043987
 20
-0.269318179516318
 30
0.0
 10
-5.28549445860864
 20
-0.537829657901313
 30
0.0
 10
-5.33383079834851
 20
-0.803837752723751
 30
0.0
 10
-5.40152300117853
 20
-1.06682218654768
 30
0.0
 10
-5.48837007651849
 20
-1.32507506953558
 30
0.0
 10
-5.59437173209847
 20
-1.57775867872763
 30
0.0
 10
-5.71914010087863
 20
-1.82315074561686
 30
0.0
 10
-5.86254941247864
 20
-2.06023807234473
 30
0.0
 10
-6.02375804232849
 20
-2.28702317165559
 30
0.0
 10
-6.20267279592849
 20
-2.50273946341659
 30
0.0
 10
-6.39776159555862
 20
-2.7050594288946
 30
0.0
 10
-6.60885758897854
 20
-2.89338405723768
 30
0.0
 10
-6.83403416035855
 20
-3.0656132458387
 30
0.0
 10
-7.07264938675865
 20
-3.22100760770169
 30
0.0
 10
-7.32276455140851
 20
-3.35805815385069
 30
0.0
 10
-7.58323784876848
 20
-3.47599483211158
 30
0.0
 10
-7.85206547645862
 20
-3.5738027974098
 30
0.0
 10
-8.12805098816864
 20
-3.65096569596179
 30
0.0
 10
-8.40895176608853
 20
-3.7068223690197
 30
0.0
 10
-8.69373018665862
 20
-3.7411362395346
 30
0.0
 10
-8.97999105627855
 20
-3.75358852231969
 30
0.0
 10
-9.26620198616854
 20
-3.74419017518758
 30
0.0
 10
-9.55066955808866
 20
-3.71301356564859
 30
0.0
 10
-9.83118309600854
 20
-3.66043187576773
 30
0.0
 10
-10.1067732840185
 20
-3.5867263683148
 30
0.0
 10
-10.3753314083085
 20
-3.4925537540706
 30
0.0
 10
-10.6358273118386
 20
-3.37838168910858
 30
0.0
 10
-10.8864098873986
 20
-3.24511845155379
 30
0.0
 10
-11.1260997918285
 20
-3.09336841812055
 30
0.0
 10
-11.3530018837385
 20
-2.92447570067961
 30
0.0
 10
-11.5666044166385
 20
-2.73890820044662
 30
0.0
 10
-11.7649111436585
 20
-2.53855328368067
 30
0.0
 10
-11.9476914535785
 20
-2.32379639583868
 30
0.0
 10
-12.1132529739586
 20
-2.0967673341556
 30
0.0
 10
-12.2612468976686
 20
-1.8582114532488
 30
0.0
 10
-12.3905677192286
 20
-1.6101437117517
 30
0.0
 10
-12.5008063289286
 20
-1.35377487843974
 30
0.0
 10
-12.5913959707585
 20
-1.09090911805359
 30
0.0
 10
-12.6621588813085
 20
-0.822593147127549
 30
0.0
 10
-12.7127784437287
 20
-0.550677195006045
 30
0.0
 10
-12.7432395300685
 20
-0.275871451468191
 30
0.0
 10
-12.7500002745387
 20
-0.0919251146277418
 30
0.0
 10
-12.7500002745387
 20
-1.779766023E-07
 30
0.0
  0
SPLINE
  5
10A7
330
18
100
AcDbEntity
  8
SK1
100
AcDbSpline
210
0.0
220
0.0
230
1.0
 70
     8
 71
     3
 72
    49
 73
    45
 74
     0
 42
0.000000001
 43
0.0000000001
 40
0.0
 40
0.0
 40
0.0
 40
0.0
 40
0.02380952380952
 40
0.04761904761905
 40
0.07142857142857
 40
0.0952380952381
 40
0.1190476190476
 40
0.1428571428571
 40
0.1666666666667
 40
0.1904761904762
 40
0.2142857142857
 40
0.2380952380952
 40
0.2619047619048
 40
0.2857142857143
 40
0.3095238095238
 40
0.3333333333332999
 40
0.3571428571429
 40
0.3809523809524
 40
0.4047619047619
 40
0.4285714285714004
 40
0.452380952381
 40
0.4761904761905001
 40
0.5
 40
0.5238095238095
 40
0.5476190476190002
 40
0.5714285714286
 40
0.5952380952381004
 40
0.6190476190476
 40
0.6428571428571001
 40
0.6666666666667
 40
0.6904761904762001
 40
0.7142857142857002
 40
0.7380952380952
 40
0.7619047619048001
 40
0.7857142857143
 40
0.8095238095237997
 40
0.8333333333332999
 40
0.8571428571429001
 40
0.8809523809523998
 40
0.9047619047618999
 40
0.9285714285714
 40
0.9523809523809999
 40
0.9761904761905
 40
1.0
 40
1.0
 40
1.0
 40
1.0
 10
-12.7500002745387
 20
-1.779766023E-07
 30
0.0
 10
-12.7500002745387
 20
0.0919224557540872
 30
0.0
 10
-12.7432398399487
 20
0.275864870439676
 30
0.0
 10
-12.7127800179985
 20
0.55066601212107
 30
0.0
 10
-12.6621613359785
 20
0.822581229766939
 30
0.0
 10
-12.5914016355485
 20
1.0908899077854
 30
0.0
 10
-12.5008125413585
 20
1.35375837974342
 30
0.0
 10
-12.3905773985885
 20
1.61012285467629
 30
0.0
 10
-12.2612573948185
 20
1.85819253712137
 30
0.0
 10
-12.1132682988385
 20
2.0967441555654
 30
0.0
 10
-11.9477065123085
 20
2.32377693103834
 30
0.0
 10
-11.7649304033586
 20
2.53853191944026
 30
0.0
 10
-11.5666226867985
 20
2.73889077549737
 30
0.0
 10
-11.3530232187085
 20
2.92445811420427
 30
0.0
 10
-11.1261215532486
 20
3.09335317914431
 30
0.0
 10
-10.8864312848485
 20
3.2451056669224
 30
0.0
 10
-10.6358495010687
 20
3.37837062852637
 30
0.0
 10
-10.3753521860487
 20
3.49254525122237
 30
0.0
 10
-10.1067942312585
 20
3.58671959033327
 30
0.0
 10
-9.83120195979853
 20
3.66042727102521
 30
0.0
 10
-9.55068720756861
 20
3.71301072920326
 30
0.0
 10
-9.2662128108185
 20
3.74418912001428
 30
0.0
 10
-8.98000265828852
 20
3.75358828613841
 30
0.0
 10
-8.69373635048868
 20
3.74113644204126
 30
0.0
 10
-8.40896062656861
 20
3.70682335362036
 30
0.0
 10
-8.12806029187868
 20
3.65096753571132
 30
0.0
 10
-7.85207661524868
 20
3.57380598274139
 30
0.0
 10
-7.58324895954865
 20
3.4759989823942
 30
0.0
 10
-7.32277665193851
 20
3.35806381738442
 30
0.0
 10
-7.07266102166864
 20
3.2210142004474
 30
0.0
 10
-6.83404663567853
 20
3.06562162678645
 30
0.0
 10
-6.60887049940851
 20
2.89339439770524
 30
0.0
 10
-6.39777302928849
 20
2.70506998315821
 30
0.0
 10
-6.2026859732386
 20
2.5027538512613
 30
0.0
 10
-6.02376804862848
 20
2.28703580105142
 30
0.0
 10
-5.86256101913864
 20
2.06025535528741
 30
0.0
 10
-5.71914873462856
 20
1.82316592441529
 30
0.0
 10
-5.59438084783863
 20
1.57777796430642
 30
0.0
 10
-5.48837702458849
 20
1.32509293505839
 30
0.0
 10
-5.40153008109849
 20
1.06684585191826
 30
0.0
 10
-5.33383396932862
 20
0.80385272628692
 30
0.0
 10
-5.28549642316864
 20
0.537843035866416
 30
0.0
 10
-5.25644171195847
 20
0.26932722852311
 30
0.0
 10
-5.25000027453854
 20
0.0897272493524213
 30
0.0
 10
-5.25000027453854
 20
-1.779766023E-07
 30
0.0
  0
SPLINE
  5
10A8
330
18
100
AcDbEntity
  8
1
100
AcDbSpline
210
0.0
220
0.0
230
1.0
 70
    24
 71
     3
 72
    17
 73
    13
 74
     0
 42
0.000000001
 43
0.0000000001
 40
0.0
 40
0.0
 40
0.0
 40
0.0
 40
0.1
 40
0.2
 40
0.3
 40
0.4
 40
0.5
 40
0.6
 40
0.7
 40
0.8
 40
0.9
 40
1.0
 40
1.0
 40
1.0
 40
1.0
 10
19.9125047259615
 20
7.9999998220234
 30
0.0
 10
19.9124947249614
 20
7.9999998220234
 30
0.0
 10
19.9101061385614
 20
7.9999998220234
 30
0.0
 10
19.8992900099113
 20
7.9999998220234
 30
0.0
 10
19.8814273100615
 20
7.9999998220234
 30
0.0
 10
19.8570445057213
 20
7.9999998220234
 30
0.0
 10
19.8260757387515
 20
7.9999998220234
 30
0.0
 10
19.7888731069214
 20
7.9999998220234
 30
0.0
 10
19.7460549463313
 20
7.9999998220234
 30
0.0
 10
19.6985748215215
 20
7.9999998220234
 30
0.0
 10
19.6463563402214
 20
7.9999998220234
 30
0.0
 10
19.6092014734515
 20
7.9999998220234
 30
0.0
 10
19.5899832415615
 20
7.9999998220234
 30
0.0
  0
SPLINE
  5
10A9
330
18
100
AcDbEntity
  8
1
100
AcDbSpline
210
0.0
220
0.0
230
1.0
 70
     8
 71
     3
 72
    19
 73
    15
 74
     0
 42
0.000000001
 43
0.0000000001
 40
0.0
 40
0.0
 40
0.0
 40
0.0
 40
0.08333333333333
 40
0.1666666666667
 40
0.25
 40
0.3333333333332999
 40
0.4166666666667
 40
0.5
 40
0.5833333333333001
 40
0.6666666666667
 40
0.75
 40
0.8333333333332999
 40
0.9166666666667
 40
1.0
 40
1.0
 40
1.0
 40
1.0
 10
19.5899832415615
 20
7.9999998220234
 30
0.0
 10
19.5789174230214
 20
7.97556601227731
 30
0.0
 10
19.5566985219513
 20
7.92933400942431
 30
0.0
 10
19.5233732279715
 20
7.8678529407384
 30
0.0
 10
19.4901977373815
 20
7.81393164090426
 30
0.0
 10
19.4572097660215
 20
7.76709175333926
 30
0.0
 10
19.4240932481514
 20
7.72658288594041
 30
0.0
 10
19.3914714830815
 20
7.69284164184737
 30
0.0
 10
19.3595392318814
 20
7.66552729284442
 30
0.0
 10
19.3283802436215
 20
7.64418597154841
 30
0.0
 10
19.2979458435015
 20
7.62832817085641
 30
0.0
 10
19.2685986278614
 20
7.61763230036027
 30
0.0
 10
19.2400266695113
 20
7.61150422782938
 30
0.0
 10
19.2215799864814
 20
7.61023142165337
 30
0.0
 10
19.2124997254615
 20
7.61023142165337
 30
0.0
  0
SPLINE
  5
10AA
330
18
100
AcDbEntity
  8
1
100
AcDbSpline
210
0.0
220
0.0
230
1.0
 70
    24
 71
     3
 72
    10
 73
     6
 74
     0
 42
0.000000001
 43
0.0000000001
 40
0.0
 40
0.0
 40
0.0
 40
0.0
 40
0.3333333333332999
 40
0.6666666666667
 40
1.0
 40
1.0
 40
1.0
 40
1.0
 10
16.0874997254615
 20
-8.05000017797661
 30
0.0
 10
15.9647344238115
 20
-8.05000017797661
 30
0.0
 10
15.7141216602716
 20
-8.05000017797661
 30
0.0
 10
15.3218646178313
 20
-8.05000017797661
 30
0.0
 10
15.0515795922015
 20
-8.05000017797661
 30
0.0
 10
14.9140625366414
 20
-8.05000017797661
 30
0.0
  0
SPLINE
  5
10AC
330
18
100
AcDbEntity
  8
1
100
AcDbSpline
210
0.0
220
0.0
230
1.0
 70
    24
 71
     3
 72
    10
 73
     6
 74
     0
 42
0.000000001
 43
0.0000000001
 40
0.0
 40
0.0
 40
0.0
 40
0.0
 40
0.3333333333332999
 40
0.6666666666667
 40
1.0
 40
1.0
 40
1.0
 40
1.0
 10
19.9124997254613
 20
-8.05000017797661
 30
0.0
 10
20.0352650271115
 20
-8.05000017797661
 30
0.0
 10
20.2858777906514
 20
-8.05000017797661
 30
0.0
 10
20.6781348330915
 20
-8.05000017797661
 30
0.0
 10
20.9484198587214
 20
-8.05000017797661
 30
0.0
 10
21.0859369142814
 20
-8.05000017797661
 30
0.0
  0
SPLINE
  5
10AE
330
18
100
AcDbEntity
  8
1
100
AcDbSpline
210
0.0
220
0.0
230
1.0
 70
    24
 71
     3
 72
    10
 73
     6
 74
     0
 42
0.000000001
 43
0.0000000001
 40
0.0
 40
0.0
 40
0.0
 40
0.0
 40
0.3333333333332999
 40
0.6666666666667
 40
1.0
 40
1.0
 40
1.0
 40
1.0
 10
21.0859369142814
 20
7.9999998220234
 30
0.0
 10
20.9485623073115
 20
7.9999998220234
 30
0.0
 10
20.6784754973114
 20
7.9999998220234
 30
0.0
 10
20.2869400397915
 20
7.9999998220234
 30
0.0
 10
20.0357231992415
 20
7.9999998220234
 30
0.0
 10
19.9124997254613
 20
7.9999998220234
 30
0.0
  0
SPLINE
  5
10AF
330
18
100
AcDbEntity
  8
1
100
AcDbSpline
210
0.0
220
0.0
230
1.0
 70
    24
 71
     3
 72
    10
 73
     6
 74
     0
 42
0.000000001
 43
0.0000000001
 40
0.0
 40
0.0
 40
0.0
 40
0.0
 40
0.3333333333332999
 40
0.6666666666667
 40
1.0
 40
1.0
 40
1.0
 40
1.0
 10
14.9140625366414
 20
7.9999998220234
 30
0.0
 10
15.0514371436115
 20
7.9999998220234
 30
0.0
 10
15.3215239536115
 20
7.9999998220234
 30
0.0
 10
15.7130594111313
 20
7.9999998220234
 30
0.0
 10
15.9642762516815
 20
7.9999998220234
 30
0.0
 10
16.0874997254615
 20
7.9999998220234
 30
0.0
  0
SPLINE
  5
10B0
330
18
100
AcDbEntity
  8
1
100
AcDbSpline
210
0.0
220
0.0
230
1.0
 70
    24
 71
     3
 72
    10
 73
     6
 74
     0
 42
0.000000001
 43
0.0000000001
 40
0.0
 40
0.0
 40
0.0
 40
0.0
 40
0.3333333333332999
 40
0.6666666666667
 40
1.0
 40
1.0
 40
1.0
 40
1.0
 10
21.0859369142814
 20
-8.05000017797661
 30
0.0
 10
21.1408109663614
 20
-8.05000017797661
 30
0.0
 10
21.2510132144114
 20
-8.05000017797661
 30
0.0
 10
21.4176703658515
 20
-8.05000017797661
 30
0.0
 10
21.5296956133215
 20
-8.05000017797661
 30
0.0
 10
21.5859369142814
 20
-8.05000017797661
 30
0.0
  0
SPLINE
  5
10B2
330
18
100
AcDbEntity
  8
1
100
AcDbSpline
210
0.0
220
0.0
230
1.0
 70
    24
 71
     3
 72
    10
 73
     6
 74
     0
 42
0.000000001
 43
0.0000000001
 40
0.0
 40
0.0
 40
0.0
 40
0.0
 40
0.3333333333332999
 40
0.6666666666667
 40
1.0
 40
1.0
 40
1.0
 40
1.0
 10
14.9140625366414
 20
-8.05000017797661
 30
0.0
 10
14.8591884845613
 20
-8.05000017797661
 30
0.0
 10
14.7489862365115
 20
-8.05000017797661
 30
0.0
 10
14.5823290850714
 20
-8.05000017797661
 30
0.0
 10
14.4703038376014
 20
-8.05000017797661
 30
0.0
 10
14.4140625366414
 20
-8.05000017797661
 30
0.0
  0
SPLINE
  5
10B4
330
18
100
AcDbEntity
  8
1
100
AcDbSpline
210
0.0
220
0.0
230
1.0
 70
    24
 71
     3
 72
    10
 73
     6
 74
     0
 42
0.000000001
 43
0.0000000001
 40
0.0
 40
0.0
 40
0.0
 40
0.0
 40
0.3333333333332999
 40
0.6666666666667
 40
1.0
 40
1.0
 40
1.0
 40
1.0
 10
25.9499997254613
 20
-8.05000017797661
 30
0.0
 10
25.9059909895115
 20
-8.05000017797661
 30
0.0
 10
25.8176831429713
 20
-8.05000017797661
 30
0.0
 10
25.6843546653914
 20
-8.05000017797661
 30
0.0
 10
25.5948820430113
 20
-8.05000017797661
 30
0.0
 10
25.5499997254613
 20
-8.05000017797661
 30
0.0
  0
SPLINE
  5
10B9
330
18
100
AcDbEntity
  8
1
100
AcDbSpline
210
0.0
220
0.0
230
1.0
 70
     8
 71
     3
 72
    20
 73
    16
 74
     0
 42
0.000000001
 43
0.0000000001
 40
0.0
 40
0.0
 40
0.0
 40
0.0
 40
0.07692307692308
 40
0.1538461538462
 40
0.2307692307692
 40
0.3076923076923
 40
0.3846153846154001
 40
0.4615384615385
 40
0.5384615384615003
 40
0.6153846153846
 40
0.6923076923077
 40
0.7692307692308003
 40
0.8461538461538001
 40
0.9230769230769
 40
1.0
 40
1.0
 40
1.0
 40
1.0
 10
26.7499997254615
 20
-24.6102627857866
 30
0.0
 10
26.7332935266815
 20
-24.6102627857866
 30
0.0
 10
26.6998167736415
 20
-24.6109485098568
 30
0.0
 10
26.6495211503615
 20
-24.6140538879969
 30
0.0
 10
26.5988071682714
 20
-24.6193221765167
 30
0.0
 10
26.5473412257014
 20
-24.6269137493666
 30
0.0
 10
26.4940983737014
 20
-24.6372609165367
 30
0.0
 10
26.4397635408415
 20
-24.6505997379966
 30
0.0
 10
26.3840414006213
 20
-24.6674028673666
 30
0.0
 10
26.3265295523315
 20
-24.6884345754167
 30
0.0
 10
26.2679768065115
 20
-24.7142473474667
 30
0.0
 10
26.2091366774414
 20
-24.7455372554966
 30
0.0
 10
26.1520155992614
 20
-24.7823682689868
 30
0.0
 10
26.0978995992415
 20
-24.8251891037567
 30
0.0
 10
26.0652070133115
 20
-24.8576918469367
 30
0.0
 10
26.0499997254613
 20
-24.8749782435066
 30
0.0
  0
SPLINE
  5
10BA
330
18
100
AcDbEntity
  8
1
100
AcDbSpline
210
0.0
220
0.0
230
1.0
 70
     8
 71
     3
 72
    10
 73
     6
 74
     0
 42
0.000000001
 43
0.0000000001
 40
0.0
 40
0.0
 40
0.0
 40
0.0
 40
0.3333333333332999
 40
0.6666666666667
 40
1.0
 40
1.0
 40
1.0
 40
1.0
 10
40.8787342596914
 20
-23.6756938418968
 30
0.0
 10
40.9270290834215
 20
-23.5721941807967
 30
0.0
 10
41.0200501761215
 20
-23.3657140902767
 30
0.0
 10
41.1483975392813
 20
-23.0579400967667
 30
0.0
 10
41.2266203991314
 20
-22.8532311519866
 30
0.0
 10
41.2638075416014
 20
-22.7510603177266
 30
0.0
  0
SPLINE
  5
10BB
330
18
100
AcDbEntity
  8
1
100
AcDbSpline
210
0.0
220
0.0
230
1.0
 70
     8
 71
     3
 72
    20
 73
    16
 74
     0
 42
0.000000001
 43
0.0000000001
 40
0.0
 40
0.0
 40
0.0
 40
0.0
 40
0.07692307692308
 40
0.1538461538462
 40
0.2307692307692
 40
0.3076923076923
 40
0.3846153846154001
 40
0.4615384615385
 40
0.5384615384615003
 40
0.6153846153846
 40
0.6923076923077
 40
0.7692307692308003
 40
0.8461538461538001
 40
0.9230769230769
 40
1.0
 40
1.0
 40
1.0
 40
1.0
 10
26.0499997254613
 20
-15.2142330941466
 30
0.0
 10
26.0652070133115
 20
-15.2315194907267
 30
0.0
 10
26.0978995992415
 20
-15.2640222339066
 30
0.0
 10
26.1520155992614
 20
-15.3068430686766
 30
0.0
 10
26.2091366774414
 20
-15.3436740821566
 30
0.0
 10
26.2679768065115
 20
-15.3749639901866
 30
0.0
 10
26.3265295523315
 20
-15.4007767622366
 30
0.0
 10
26.3840414006213
 20
-15.4218084702867
 30
0.0
 10
26.4397635408415
 20
-15.4386115996566
 30
0.0
 10
26.4940983737014
 20
-15.4519504211167
 30
0.0
 10
26.5473412257014
 20
-15.4622975882866
 30
0.0
 10
26.5988071682714
 20
-15.4698891611367
 30
0.0
 10
26.6495211503615
 20
-15.4751574496569
 30
0.0
 10
26.6998167736415
 20
-15.4782628277966
 30
0.0
 10
26.7332935266815
 20
-15.4789485518666
 30
0.0
 10
26.7499997254615
 20
-15.4789485518666
 30
0.0
  0
SPLINE
  5
10BC
330
18
100
AcDbEntity
  8
1
100
AcDbSpline
210
0.0
220
0.0
230
1.0
 70
    24
 71
     3
 72
    17
 73
    13
 74
     0
 42
0.000000001
 43
0.0000000001
 40
0.0
 40
0.0
 40
0.0
 40
0.0
 40
0.1001478172435629
 40
0.2002956344871257
 40
0.3004434517306885
 40
0.4005912689742515
 40
0.5007390862178143
 40
0.6008869034613771
 40
0.7010347207049401
 40
0.8011825379485028
 40
0.9013303551920655
 40
1.0
 40
1.0
 40
1.0
 40
1.0
 10
19.6117829347715
 20
-8.05000017797661
 30
0.0
 10
19.6298272704615
 20
-8.05000017797661
 30
0.0
 10
19.6646776352015
 20
-8.05000017797661
 30
0.0
 10
19.7134625598914
 20
-8.05000017797661
 30
0.0
 10
19.7578682005214
 20
-8.05000017797661
 30
0.0
 10
19.7977942844713
 20
-8.05000017797661
 30
0.0
 10
19.8323725846215
 20
-8.05000017797661
 30
0.0
 10
19.8610744757814
 20
-8.05000017797661
 30
0.0
 10
19.8837209853215
 20
-8.05000017797661
 30
0.0
 10
19.9002716417414
 20
-8.05000017797661
 30
0.0
 10
19.9102353669979
 20
-8.05000017797678
 30
0.0
 10
19.9124776272711
 20
-8.05000017797661
 30
0.0
 10
19.9124949347715
 20
-8.05000017797661
 30
0.0
  0
SPLINE
  5
10BD
330
18
100
AcDbEntity
  8
1
100
AcDbSpline
210
0.0
220
0.0
230
1.0
 70
     8
 71
     3
 72
    20
 73
    16
 74
     0
 42
0.000000001
 43
0.0000000001
 40
0.0
 40
0.0
 40
0.0
 40
0.0
 40
0.07692307692308
 40
0.1538461538462
 40
0.2307692307692
 40
0.3076923076923
 40
0.3846153846154001
 40
0.4615384615385
 40
0.5384615384615003
 40
0.6153846153846
 40
0.6923076923077
 40
0.7692307692308003
 40
0.8461538461538001
 40
0.9230769230769
 40
1.0
 40
1.0
 40
1.0
 40
1.0
 10
19.2124997254615
 20
-7.61023177760674
 30
0.0
 10
19.2213775896614
 20
-7.61023177760674
 30
0.0
 10
19.2393974087715
 20
-7.6114492388858
 30
0.0
 10
19.2672436569913
 20
-7.61728134104365
 30
0.0
 10
19.2958366962415
 20
-7.62744671776161
 30
0.0
 10
19.3254793274514
 20
-7.64250042217267
 30
0.0
 10
19.3558988040615
 20
-7.66280295086668
 30
0.0
 10
19.3870539820314
 20
-7.68877025231259
 30
0.0
 10
19.4188681005314
 20
-7.72082110853179
 30
0.0
 10
19.4511208172015
 20
-7.75921434345159
 30
0.0
 10
19.4832871331714
 20
-7.80363247671059
 30
0.0
 10
19.5154092806113
 20
-7.85433786397974
 30
0.0
 10
19.5476408493613
 20
-7.91195469211763
 30
0.0
 10
19.5798390595915
 20
-7.97670762089879
 30
0.0
 10
19.6011786915215
 20
-8.02475136257172
 30
0.0
 10
19.6117829347715
 20
-8.05000017797661
 30
0.0
  0
SPLINE
  5
10BE
330
18
100
AcDbEntity
  8
1
100
AcDbSpline
210
0.0
220
0.0
230
1.0
 70
    24
 71
     3
 72
    17
 73
    13
 74
     0
 42
0.000000001
 43
0.0000000001
 40
0.0
 40
0.0
 40
0.0
 40
0.0
 40
0.0969387875809343
 40
0.1972789222941638
 40
0.2976190570073933
 40
0.3979591917206229
 40
0.4982993264338524
 40
0.5986394611470819
 40
0.6989795958603116
 40
0.7993197305735409
 40
0.8996598652867703
 40
1.0
 40
1.0
 40
1.0
 40
1.0
 10
16.0874995161521
 20
-8.05000017797661
 30
0.0
 10
16.0875808950846
 20
-8.05000017797661
 30
0.0
 10
16.0898269978429
 20
-8.05000017797661
 30
0.0
 10
16.0997236784215
 20
-8.05000017797661
 30
0.0
 10
16.1162860681815
 20
-8.05000017797661
 30
0.0
 10
16.1389562022415
 20
-8.05000017797661
 30
0.0
 10
16.1676289759415
 20
-8.05000017797661
 30
0.0
 10
16.2021864144715
 20
-8.05000017797661
 30
0.0
 10
16.2421142051315
 20
-8.05000017797661
 30
0.0
 10
16.2865775042815
 20
-8.05000017797661
 30
0.0
 10
16.3353305291615
 20
-8.05000017797661
 30
0.0
 10
16.3701764594914
 20
-8.05000017797661
 30
0.0
 10
16.3882165161515
 20
-8.05000017797661
 30
0.0
  0
SPLINE
  5
10BF
330
18
100
AcDbEntity
  8
1
100
AcDbSpline
210
0.0
220
0.0
230
1.0
 70
     8
 71
     3
 72
    20
 73
    16
 74
     0
 42
0.000000001
 43
0.0000000001
 40
0.0
 40
0.0
 40
0.0
 40
0.0
 40
0.07692307692308
 40
0.1538461538462
 40
0.2307692307692
 40
0.3076923076923
 40
0.3846153846154001
 40
0.4615384615385
 40
0.5384615384615003
 40
0.6153846153846
 40
0.6923076923077
 40
0.7692307692308003
 40
0.8461538461538001
 40
0.9230769230769
 40
1.0
 40
1.0
 40
1.0
 40
1.0
 10
16.3882165161515
 20
-8.05000017797661
 30
0.0
 10
16.3987544817514
 20
-8.02490917034859
 30
0.0
 10
16.4199696030014
 20
-7.97712623830458
 30
0.0
 10
16.4520339244715
 20
-7.91258014539258
 30
0.0
 10
16.4841573890614
 20
-7.85507054875458
 30
0.0
 10
16.5162284648015
 20
-7.80435439767885
 30
0.0
 10
16.5482711286114
 20
-7.76000152317871
 30
0.0
 10
16.5805204620815
 20
-7.72148827571172
 30
0.0
 10
16.6124598878115
 20
-7.68920859309074
 30
0.0
 10
16.6437645195113
 20
-7.6630484379306
 30
0.0
 10
16.6742567377615
 20
-7.64265516302473
 30
0.0
 10
16.7039000541214
 20
-7.62755633259459
 30
0.0
 10
16.7325918811915
 20
-7.61732891497061
 30
0.0
 10
16.7603357210814
 20
-7.61148589840368
 30
0.0
 10
16.7785152588915
 20
-7.61023177760674
 30
0.0
 10
16.7874997254613
 20
-7.61023177760674
 30
0.0
  0
SPLINE
  5
10C1
330
18
100
AcDbEntity
  8
1
100
AcDbSpline
210
0.0
220
0.0
230
1.0
 70
    24
 71
     3
 72
    17
 73
    13
 74
     0
 42
0.000000001
 43
0.0000000001
 40
0.0
 40
0.0
 40
0.0
 40
0.0
 40
0.1000088680655954
 40
0.2000177361311908
 40
0.3000266041967861
 40
0.4000354722623815
 40
0.5000443403279771
 40
0.6000532083935724
 40
0.7000620764591675
 40
0.8000709445247629
 40
0.9000798125903584
 40
1.0
 40
1.0
 40
1.0
 40
1.0
 10
16.4100162093615
 20
7.9999998220234
 30
0.0
 10
16.3907993051315
 20
7.9999998220234
 30
0.0
 10
16.3536479499815
 20
7.9999998220234
 30
0.0
 10
16.3014708525815
 20
7.9999998220234
 30
0.0
 10
16.2539550895514
 20
7.9999998220234
 30
0.0
 10
16.2111133451715
 20
7.9999998220234
 30
0.0
 10
16.1739279262014
 20
7.9999998220234
 30
0.0
 10
16.1429887613215
 20
7.9999998220234
 30
0.0
 10
16.1185867387513
 20
7.9999998220234
 30
0.0
 10
16.1007068798815
 20
7.9999998220234
 30
0.0
 10
16.089896096874
 20
7.9999998220234
 30
0.0
 10
16.0874908571562
 20
7.9999998220234
 30
0.0
 10
16.0875044369069
 20
7.99999982202323
 30
0.0
  0
SPLINE
  5
10C2
330
18
100
AcDbEntity
  8
1
100
AcDbSpline
210
0.0
220
0.0
230
1.0
 70
     8
 71
     3
 72
    19
 73
    15
 74
     0
 42
0.000000001
 43
0.0000000001
 40
0.0
 40
0.0
 40
0.0
 40
0.0
 40
0.08333333333333
 40
0.1666666666667
 40
0.25
 40
0.3333333333332999
 40
0.4166666666667
 40
0.5
 40
0.5833333333333001
 40
0.6666666666667
 40
0.75
 40
0.8333333333332999
 40
0.9166666666667
 40
1.0
 40
1.0
 40
1.0
 40
1.0
 10
16.7874997254613
 20
7.61023142165337
 30
0.0
 10
16.7783058999414
 20
7.61023142165337
 30
0.0
 10
16.7596937977514
 20
7.61154506785121
 30
0.0
 10
16.7312729457613
 20
7.61767211252939
 30
0.0
 10
16.7018355599613
 20
7.62842165507126
 30
0.0
 10
16.6714379311415
 20
7.64429728497336
 30
0.0
 10
16.6402353253814
 20
7.6656947915844
 30
0.0
 10
16.6081639316114
 20
7.69317545027232
 30
0.0
 10
16.5754029162315
 20
7.72714840656326
 30
0.0
 10
16.5423471913115
 20
7.7676838578424
 30
0.0
 10
16.5094565225814
 20
7.8144619082644
 30
0.0
 10
16.4763420314913
 20
7.86835117717626
 30
0.0
 10
16.4431281119114
 20
7.92968396698128
 30
0.0
 10
16.4210208914614
 20
7.9757010042164
 30
0.0
 10
16.4100162093615
 20
7.9999998220234
 30
0.0
  0
SPLINE
  5
10C3
330
18
100
AcDbEntity
  8
1
100
AcDbSpline
210
0.0
220
0.0
230
1.0
 70
     8
 71
     3
 72
    56
 73
    52
 74
     0
 42
0.000000001
 43
0.0000000001
 40
0.0
 40
0.0
 40
0.0
 40
0.0
 40
0.0204102750598562
 40
0.0408205501197023
 40
0.0612308251795585
 40
0.0816411002394047
 40
0.1020513752992308
 40
0.122461650359077
 40
0.1428719254189232
 40
0.1632822004787694
 40
0.1836924755387155
 40
0.2041027505985617
 40
0.2245130256584079
 40
0.2449233007182541
 40
0.2653335757781002
 40
0.2857438508379464
 40
0.3061541258977926
 40
0.3265644009576387
 40
0.3469746760174849
 40
0.3673849510773311
 40
0.3877952261371773
 40
0.4082055011970235
 40
0.4286157762568696
 40
0.4490260513167157
 40
0.469436326376562
 40
0.4898466014364082
 40
0.5102568764963543
 40
0.5306671515562004
 40
0.5510774266160468
 40
0.5714877016758928
 40
0.5918979767357391
 40
0.6123082517955851
 40
0.6327185268554314
 40
0.6531288019152775
 40
0.6735390769751236
 40
0.6939493520349699
 40
0.714359627094816
 40
0.7347699021546622
 40
0.7551801772145083
 40
0.7755904522743548
 40
0.7960007273342007
 40
0.8164110023940466
 40
0.8368212774539928
 40
0.8572315525138391
 40
0.8776418275736851
 40
0.8980521026335315
 40
0.9184623776933776
 40
0.9388726527532238
 40
0.95928292781307
 40
0.9796932028729159
 40
1.0
 40
1.0
 40
1.0
 40
1.0
 10
12.0225046633457
 20
31.4700006108832
 30
0.0
 10
12.0224947875773
 20
31.4699990331633
 30
0.0
 10
12.0156974891015
 20
31.4689131192632
 30
0.0
 10
11.9850486514815
 20
31.4640362635533
 30
0.0
 10
11.9341453581514
 20
31.4560007525534
 30
0.0
 10
11.8629521966014
 20
31.4448973804132
 30
0.0
 10
11.7719577127315
 20
31.4309348223032
 30
0.0
 10
11.6610811155613
 20
31.4142698658932
 30
0.0
 10
11.5311145705115
 20
31.3952232960734
 30
0.0
 10
11.3820900887415
 20
31.3740328235032
 30
0.0
 10
11.2149329629315
 20
31.3510911266334
 30
0.0
 10
11.0300754535015
 20
31.3267399055234
 30
0.0
 10
10.8283036858713
 20
31.3013875464134
 30
0.0
 10
10.6107355304014
 20
31.2754870284334
 30
0.0
 10
10.3778265514015
 20
31.2494185950234
 30
0.0
 10
10.1313740946313
 20
31.2237044161832
 30
0.0
 10
9.87158199534133
 20
31.1986869898134
 30
0.0
 10
9.60066111162138
 20
31.1748858147634
 30
0.0
 10
9.31878871769146
 20
31.1526076232033
 30
0.0
 10
9.02817411573131
 20
31.1322985987034
 30
0.0
 10
8.72930862228145
 20
31.1142330631234
 30
0.0
 10
8.42390165352134
 20
31.0987344965534
 30
0.0
 10
8.11314820262152
 20
31.0860387817332
 30
0.0
 10
7.7979067914315
 20
31.0763357414834
 30
0.0
 10
7.48015382094138
 20
31.0697920657533
 30
0.0
 10
7.16002706616149
 20
31.0664899540934
 30
0.0
 10
6.83995730136138
 20
31.0664900607634
 30
0.0
 10
6.51983619007137
 20
31.0697921828632
 30
0.0
 10
6.20207143410141
 20
31.0763363100634
 30
0.0
 10
5.88684640982143
 20
31.0860389354732
 30
0.0
 10
5.57607106063148
 20
31.0987357218633
 30
0.0
 10
5.27068661724132
 20
31.1142333158634
 30
0.0
 10
4.9718041612515
 20
31.1322999592434
 30
0.0
 10
4.68120343841139
 20
31.1526081912834
 30
0.0
 10
4.39932371769134
 20
31.1748870151034
 30
0.0
 10
4.1284065941515
 20
31.1986880095234
 30
0.0
 10
3.86861619548131
 20
31.2237053207834
 30
0.0
 10
3.62215893753131
 20
31.2494201169134
 30
0.0
 10
3.38925894999153
 20
31.2754875954633
 30
0.0
 10
3.17167973402149
 20
31.3013895104033
 30
0.0
 10
2.96992124664138
 20
31.3267402635734
 30
0.0
 10
2.78505219052136
 20
31.3510930439132
 30
0.0
 10
2.61790643719138
 20
31.3740332423134
 30
0.0
 10
2.46887607417136
 20
31.3952245613634
 30
0.0
 10
2.33891449122137
 20
31.4142704425632
 30
0.0
 10
2.22803718641148
 20
31.4309355109433
 30
0.0
 10
2.13704321434147
 20
31.4448980077433
 30
0.0
 10
2.06585314646145
 20
31.4560009017933
 30
0.0
 10
2.01494938099148
 20
31.4640364882434
 30
0.0
 10
1.98435391348937
 20
31.4689048530211
 30
0.0
 10
1.97752349212584
 20
31.4699960252247
 30
0.0
 10
1.97750444376231
 20
31.4699990682438
 30
0.0
  0
LINE
  5
10CA
330
18
100
AcDbEntity
  8
4
100
AcDbLine
 10
0
 20
0
 30
0.0
 11
70
 21
-8.53E-14
 31
0.0
  0
LINE
  5
10CB
330
18
100
AcDbEntity
  8
SK4
100
AcDbLine
 10
74.9129448813528
 20
-9.24E-14
 30
0.0
 11
-32.3878113348601
 21
-9.24E-14
 31
0.0
  0
MTEXT
  5
10D4
330
18
100
AcDbEntity
  8
SK6
100
AcDbMText
 10
-31.8999999999999
 20
-35.8743186771829
 30
0.0
 40
3.5
 41
41.58533020305617
 71
     1
 72
     5
  1
{\fMonospac821 BT|b0|i0|c0|p49;HSKA63-HC08-070}
  7
USER1
 73
     1
 44
1.0
1001
ACAD
1000
ACAD_MTEXT_COLUMN_INFO_BEGIN
1070
    75
1070
     2
1070
    79
1070
     0
1070
    76
1070
     1
1070
    78
1070
     0
1070
    48
1040
41.58533020305617
1070
    49
1040
25.0
1070
    50
1070
     1
1040
0.0
1000
ACAD_MTEXT_COLUMN_INFO_END
1000
MTEXTBEGIN
1070
    73
1070
     1
1070
    44
1040
1.0
1070
    74
1070
     0
1000
MTEXTEND
  0
DIMENSION
  5
10DA
102
{ACAD_XDICTIONARY
360
10EB
102
}
102
{ACAD_REACTORS
330
10EC
102
}
330
18
100
AcDbEntity
  8
2
100
AcDbDimension
  2
*D3
 10
67.9128789999998
 20
12.1
 30
0.0
 11
80.2847383645959
 21
18.9608969707852
 31
0.0
 70
   162
  1
<>
 71
     5
 42
0.1308996909523381
  3
AM_DIN
100
AcDb2LineAngularDimension
 13
53.2910519999998
 23
14.025
 33
0.0
 14
45
 24
14.025
 34
0.0
 15
53.2910519999998
 25
14.025
 35
0.0
 16
80.6278794169063
 26
11.6333375583792
 36
0.0
1001
ACAD_DSTYLE_DIMINSPECT
1070
   396
1000
100%
1070
   395
1000

1070
   394
1070
    33
1070
   393
1070
     0
1001
ACAD
1000
DSTYLE
1002
{
1070
   179
1070
     1
1002
}
  0
DIMENSION
  5
1157
102
{ACAD_XDICTIONARY
360
1164
102
}
102
{ACAD_REACTORS
330
1165
102
}
330
18
100
AcDbEntity
  8
2
100
AcDbDimension
  2
*D4
 10
105
 20
-14.0250000000001
 30
0.0
 11
105
 21
-7.91E-14
 31
0.0
 70
   160
  1
%%c<>
 71
     5
 42
28.05000000000002
  3
AM_DIN
100
AcDbAlignedDimension
 13
53.2910519999998
 23
14.025
 33
0.0
 14
53.2910519999998
 24
-14.0250000000001
 34
0.0
 50
90.0
100
AcDbRotatedDimension
1001
ACAD_DSTYLE_DIMINSPECT
1070
   396
1000
100%
1070
   395
1000

1070
   394
1070
    33
1070
   393
1070
     0
1001
ACAD
1000
DSTYLE
1002
{
1070
   271
1070
     0
1002
}
  0
DIMENSION
  5
11C0
102
{ACAD_XDICTIONARY
360
11CD
102
}
102
{ACAD_REACTORS
330
11CE
102
}
330
18
100
AcDbEntity
  8
2
100
AcDbDimension
  2
*D5
 10
120
 20
-24.8750000000001
 30
0.0
 11
120
 21
0.12499999999989
 31
0.0
 70
   160
  1
%%c<>
 71
     5
 42
50.00000000000004
  3
AM_DIN
100
AcDbAlignedDimension
 13
38.999349
 23
25.1249999999999
 33
0.0
 14
38.999349
 24
-24.8750000000001
 34
0.0
 50
90.00000000000005
100
AcDbRotatedDimension
1001
ACAD
1000
DSTYLE
1002
{
1070
   286
1070
     8
1070
   274
1070
     3
1070
   284
1070
     8
1070
   283
1070
     1
1070
   146
1040
0.7071069999999999
1070
   272
1070
     2
1070
    47
1040
0.0
1070
    48
1040
0.000000001
1070
    72
1070
     0
1070
    71
1070
     0
1002
}
1001
ACAD_DSTYLE_DIMINSPECT
1070
   396
1000
100%
1070
   395
1000

1070
   394
1070
    33
1070
   393
1070
     0
  0
DIMENSION
  5
11E1
102
{ACAD_XDICTIONARY
360
11EE
102
}
102
{ACAD_REACTORS
330
11EF
102
}
330
18
100
AcDbEntity
  8
SK2
100
AcDbDimension
  2
*D6
 10
70
 20
135
 30
0.0
 11
19.0500000000001
 21
135
 31
0.0
 70
   160
 71
     5
 42
101.8999999999998
  3
AM_DIN
100
AcDbAlignedDimension
 13
-31.8999999999999
 23
21.581088
 33
0.0
 14
70
 24
10.8949999999999
 34
0.0
100
AcDbRotatedDimension
1001
ACAD_DSTYLE_DIMINSPECT
1070
   396
1000
100%
1070
   395
1000

1070
   394
1070
    33
1070
   393
1070
     0
1001
ACAD
1000
DSTYLE
1002
{
1070
   286
1070
     8
1070
   274
1070
     3
1070
   284
1070
     8
1070
   283
1070
     1
1070
   146
1040
0.7071069999999999
1070
   272
1070
     2
1070
    47
1040
0.0
1070
    48
1040
0.000000001
1070
    72
1070
     0
1070
    71
1070
     0
1002
}
  0
DIMENSION
  5
1202
102
{ACAD_XDICTIONARY
360
120F
102
}
102
{ACAD_REACTORS
330
1210
102
}
330
18
100
AcDbEntity
  8
2
100
AcDbDimension
  2
*D7
 10
70
 20
120
 30
0.0
 11
35
 21
120
 31
0.0
 70
   160
 71
     5
 42
70.0
  3
AM_DIN
100
AcDbAlignedDimension
 13
0
 23
30.9699999999999
 33
0.0
 14
70
 24
10.8949999999999
 34
0.0
100
AcDbRotatedDimension
1001
ACAD_DSTYLE_DIMINSPECT
1070
   396
1000
100%
1070
   395
1000

1070
   394
1070
    33
1070
   393
1070
     0
1001
ACAD
1000
DSTYLE
1002
{
1070
   286
1070
     8
1070
   274
1070
     3
1070
   284
1070
     8
1070
   283
1070
     1
1070
   146
1040
0.7071069999999999
1070
   272
1070
     2
1070
    47
1040
0.0
1070
    48
1040
0.000000001
1070
    72
1070
     0
1070
    71
1070
     0
1002
}
  0
DIMENSION
  5
1223
102
{ACAD_XDICTIONARY
360
1230
102
}
102
{ACAD_REACTORS
330
1231
102
}
330
18
100
AcDbEntity
  8
2
100
AcDbDimension
  2
*D8
 10
70
 20
105
 30
0.0
 11
47.975
 21
105
 31
0.0
 70
   160
 71
     5
 42
44.05000000000001
  3
AM_DIN
100
AcDbAlignedDimension
 13
25.95
 23
31.0700000000001
 33
0.0
 14
70
 24
10.8949999999999
 34
0.0
100
AcDbRotatedDimension
1001
ACAD_DSTYLE_DIMINSPECT
1070
   396
1000
100%
1070
   395
1000

1070
   394
1070
    33
1070
   393
1070
     0
1001
ACAD
1000
DSTYLE
1002
{
1070
   271
1070
     0
1002
}
  0
DIMENSION
  5
1244
102
{ACAD_XDICTIONARY
360
1253
102
}
102
{ACAD_REACTORS
330
1254
102
}
330
18
100
AcDbEntity
  8
SK2
100
AcDbDimension
  2
*D9
 10
32.3401445284239
 20
-3.00000000000009
 30
0.0
 11
32.3401445284239
 21
-11.7658116654955
 31
0.0
 70
   160
  1
M<>
 71
     5
 42
5.999999999999999
  3
AM_DIN
100
AcDbAlignedDimension
 13
30
 23
2.99999999999991
 33
0.0
 14
30
 24
-3.00000000000008
 34
0.0
 50
90.0
100
AcDbRotatedDimension
1001
ACAD
1000
DSTYLE
1002
{
1070
   286
1070
     8
1070
   274
1070
     3
1070
   284
1070
     8
1070
   283
1070
     1
1070
   146
1040
0.7071069999999999
1070
   272
1070
     2
1070
    47
1040
0.0
1070
    48
1040
0.000000001
1070
    72
1070
     0
1070
    71
1070
     0
1002
}
1001
ACAD_DSTYLE_DIMINSPECT
1070
   396
1000
100%
1070
   395
1000

1070
   394
1070
    33
1070
   393
1070
     0
  0
DIMENSION
  5
126B
102
{ACAD_XDICTIONARY
360
1278
102
}
102
{ACAD_REACTORS
330
1279
102
}
330
18
100
AcDbEntity
  8
2
100
AcDbDimension
  2
*D10
 10
45
 20
59.9999999999999
 30
0.0
 11
57.5
 21
62.8114898102599
 31
0.0
 70
    32
 71
     5
 42
25.0
  3
AM_DIN
100
AcDbAlignedDimension
 13
70
 23
10.8949999999999
 33
0.0
 14
45
 24
14.025
 34
0.0
100
AcDbRotatedDimension
1001
ACAD
1000
DSTYLE
1002
{
1070
   286
1070
     8
1070
   274
1070
     3
1070
   284
1070
     8
1070
   283
1070
     1
1070
   146
1040
0.7071069999999999
1070
   272
1070
     2
1070
    47
1040
0.0
1070
    48
1040
0.000000001
1070
    72
1070
     0
1070
    71
1070
     0
1002
}
1001
ACAD_DSTYLE_DIMINSPECT
1070
   396
1000
100%
1070
   395
1000

1070
   394
1070
    33
1070
   393
1070
     0
  0
DIMENSION
  5
128C
102
{ACAD_XDICTIONARY
360
1299
102
}
102
{ACAD_REACTORS
330
129A
102
}
330
18
100
AcDbEntity
  8
SK2
100
AcDbDimension
  2
*D11
 10
44
 20
74.9999999999999
 30
0.0
 11
57
 21
74.9999999999999
 31
0.0
 70
   160
 71
     5
 42
26.0
  3
AM_DIN
100
AcDbAlignedDimension
 13
70
 23
10.8949999999999
 33
0.0
 14
44
 24
4.17500000000004
 34
0.0
100
AcDbRotatedDimension
1001
ACAD_DSTYLE_DIMINSPECT
1070
   396
1000
100%
1070
   395
1000

1070
   394
1070
    33
1070
   393
1070
     0
1001
ACAD
1000
DSTYLE
1002
{
1070
   286
1070
     8
1070
   274
1070
     3
1070
   284
1070
     8
1070
   283
1070
     1
1070
   146
1040
0.7071069999999999
1070
   272
1070
     2
1070
    47
1040
0.0
1070
    48
1040
0.000000001
1070
    72
1070
     0
1070
    71
1070
     0
1002
}
  0
DIMENSION
  5
12AD
102
{ACAD_XDICTIONARY
360
12BA
102
}
102
{ACAD_REACTORS
330
12BB
102
}
330
18
100
AcDbEntity
  8
SK2
100
AcDbDimension
  2
*D12
 10
33
 20
89.9999999999999
 30
0.0
 11
51.5
 21
89.9999999999999
 31
0.0
 70
   160
 71
     5
 42
37.0
  3
AM_DIN
100
AcDbAlignedDimension
 13
70
 23
10.8949999999999
 33
0.0
 14
33
 24
3.99999999999991
 34
0.0
100
AcDbRotatedDimension
1001
ACAD_DSTYLE_DIMINSPECT
1070
   396
1000
100%
1070
   395
1000

1070
   394
1070
    33
1070
   393
1070
     0
1001
ACAD
1000
DSTYLE
1002
{
1070
   286
1070
     8
1070
   274
1070
     3
1070
   284
1070
     8
1070
   283
1070
     1
1070
   146
1040
0.7071069999999999
1070
   272
1070
     2
1070
    47
1040
0.0
1070
    48
1040
0.000000001
1070
    72
1070
     0
1070
    71
1070
     0
1002
}
  0
DIMENSION
  5
135B
102
{ACAD_XDICTIONARY
360
1368
102
}
102
{ACAD_REACTORS
330
1369
102
}
330
18
100
AcDbEntity
  8
SK2
100
AcDbDimension
  2
*D13
 10
90.0000000000005
 20
-4.00000000000008
 30
0.0
 11
87.136858749122
 21
-1.926E-13
 31
0.0
 70
    32
  1
%%c<>
 71
     5
 42
7.999999999999829
  3
AM_DIN
100
AcDbAlignedDimension
 13
69.4803839999996
 23
3.99999999999974
 33
0.0
 14
69.4803839999996
 24
-4.00000000000009
 34
0.0
 50
90.0
100
AcDbRotatedDimension
1001
ACAD
1000
DSTYLE
1002
{
1070
   286
1070
     8
1070
   274
1070
     3
1070
   284
1070
     8
1070
   283
1070
     1
1070
   146
1040
0.7071069999999999
1070
   272
1070
     2
1070
    47
1040
0.0
1070
    48
1040
0.000000001
1070
    72
1070
     0
1070
    71
1070
     0
1002
}
1001
ACAD_DSTYLE_DIMINSPECT
1070
   396
1000
100%
1070
   395
1000

1070
   394
1070
    33
1070
   393
1070
     0
  0
LWPOLYLINE
  5
16A9
330
18
100
AcDbEntity
  8
NOCUT
100
AcDbPolyline
 90
      352
 70
     1
 43
0.0
 10
12.0225046633457
 20
31.4700006108831
 10
12.0222267448374
 20
31.4699562258429
 10
12.0214023462096
 20
31.4698246227503
 10
12.0200309383818
 20
31.4696058028837
 10
12.0181119922736
 20
31.4692997675214
 10
12.0156449788046
 20
31.4689065179416
 10
12.0126293688944
 20
31.4684260554225
 10
12.0090648023128
 20
31.4678584284185
 10
12.0049518395838
 20
31.4672039426398
 10
12.0002913535394
 20
31.4664629910543
 10
11.9950842172639
 20
31.4656359667004
 10
11.9893313038424
 20
31.4647232626166
 10
11.9830334863594
 20
31.4637252718414
 10
11.9761915518484
 20
31.4626423879524
 10
11.9688056403435
 20
31.461475008579
 10
11.9608755975189
 20
31.4602235331946
 10
11.952401267564
 20
31.4588883612814
 10
11.9433824946686
 20
31.4574698923221
 10
11.9338191230222
 20
31.4559685257991
 10
11.9237111241271
 20
31.4543846898379
 10
11.9130598213512
 20
31.4527191167089
 10
11.9018673530048
 20
31.4509727220296
 10
11.8901358686264
 20
31.4491464239438
 10
11.8778675177547
 20
31.447241140595
 10
11.8650644499281
 20
31.4452577901269
 10
11.8517287292392
 20
31.443197282896
 10
11.8378610855236
 20
31.4410604076588
 10
11.8234611922312
 20
31.4388478568963
 10
11.8085286938924
 20
31.436560320454
 10
11.7930632350373
 20
31.4341984881772
 10
11.777064460196
 20
31.4317630499114
 10
11.7605320876725
 20
31.4292547093613
 10
11.743467643958
 20
31.4266745099254
 10
11.7258745278712
 20
31.4240238467453
 10
11.7077562248369
 20
31.4213041312329
 10
11.6891162202802
 20
31.4185167748002
 10
11.6699579996263
 20
31.4156631888588
 10
11.6502850167448
 20
31.4127447813723
 10
11.6300993740915
 20
31.4097628126131
 10
11.609401342829
 20
31.4067183427194
 10
11.5881910638021
 20
31.403612417587
 10
11.5664686778559
 20
31.4004460831121
 10
11.5442343258354
 20
31.3972203851908
 10
11.5214881631655
 20
31.3939363722483
 10
11.4982316648698
 20
31.390595321636
 10
11.4744686589347
 20
31.3871989189008
 10
11.4502032165277
 20
31.3837488917767
 10
11.4254394088167
 20
31.380246967998
 10
11.4001813069692
 20
31.3766948752989
 10
11.3744329800924
 20
31.3730943412005
 10
11.3481979135819
 20
31.3694470328696
 10
11.3214782096792
 20
31.365754474458
 10
11.294275770274
 20
31.3620181694016
 10
11.2665924972559
 20
31.3582396211362
 10
11.2384302925147
 20
31.3544203330979
 10
11.209791058054
 20
31.3505618087438
 10
11.1806770186452
 20
31.3466656123574
 10
11.1510914283934
 20
31.3427335022006
 10
11.1210377461485
 20
31.33876727512
 10
11.0905194307601
 20
31.334768727962
 10
11.0595399410781
 20
31.3307396575729
 10
11.0281027359522
 20
31.3266818607994
 10
10.9962114985188
 20
31.3225971646361
 10
10.9638708839755
 20
31.3184875267417
 10
10.9310858108021
 20
31.3143549401649
 10
10.8978611974829
 20
31.310201397955
 10
10.8642019625027
 20
31.3060288931615
 10
10.8301130243457
 20
31.3018394188338
 10
10.7955989810088
 20
31.2976349328245
 10
10.7606625334151
 20
31.2934171846464
 10
10.7253056870408
 20
31.2891878474367
 10
10.6895304463096
 20
31.2849485942173
 10
10.6533388156454
 20
31.2807010980099
 10
10.6167327994719
 20
31.2764470318363
 10
10.5797148478082
 20
31.272188115851
 10
10.5422910653994
 20
31.2679264567861
 10
10.5044693480359
 20
31.263664350821
 10
10.466257603806
 20
31.2594040954359
 10
10.4276637407975
 20
31.2551479881111
 10
10.3886956670985
 20
31.2508983263268
 10
10.3493609467487
 20
31.2466573687709
 10
10.3096631237522
 20
31.2424269208628
 10
10.2696031387869
 20
31.2382084944906
 10
10.2291818887014
 20
31.2340035966006
 10
10.1884002703442
 20
31.2298137341392
 10
10.1472591805641
 20
31.2256404140526
 10
10.1057597782776
 20
31.221485166399
 10
10.0639077894545
 20
31.217349924009
 10
10.0217128184117
 20
31.2132369617473
 10
9.97918459263769
 20
31.2091485653415
 10
9.93633283962112
 20
31.205087020519
 10
9.89316728685054
 20
31.2010546130073
 10
9.84969751674129
 20
31.1970536133554
 10
9.80592905182385
 20
31.193085867341
 10
9.76186290700917
 20
31.1891527491254
 10
9.71749986228082
 20
31.1852556082903
 10
9.6728406976224
 20
31.1813957944174
 10
9.62788619301744
 20
31.1775746570885
 10
9.58263719638756
 20
31.1737935505477
 10
9.53709800946746
 20
31.1700540660629
 10
9.49127795720852
 20
31.1663581396288
 10
9.44518676025359
 20
31.1627077343954
 10
9.39883413924542
 20
31.1591048135123
 10
9.35222981482678
 20
31.1555513401294
 10
9.30538348685593
 20
31.1520492753172
 10
9.25830245064765
 20
31.1486003396036
 10
9.2109893897566
 20
31.1452057921708
 10
9.16344646591187
 20
31.1418668399995
 10
9.1156758408423
 20
31.1385846900701
 10
9.06767967627701
 20
31.1353605493634
 10
9.01946013707573
 20
31.1321956249862
 10
8.97102074083512
 20
31.1290911786371
 10
8.92236846386902
 20
31.1260486115964
 10
8.87351082738678
 20
31.1230693471347
 10
8.82445535259768
 20
31.1201548085223
 10
8.77520956071089
 20
31.1173064190294
 10
8.72578097289068
 20
31.1145256019191
 10
8.67617667475105
 20
31.1118137062871
 10
8.62640224832614
 20
31.109171825196
 10
8.57646295143075
 20
31.1066009964992
 10
8.52636404187973
 20
31.1041022580501
 10
8.47611077748786
 20
31.1016766477021
 10
8.42570841606999
 20
31.0993252033087
 10
8.3751620061866
 20
31.0970489340782
 10
8.32447561356037
 20
31.0948487146773
 10
8.27365301561366
 20
31.0927253803071
 10
8.22269798973121
 20
31.0906797661631
 10
8.17161431329765
 20
31.0887127074412
 10
8.12040576369765
 20
31.0868250393371
 10
8.0690766109563
 20
31.0850175868522
 10
8.0176342935946
 20
31.0832911094203
 10
7.96608750440112
 20
31.0816463405202
 10
7.91444493928367
 20
31.080084013566
 10
7.86271529415006
 20
31.0786048619718
 10
7.810907264908
 20
31.0772096191517
 10
7.75902899842151
 20
31.0758989932897
 10
7.70708372009074
 20
31.0746734664137
 10
7.65507205947586
 20
31.0735334012647
 10
7.60299462276902
 20
31.0724791595102
 10
7.55085201616236
 20
31.0715111028175
 10
7.49864484584805
 20
31.0706295928539
 10
7.44637415579592
 20
31.0698349871735
 10
7.39404663598077
 20
31.0691275902795
 10
7.34167290208307
 20
31.0685076697891
 10
7.28926364919414
 20
31.067975492573
 10
7.23682957240504
 20
31.0675313255022
 10
7.18438136680714
 20
31.0671754354476
 10
7.13192944098188
 20
31.0669080824129
 10
7.07947860379738
 20
31.0667293921886
 10
7.02702856475309
 20
31.0666393683441
 10
6.97457884718261
 20
31.0666380099864
 10
6.92212897441948
 20
31.066725316223
 10
6.86967846979735
 20
31.066901286161
 10
6.81722700663653
 20
31.0671659153425
 10
6.76477908982224
 20
31.0675190844609
 10
6.71234497695309
 20
31.0679605374648
 10
6.65993526160435
 20
31.0684900103167
 10
6.6075605373515
 20
31.0691072389789
 10
6.55523139776989
 20
31.0698119594136
 10
6.50295837753884
 20
31.0706039069611
 10
6.45074840496227
 20
31.0714827788658
 10
6.39860277630913
 20
31.0724482128783
 10
6.34652229841157
 20
31.0734998415792
 10
6.29450777810189
 20
31.0746372975491
 10
6.24256002221227
 20
31.0758602133683
 10
6.19067985255163
 20
31.0771682209164
 10
6.13887037475121
 20
31.078560845154
 10
6.08713940943557
 20
31.0800373903066
 10
6.03549536010763
 20
31.0815971333116
 10
5.98394663027045
 20
31.0832393511066
 10
5.93250162342701
 20
31.0849633206292
 10
5.88116874168702
 20
31.086768318775
 10
5.82995538081303
 20
31.0886535922965
 10
5.77886615770018
 20
31.0906183047099
 10
5.72790521364146
 20
31.0926616052853
 10
5.67707668992978
 20
31.094782643293
 10
5.62638472785807
 20
31.0969805680034
 10
5.5758334687207
 20
31.0992545286864
 10
5.5254271869598
 20
31.1016036445059
 10
5.475170654858
 20
31.1040269220596
 10
5.4250687610301
 20
31.1065233416415
 10
5.37512639409084
 20
31.1090918835453
 10
5.32534844265507
 20
31.111731528065
 10
5.27573979533753
 20
31.1144412554945
 10
5.22630572236608
 20
31.1172199915092
 10
5.17705343717563
 20
31.1200663836635
 10
5.1279907701637
 20
31.1229789912088
 10
5.07912555198061
 20
31.1259563733604
 10
5.03046561327653
 20
31.1289970893338
 10
4.98201878470178
 20
31.1320996983442
 10
4.93379236052988
 20
31.1352627822003
 10
4.88578988222912
 20
31.1384850807874
 10
4.8380132885344
 20
31.1417654015013
 10
4.79046451217221
 20
31.1451025519908
 10
4.74314548586892
 20
31.1484953399049
 10
4.69605814235103
 20
31.1519425728924
 10
4.64920489641167
 20
31.1554430111468
 10
4.60259289536339
 20
31.1589949489835
 10
4.55623197117285
 20
31.1625964164356
 10
4.51013198656733
 20
31.1662454405082
 10
4.46430280427404
 20
31.1699400482062
 10
4.41875428702025
 20
31.1736782665348
 10
4.37349594864588
 20
31.1774581464415
 10
4.32853231929647
 20
31.181278080883
 10
4.28386421022458
 20
31.185136718027
 10
4.2394923435707
 20
31.1890327121566
 10
4.19541744147528
 20
31.1929647175551
 10
4.15164022607894
 20
31.1969313885056
 10
4.10816161718588
 20
31.2009313586781
 10
4.0649868914586
 20
31.2049628073914
 10
4.0221255797199
 20
31.2090234703232
 10
3.97958738991321
 20
31.21311106468
 10
3.93738202998173
 20
31.2172233076686
 10
3.89551920786886
 20
31.2213579164956
 10
3.85400853389626
 20
31.2255126169382
 10
3.8128559645308
 20
31.229685455554
 10
3.77206278984818
 20
31.2338748885737
 10
3.73162999598992
 20
31.2380793989115
 10
3.69155856909765
 20
31.2422974694812
 10
3.65184949531283
 20
31.2465275831969
 10
3.61250379242847
 20
31.2507682194063
 10
3.57352485349895
 20
31.2550175898324
 10
3.53492005677901
 20
31.2592734571792
 10
3.49669716144484
 20
31.2635335412313
 10
3.45886392667256
 20
31.2677955617734
 10
3.42142811163836
 20
31.2720572385904
 10
3.38439746797979
 20
31.2763162922584
 10
3.3477781718575
 20
31.2805706087483
 10
3.31157289541994
 20
31.2848184418851
 10
3.27578383841325
 20
31.2890580950871
 10
3.24041320058325
 20
31.2932878717722
 10
3.20546318167595
 20
31.2975060753587
 10
3.1709359818355
 20
31.301711009222
 10
3.13683435239483
 20
31.305900917414
 10
3.10316268989573
 20
31.3100738669163
 10
3.06992569649128
 20
31.3142278918182
 10
3.03712807433447
 20
31.3183610262092
 10
3.00477452557834
 20
31.3224713041785
 10
2.9728697523758
 20
31.3265567598155
 10
2.94141828684519
 20
31.3306154505261
 10
2.91042397230529
 20
31.3346455281699
 10
2.87989047768258
 20
31.3386451685207
 10
2.84982147190362
 20
31.3426125473522
 10
2.82022062389478
 20
31.3465458404382
 10
2.79109160258264
 20
31.3504432235523
 10
2.76243784610517
 20
31.3543029133786
 10
2.73426151776084
 20
31.3581233525819
 10
2.70656434307938
 20
31.3619030614271
 10
2.67934804719505
 20
31.3656405602495
 10
2.65261435524195
 20
31.3693343693839
 10
2.62636499235429
 20
31.3729830091655
 10
2.60060188694354
 20
31.3765849781056
 10
2.57532851676558
 20
31.3801386083787
 10
2.55054907282351
 20
31.3836421555857
 10
2.52626774990841
 20
31.3870938749205
 10
2.50248874281146
 20
31.3904920215774
 10
2.47921624632385
 20
31.3938348507503
 10
2.45645423148681
 20
31.3971206560865
 10
2.43420425777049
 20
31.4003481456791
 10
2.41246641429984
 20
31.4035162803109
 10
2.39124076926436
 20
31.4066240243627
 10
2.37052739085362
 20
31.4096703422151
 10
2.35032634725701
 20
31.4126541982488
 10
2.33063782175338
 20
31.4155745441563
 10
2.31146382562071
 20
31.4184301301011
 10
2.29280783355517
 20
31.4212195449111
 10
2.27467336129342
 20
31.4239413728892
 10
2.25706392457186
 20
31.4265941983388
 10
2.23998303912708
 20
31.4291766055632
 10
2.22343414836836
 20
31.4316871924278
 10
2.20741888637826
 20
31.4341248960717
 10
2.19193699300206
 20
31.4364890088293
 10
2.17698811876443
 20
31.4387788397839
 10
2.16257191419004
 20
31.4409936980187
 10
2.14868802980362
 20
31.443132892617
 10
2.13533613869203
 20
31.4451957306269
 10
2.1225169058531
 20
31.4471814296319
 10
2.11023235546741
 20
31.4490890846244
 10
2.09848461002451
 20
31.4509177817302
 10
2.08727579201394
 20
31.4526666070749
 10
2.07660802392519
 20
31.454334646784
 10
2.06648342025829
 20
31.4559209887931
 10
2.05690334516777
 20
31.4574248910201
 10
2.04786780945568
 20
31.4588459179695
 10
2.03937668201814
 20
31.4601836662928
 10
2.03142983175115
 20
31.4614377326418
 10
2.02402712755082
 20
31.4626077136681
 10
2.01716843909372
 20
31.4636932060497
 10
2.01085387128262
 20
31.4646938143674
 10
2.00508409310532
 20
31.4656091621544
 10
1.99985985635538
 20
31.4664388757257
 10
1.99518191282652
 20
31.4671825813965
 10
1.99105101431229
 20
31.4678399054818
 10
1.98746791258878
 20
31.46841047431
 10
1.98443330070199
 20
31.4688939579771
 10
1.98194768205423
 20
31.4692901679083
 10
1.98001152184094
 20
31.4695989440021
 10
1.97862528525752
 20
31.4698201261569
 10
1.97778943749955
 20
31.4699535542713
 10
1.97750444376231
 20
31.4699990682437
 10
1.97750000000002
 20
31.4699999999999
 10
0.5
 20
31.4699999999999
 10
0.5
 20
31.4699999999999
 10
0
 20
30.9699999999999
 10
0
 20
30.9699999999999
 10
0
 20
-9.95E-14
 10
0
 20
-8.53E-14
 10
70
 20
-1.705E-13
 10
70
 20
-1.705E-13
 10
70
 20
10.8949999999998
 10
70
 20
10.8949999999998
 10
67.9128789999998
 20
12.1
 10
67.9128789999998
 20
12.1
 10
53.2910519999998
 20
14.0249999999999
 10
53.2910519999998
 20
14.0249999999999
 10
45
 20
14.0249999999999
 10
45
 20
14.0249999999998
 42
-0.3152987888789895
 10
44.2482459033712
 20
14.5513838853393
 10
44.248246
 20
14.5513839999998
 10
40.8787339999998
 20
23.8090399999998
 10
40.8787342415718
 20
23.8090402866511
 42
0.3152987888789858
 10
38.999349
 20
25.1249999999998
 10
38.999349
 20
25.1249999999998
 10
26.75
 20
25.1249999999998
 10
26.75
 20
25.1249999999998
 42
-0.4142135623730951
 10
25.95
 20
25.9249999999998
 10
25.95
 20
25.9249999999998
 10
25.95
 20
31.07
 10
25.95
 20
31.07
 10
25.55
 20
31.4699999999999
 10
25.55
 20
31.4699999999999
 10
21.585937
 20
31.4699999999999
 10
21.585937
 20
31.4699999999999
 10
21.085937
 20
30.9699999999999
 10
21.085937
 20
30.9699999999999
 10
19.9125
 20
28.937547
 10
19.9125
 20
28.937547
 10
19.9125
 20
28.1749999999998
 10
19.9125
 20
28.1749999999998
 42
-0.4142135623730951
 10
19.2125
 20
27.4749999999998
 10
19.2125
 20
27.4749999999998
 10
16.7875
 20
27.4749999999998
 10
16.7875
 20
27.4749999999998
 42
-0.4142135623730951
 10
16.0875
 20
28.1749999999998
 10
16.0875
 20
28.1749999999998
 10
16.0875
 20
28.937547
 10
16.0875
 20
28.937547
 10
14.914063
 20
30.9699999999999
 10
14.914063
 20
30.9699999999999
 10
14.414063
 20
31.4699999999999
 10
14.414063
 20
31.4699999999999
 10
12.0225
 20
31.4699999999999
  0
VIEWPORT
  5
B5D
102
{ACAD_XDICTIONARY
360
B5E
102
}
330
B56
100
AcDbEntity
 67
     1
  8
0
100
AcDbViewport
 10
148.4886727696569
 20
104.9919908472322
 30
0.0
 40
360.5799308901367
 41
215.6936333192457
 68
     1
 69
     1
 12
148.4886727696569
 22
104.9919908472322
 13
0.0
 23
0.0
 14
10.0
 24
10.0
 15
10.0
 25
10.0
 16
0.0
 26
0.0
 36
1.0
 17
0.0
 27
0.0
 37
0.0
 42
50.0
 43
0.0
 44
0.0
 45
215.6936333192457
 50
0.0
 51
0.0
 72
  2000
 90
   819232
  1

281
     0
 71
     1
 74
     0
110
0.0
120
0.0
130
0.0
111
1.0
121
0.0
131
0.0
112
0.0
122
1.0
132
0.0
 79
     0
146
0.0
1001
GENIUS_GENODEF_13
1002
{
1000
HIER
1070
     0
1002
}
1002
{
1000
MANEDIT
1070
     0
1002
}
1002
{
1000
NOSEL
1070
     0
1002
}
1002
{
1000
BEHIND
1070
     0
1002
}
1002
{
1000
OTHER
1070
     0
1002
}
1002
{
1000
REACTOR
1002
}
1001
GENIUS_GENOBJ-N-SDF_13
1002
{
1000
OWNER
1000
GEN
1002
}
1001
GENIUS_GENSCREG_15
1000
PF
1040
1.0
1000
DF
1040
1.0
1000
MIN
1011
-31.80129267541145
1021
-2.854825812390629
1031
0.0
1000
MAX
1011
328.7786382147253
1021
212.8388075068551
1031
0.0
1000
FLAGS
1070
     4
  0
VIEWPORT
  5
B61
102
{ACAD_XDICTIONARY
360
B62
102
}
330
B56
100
AcDbEntity
 67
     1
  8
1
100
AcDbViewport
 10
148.5
 20
105.0
 30
0.0
 40
297.0
 41
210.0
 68
     2
 69
     2
 12
0.3212157160238718
 22
-0.0519849240370149
 13
0.0
 23
0.0
 14
5.0
 24
5.0
 15
5.0
 25
5.0
 16
0.0
 26
0.0
 36
1.0
 17
0.0
 27
0.0
 37
0.0
 42
50.0
 43
0.0
 44
0.0
 45
210.0000000373879
 50
0.0
 51
0.0
 72
  2000
 90
   819232
  1

281
     0
 71
     1
 74
     0
110
0.0
120
0.0
130
0.0
111
1.0
121
0.0
131
0.0
112
0.0
122
1.0
132
0.0
 79
     0
146
0.0
1001
GENIUS_GENODEF_13
1002
{
1000
HIER
1070
     0
1002
}
1002
{
1000
MANEDIT
1070
     0
1002
}
1002
{
1000
NOSEL
1070
     0
1002
}
1002
{
1000
BEHIND
1070
     0
1002
}
1002
{
1000
OTHER
1070
     0
1002
}
1002
{
1000
REACTOR
1002
}
1001
GENIUS_GENOBJ-N-SDF_13
1002
{
1000
OWNER
1000
GEN
1002
}
1001
GENIUS_GENSCREG_15
1000
PF
1040
0.0
1000
DF
1040
0.0
1000
MIN
1011
0.0
1021
0.0
1031
0.0
1000
MAX
1011
297.0
1021
210.0
1031
0.0
1000
FLAGS
1070
     4
  0
ENDSEC
  0
SECTION
  2
OBJECTS
  0
DICTIONARY
  5
C
330
0
100
AcDbDictionary
281
     1
  3
ACAD_2007HEADERVARS_RT
350
267E
  3
ACAD_BACKGROUND
350
B0F
  3
ACAD_CIP_PREVIOUS_PRODUCT_INFO
350
CF7
  3
ACAD_COLOR
350
387
  3
ACAD_DETAILVIEWSTYLE
350
CEF
  3
ACAD_FIELDLIST
350
D13
  3
ACAD_GROUP
350
D
  3
ACAD_LAYOUT
350
301
  3
ACAD_MATERIAL
350
386
  3
ACAD_MLEADERSTYLE
350
46F
  3
ACAD_MLINESTYLE
350
E
  3
ACAD_PLOTSETTINGS
350
302
  3
ACAD_PLOTSTYLENAME
350
2FF
  3
ACAD_SCALELIST
350
44D
  3
ACAD_SECTIONVIEWSTYLE
350
CED
  3
ACAD_TABLESTYLE
350
388
  3
ACAD_VISUALSTYLE
350
3F2
  3
ACDB_RECOMPOSE_DATA
350
267C
  3
AcDbVariableDictionary
350
357
  3
AcmDictionary
350
4D1
  3
AMG
350
478
  3
AMGSNAPSETTINGS
350
51E
  3
DWGPROPS
350
267D
  0
DICTIONARY
  5
A45
330
8
100
AcDbDictionary
280
     1
281
     1
  0
DICTIONARY
  5
43C
330
2
100
AcDbDictionary
280
     1
281
     1
  3
ACAD_LAYERFILTERS
360
B21
  3
ACAD_LAYERSTATES
360
567
  3
ACLYDICTIONARY
360
B20
  3
AMLAYER_GROUPCOLORS
360
E31
  0
DICTIONARY
  5
52D
330
F
100
AcDbDictionary
280
     1
281
     1
  3
ADSK_XREC_LAYER_RECONCILED
360
1A0B
  0
DICTIONARY
  5
52F
330
23
100
AcDbDictionary
280
     1
281
     1
  3
ADSK_XREC_LAYER_RECONCILED
360
1A0C
  0
DICTIONARY
  5
531
330
24
100
AcDbDictionary
280
     1
281
     1
  3
ADSK_XREC_LAYER_RECONCILED
360
1A0D
  0
DICTIONARY
  5
533
330
25
100
AcDbDictionary
280
     1
281
     1
  3
ADSK_XREC_LAYER_RECONCILED
360
1A0E
  0
DICTIONARY
  5
537
330
27
100
AcDbDictionary
280
     1
281
     1
  3
ADSK_XREC_LAYER_RECONCILED
360
1A0F
  0
DICTIONARY
  5
53B
330
29
100
AcDbDictionary
280
     1
281
     1
  3
ADSK_XREC_LAYER_RECONCILED
360
1A11
  0
DICTIONARY
  5
53D
330
2A
100
AcDbDictionary
280
     1
281
     1
  3
ADSK_XREC_LAYER_RECONCILED
360
1A12
  0
DICTIONARY
  5
53F
330
2B
100
AcDbDictionary
280
     1
281
     1
  3
ADSK_XREC_LAYER_RECONCILED
360
1A13
  0
DICTIONARY
  5
545
330
2E
100
AcDbDictionary
280
     1
281
     1
  3
ADSK_XREC_LAYER_RECONCILED
360
1A14
  0
DICTIONARY
  5
1A1E
330
EB5
100
AcDbDictionary
280
     1
281
     1
  3
ADSK_XREC_LAYER_RECONCILED
360
1A1F
  0
DICTIONARY
  5
DB1
330
18
100
AcDbDictionary
280
     1
281
     1
  3
ACAD_SORTENTS
360
DB2
  0
DICTIONARY
  5
10EB
330
10DA
100
AcDbDictionary
280
     1
281
     1
  3
ACAD_DIMASSOC
360
10EC
  0
DICTIONARY
  5
1164
330
1157
100
AcDbDictionary
280
     1
281
     1
  3
ACAD_DIMASSOC
360
1165
  0
DICTIONARY
  5
11CD
330
11C0
100
AcDbDictionary
280
     1
281
     1
  3
ACAD_DIMASSOC
360
11CE
  0
DICTIONARY
  5
11EE
330
11E1
100
AcDbDictionary
280
     1
281
     1
  3
ACAD_DIMASSOC
360
11EF
  0
DICTIONARY
  5
120F
330
1202
100
AcDbDictionary
280
     1
281
     1
  3
ACAD_DIMASSOC
360
1210
  0
DICTIONARY
  5
1230
330
1223
100
AcDbDictionary
280
     1
281
     1
  3
ACAD_DIMASSOC
360
1231
  0
DICTIONARY
  5
1253
330
1244
100
AcDbDictionary
280
     1
281
     1
  3
ACAD_DIMASSOC
360
1254
  0
DICTIONARY
  5
1278
330
126B
100
AcDbDictionary
280
     1
281
     1
  3
ACAD_DIMASSOC
360
1279
  0
DICTIONARY
  5
1299
330
128C
100
AcDbDictionary
280
     1
281
     1
  3
ACAD_DIMASSOC
360
129A
  0
DICTIONARY
  5
12BA
330
12AD
100
AcDbDictionary
280
     1
281
     1
  3
ACAD_DIMASSOC
360
12BB
  0
DICTIONARY
  5
1368
330
135B
100
AcDbDictionary
280
     1
281
     1
  3
ACAD_DIMASSOC
360
1369
  0
DICTIONARY
  5
B5E
330
B5D
100
AcDbDictionary
280
     1
281
     1
  3
ACAD_XREC_ROUNDTRIP
360
26AF
  3
ASDK_XREC_ANNOTATION_SCALE_INFO
360
B5F
  0
DICTIONARY
  5
B62
330
B61
100
AcDbDictionary
280
     1
281
     1
  3
ACAD_XREC_ROUNDTRIP
360
26B0
  3
ASDK_XREC_ANNOTATION_SCALE_INFO
360
B63
  0
DICTIONARY
  5
267E
102
{ACAD_REACTORS
330
C
102
}
330
C
100
AcDbDictionary
281
     1
  3
DIMARCSYM
350
267F
  3
DIMJOGANG
350
2680
  3
DIMLTEX1
350
2682
  3
DIMLTEX2
350
2683
  3
DIMLTYPE
350
2681
  0
DICTIONARY
  5
B0F
102
{ACAD_REACTORS
330
C
102
}
330
C
100
AcDbDictionary
281
     1
  0
XRECORD
  5
CF7
102
{ACAD_REACTORS
330
C
102
}
330
C
100
AcDbXrecord
280
     1
300
AMECH_PP
300
2020
300

  0
DICTIONARY
  5
387
102
{ACAD_REACTORS
330
C
102
}
330
C
100
AcDbDictionary
281
     1
  0
DICTIONARY
  5
CEF
102
{ACAD_REACTORS
330
C
102
}
330
C
100
AcDbDictionary
281
     1
  3
Metric50
350
CF0
  0
FIELDLIST
  5
D13
102
{ACAD_REACTORS
330
C
102
}
330
C
100
AcDbIdSet
 90
        3
330
1FB6
330
1FB7
330
1FB8
100
AcDbFieldList
  0
DICTIONARY
  5
D
102
{ACAD_REACTORS
330
C
102
}
330
C
100
AcDbDictionary
281
     1
  0
DICTIONARY
  5
301
102
{ACAD_REACTORS
330
C
102
}
330
C
100
AcDbDictionary
281
     1
  3
Layout1
350
B57
  3
Model
350
303
  0
DICTIONARY
  5
386
102
{ACAD_REACTORS
330
C
102
}
330
C
100
AcDbDictionary
281
     1
  3
ByBlock
350
3F0
  3
ByLayer
350
3EF
  3
Global
350
3F1
  0
DICTIONARY
  5
46F
102
{ACAD_REACTORS
330
C
102
}
330
C
100
AcDbDictionary
281
     1
  3
Standard
350
470
  0
DICTIONARY
  5
E
102
{ACAD_REACTORS
330
C
102
}
330
C
100
AcDbDictionary
281
     1
  3
STANDARD
350
1B
  0
DICTIONARY
  5
302
102
{ACAD_REACTORS
330
C
102
}
330
C
100
AcDbDictionary
281
     1
  3
DWG To PDF A4 - landscape
350
7EF
  3
DWG To PDF A4 - portrait
350
7F8
  0
ACDBDICTIONARYWDFLT
  5
2FF
102
{ACAD_REACTORS
330
C
102
}
330
C
100
AcDbDictionary
281
     1
  3
Normal
350
300
100
AcDbDictionaryWithDefault
340
300
  0
DICTIONARY
  5
44D
102
{ACAD_REACTORS
330
C
102
}
330
C
100
AcDbDictionary
281
     1
  3
A0
350
BFC
  3
A1
350
BFD
  3
A2
350
BFE
  3
A3
350
BFF
  3
A4
350
C00
  3
A5
350
C01
  3
A6
350
44E
  3
A7
350
C02
  3
A8
350
C03
  3
A9
350
C04
  3
B0
350
C05
  3
B1
350
C06
  3
B2
350
C07
  0
DICTIONARY
  5
CED
102
{ACAD_REACTORS
330
C
102
}
330
C
100
AcDbDictionary
281
     1
  3
Metric50
350
CEE
  0
DICTIONARY
  5
388
102
{ACAD_REACTORS
330
C
102
}
330
C
100
AcDbDictionary
281
     1
  3
Standard
350
389
  0
DICTIONARY
  5
3F2
102
{ACAD_REACTORS
330
C
102
}
330
C
100
AcDbDictionary
281
     1
  3
2dWireframe
350
3F8
  3
3D Hidden
350
3FA
  3
3dWireframe
350
3F9
  3
Basic
350
3F7
  3
Brighten
350
3FE
  3
ColorChange
350
402
  3
Conceptual
350
3FB
  3
Dim
350
3FD
  3
EdgeColorOff
350
BDF
  3
Facepattern
350
401
  3
Flat
350
3F3
  3
FlatWithEdges
350
3F4
  3
Gouraud
350
3F5
  3
GouraudWithEdges
350
3F6
  3
Hidden
350
CE7
  3
JitterOff
350
BDD
  3
Linepattern
350
400
  3
OverhangOff
350
BDE
  3
Realistic
350
3FC
  3
Shaded
350
CEC
  3
Shaded with edges
350
CEB
  3
Shades of Gray
350
CE8
  3
Sketchy
350
CE9
  3
Thicken
350
3FF
  3
Wireframe
350
CE6
  3
X-Ray
350
CEA
  0
XRECORD
  5
267C
102
{ACAD_REACTORS
330
C
102
}
330
C
100
AcDbXrecord
280
     1
 90
        1
330
389
330
10D4
  0
DICTIONARY
  5
357
102
{ACAD_REACTORS
330
C
102
}
330
C
100
AcDbDictionary
281
     1
  3
CANNOSCALE
350
57C
  3
CMLEADERSTYLE
350
57A
  3
CTABLESTYLE
350
38E
  3
CVIEWDETAILSTYLE
350
D2C
  3
CVIEWSECTIONSTYLE
350
D2D
  3
DIMASSOC
350
359
  3
HIDETEXT
350
358
  3
INDEXCTL
350
ACC
  3
LAYEREVAL
350
BF1
  3
LAYERNOTIFY
350
BF2
  3
LIGHTINGUNITS
350
57D
  3
MSLTSCALE
350
57B
  3
SOLIDHIST
350
1A25
  3
SORTENTS
350
ACB
  3
XCLIPFRAME
350
267A
  0
DICTIONARY
  5
4D1
102
{ACAD_REACTORS
330
C
102
}
330
C
100
AcDbDictionary
281
     1
  3
AcmStdDictionary
350
4DC
  3
AMDTSECTSYM_ARROWCOLOR
350
4F3
  0
DICTIONARY
  5
478
102
{ACAD_REACTORS
330
C
102
}
330
C
100
AcDbDictionary
281
     1
  0
DICTIONARY
  5
51E
102
{ACAD_REACTORS
330
C
102
}
330
C
100
AcDbDictionary
281
     1
  0
XRECORD
  5
267D
102
{ACAD_REACTORS
330
C
102
}
330
C
100
AcDbXrecord
280
     1
  1
DWGPROPS COOKIE
  2

  3

  4
Philippe Vogel
  6
Secotools DIN Template metric
  7

  8
inpunganp
  9

300
=
301
=
302
=
303
=
304
=
305
=
306
=
307
=
308
=
309
=
 40
0.0219504166666667
 41
2459759.4165625
 42
2459759.692002315
  1
HTTP://WWW.SECOTOOLS.COM/
 90
        0
  0
DICTIONARY
  5
B21
102
{ACAD_REACTORS
330
43C
102
}
330
43C
100
AcDbDictionary
281
     1
  0
DICTIONARY
  5
567
102
{ACAD_REACTORS
330
43C
102
}
330
43C
100
AcDbDictionary
281
     1
  3
BMG3.0
350
8E9
  0
DICTIONARY
  5
B20
102
{ACAD_REACTORS
330
43C
102
}
330
43C
100
AcDbDictionary
281
     1
1001
ACAD
1000
<All
  0
DICTIONARY
  5
E31
102
{ACAD_REACTORS
330
43C
102
}
330
43C
100
AcDbDictionary
280
     1
281
     1
  0
XRECORD
  5
1A0B
102
{ACAD_REACTORS
330
52D
102
}
330
52D
100
AcDbXrecord
280
     1
290
     1
  0
XRECORD
  5
1A0C
102
{ACAD_REACTORS
330
52F
102
}
330
52F
100
AcDbXrecord
280
     1
290
     1
  0
XRECORD
  5
1A0D
102
{ACAD_REACTORS
330
531
102
}
330
531
100
AcDbXrecord
280
     1
290
     1
  0
XRECORD
  5
1A0E
102
{ACAD_REACTORS
330
533
102
}
330
533
100
AcDbXrecord
280
     1
290
     1
  0
XRECORD
  5
1A0F
102
{ACAD_REACTORS
330
537
102
}
330
537
100
AcDbXrecord
280
     1
290
     1
  0
XRECORD
  5
1A11
102
{ACAD_REACTORS
330
53B
102
}
330
53B
100
AcDbXrecord
280
     1
290
     1
  0
XRECORD
  5
1A12
102
{ACAD_REACTORS
330
53D
102
}
330
53D
100
AcDbXrecord
280
     1
290
     1
  0
XRECORD
  5
1A13
102
{ACAD_REACTORS
330
53F
102
}
330
53F
100
AcDbXrecord
280
     1
290
     1
  0
XRECORD
  5
1A14
102
{ACAD_REACTORS
330
545
102
}
330
545
100
AcDbXrecord
280
     1
290
     1
  0
XRECORD
  5
1A1F
102
{ACAD_REACTORS
330
1A1E
102
}
330
1A1E
100
AcDbXrecord
280
     1
290
     1
  0
SORTENTSTABLE
  5
DB2
102
{ACAD_REACTORS
330
DB1
102
}
330
DB1
100
AcDbSortentsTable
330
18
331
FFB
  5
1006
331
FFE
  5
1007
331
FFF
  5
1008
331
1000
  5
1009
331
1001
  5
100A
331
1002
  5
100B
331
1003
  5
100C
331
1004
  5
100E
331
1005
  5
100F
331
1006
  5
1012
331
1007
  5
1014
331
1008
  5
1015
331
1009
  5
1017
331
100A
  5
1018
331
100B
  5
101A
331
100C
  5
101B
331
100E
  5
101C
331
100F
  5
101D
331
1012
  5
101E
331
1014
  5
101F
331
1015
  5
1023
331
1017
  5
1024
331
1018
  5
1028
331
101A
  5
1029
331
101B
  5
102A
331
101C
  5
102B
331
101D
  5
102C
331
101E
  5
102D
331
101F
  5
102E
331
1023
  5
102F
331
1024
  5
1031
331
1028
  5
1033
331
1029
  5
1034
331
102A
  5
1035
331
102B
  5
1037
331
102C
  5
1038
331
102D
  5
1039
331
102E
  5
103A
331
102F
  5
103B
331
1031
  5
103C
331
1033
  5
103D
331
1034
  5
103E
331
1035
  5
103F
331
1037
  5
1040
331
1038
  5
1041
331
1039
  5
1042
331
103A
  5
1043
331
103B
  5
1044
331
103C
  5
1045
331
103D
  5
1046
331
103E
  5
1047
331
103F
  5
1048
331
1040
  5
1049
331
1041
  5
104A
331
1042
  5
104B
331
1043
  5
104C
331
1044
  5
104E
331
1045
  5
104F
331
1046
  5
1050
331
1047
  5
1051
331
1048
  5
1052
331
1049
  5
1053
331
104A
  5
1054
331
104B
  5
1055
331
104C
  5
1056
331
104E
  5
1057
331
104F
  5
1058
331
1050
  5
1059
331
1051
  5
105A
331
1052
  5
105B
331
1053
  5
105C
331
1054
  5
105D
331
1055
  5
105E
331
1056
  5
105F
331
1057
  5
1060
331
1058
  5
1061
331
1059
  5
1062
331
105A
  5
1063
331
105B
  5
1064
331
105C
  5
1065
331
105D
  5
1066
331
105E
  5
1067
331
105F
  5
1068
331
1060
  5
1069
331
1061
  5
106A
331
1062
  5
106B
331
1063
  5
106C
331
1064
  5
106D
331
1065
  5
106E
331
1066
  5
106F
331
1067
  5
1070
331
1068
  5
1071
331
1069
  5
1072
331
106A
  5
1073
331
106B
  5
1074
331
106C
  5
1075
331
106D
  5
1076
331
106E
  5
1077
331
106F
  5
1078
331
1070
  5
1079
331
1071
  5
107A
331
1072
  5
107B
331
1073
  5
107C
331
1074
  5
107D
331
1075
  5
107E
331
1076
  5
107F
331
1077
  5
1081
331
1078
  5
1082
331
1079
  5
1085
331
107A
  5
1086
331
107B
  5
1087
331
107C
  5
1088
331
107D
  5
108B
331
107E
  5
108C
331
107F
  5
108D
331
1081
  5
108E
331
1082
  5
108F
331
1085
  5
1090
331
1086
  5
1091
331
1087
  5
1092
331
1088
  5
1093
331
108B
  5
1094
331
108C
  5
1095
331
108D
  5
1096
331
108E
  5
1097
331
108F
  5
1098
331
1090
  5
1099
331
1091
  5
109A
331
1092
  5
109B
331
1093
  5
109D
331
1094
  5
109E
331
1095
  5
10A1
331
1096
  5
10A2
331
1097
  5
10A3
331
1098
  5
10A4
331
1099
  5
10A5
331
109A
  5
10A6
331
109B
  5
10A7
331
109D
  5
10A8
331
109E
  5
10A9
331
10A1
  5
10AA
331
10A2
  5
10AC
331
10A3
  5
10AE
331
10A4
  5
10AF
331
10A5
  5
10B0
331
10A6
  5
10B2
331
10A7
  5
10B4
331
10A8
  5
10B9
331
10A9
  5
10BA
331
10AA
  5
10BB
331
10AC
  5
10BC
331
10AE
  5
10BD
331
10AF
  5
10BE
331
10B0
  5
10BF
331
10B2
  5
10C1
331
10B4
  5
10C2
331
10B9
  5
10C3
331
10BA
  5
10CA
331
10BB
  5
10CB
331
10BC
  5
10D4
331
10BD
  5
10DA
331
10BE
  5
1157
331
10BF
  5
11C0
331
10C1
  5
11E1
331
10C2
  5
1202
331
10C3
  5
1223
331
10CA
  5
135B
331
10CB
  5
169C
331
10D4
  5
16C4
331
10DA
  5
16C5
331
1157
  5
16C6
331
11C0
  5
16C7
331
11E1
  5
16C8
331
1202
  5
16C9
331
1223
  5
16CA
331
1244
  5
16CB
331
126B
  5
16CC
331
128C
  5
16CD
331
12AD
  5
16CE
331
135B
  5
1718
331
16A9
  5
1719
  0
DIMASSOC
  5
10EC
102
{ACAD_REACTORS
330
10EB
102
}
330
10EB
100
AcDbDimAssoc
330
10DA
 90
       15
 70
     0
 71
     0
  1
AcDbOsnapPointRef
 72
    13
331
1007
 73
     2
 91
        0
 40
0.0
 10
0.0
 20
0.0
 30
2.000000000000000E+50
 75
     0
  1
AcDbOsnapPointRef
 72
     1
331
1007
 73
     2
 91
        0
 40
0.0
 10
0.0
 20
0.0
 30
2.000000000000000E+50
 75
     0
  1
AcDbOsnapPointRef
 72
    13
331
100B
 73
     2
 91
        0
 40
0.0
 10
0.0
 20
0.0
 30
2.000000000000000E+50
 75
     0
  1
AcDbOsnapPointRef
 72
     1
331
100B
 73
     2
 91
        0
 40
0.0
 10
0.0
 20
0.0
 30
2.000000000000000E+50
 75
     0
  0
DIMASSOC
  5
1165
102
{ACAD_REACTORS
330
1164
102
}
330
1164
100
AcDbDimAssoc
330
1157
 90
        3
 70
     0
 71
     0
  1
AcDbOsnapPointRef
 72
    13
331
100B
 73
     0
 91
        0
 40
0.0
 10
0.0
 20
0.0
 30
2.000000000000000E+50
 75
     0
  1
AcDbOsnapPointRef
 72
    13
331
1009
 73
     0
 91
        0
 40
0.0
 10
0.0
 20
0.0
 30
2.000000000000000E+50
 75
     0
  0
DIMASSOC
  5
11CE
102
{ACAD_REACTORS
330
11CD
102
}
330
11CD
100
AcDbDimAssoc
330
11C0
 90
        1
 70
     0
 71
     0
  1
AcDbOsnapPointRef
 72
     1
331
1085
 73
     0
 91
        0
 40
0.0
 10
0.0
 20
0.0
 30
2.000000000000000E+50
 75
     0
  0
DIMASSOC
  5
11EF
102
{ACAD_REACTORS
330
11EE
102
}
330
11EE
100
AcDbDimAssoc
330
11E1
 90
        3
 70
     0
 71
     0
  1
AcDbOsnapPointRef
 72
     1
331
1086
 73
     0
 91
        0
 40
0.0
 10
0.0
 20
0.0
 30
2.000000000000000E+50
 75
     0
  1
AcDbOsnapPointRef
 72
     1
331
1005
 73
     0
 91
        0
 40
0.0
 10
0.0
 20
0.0
 30
2.000000000000000E+50
 75
     0
  0
DIMASSOC
  5
1210
102
{ACAD_REACTORS
330
120F
102
}
330
120F
100
AcDbDimAssoc
330
1202
 90
        3
 70
     0
 71
     0
  1
AcDbOsnapPointRef
 72
     1
331
FFA
 73
     0
 91
        0
 40
0.0
 10
0.0
 20
0.0
 30
2.000000000000000E+50
 75
     0
  1
AcDbOsnapPointRef
 72
     1
331
1005
 73
     0
 91
        0
 40
0.0
 10
0.0
 20
0.0
 30
2.000000000000000E+50
 75
     0
  0
DIMASSOC
  5
1231
102
{ACAD_REACTORS
330
1230
102
}
330
1230
100
AcDbDimAssoc
330
1223
 90
        3
 70
     0
 71
     0
  1
AcDbOsnapPointRef
 72
    13
331
1035
 73
     0
 91
        0
 40
0.0
 10
0.0
 20
0.0
 30
2.000000000000000E+50
 75
     0
  1
AcDbOsnapPointRef
 72
     1
331
1005
 73
     0
 91
        0
 40
0.0
 10
0.0
 20
0.0
 30
2.000000000000000E+50
 75
     0
  0
DIMASSOC
  5
1254
102
{ACAD_REACTORS
330
1253
102
}
330
1253
100
AcDbDimAssoc
330
1244
 90
        3
 70
     0
 71
     0
  1
AcDbOsnapPointRef
 72
     1
331
106C
 73
     0
 91
        0
 40
0.0
 10
0.0
 20
0.0
 30
2.000000000000000E+50
 75
     0
  1
AcDbOsnapPointRef
 72
    13
331
106D
 73
     0
 91
        0
 40
0.0
 10
0.0
 20
0.0
 30
2.000000000000000E+50
 75
     0
  0
DIMASSOC
  5
1279
102
{ACAD_REACTORS
330
1278
102
}
330
1278
100
AcDbDimAssoc
330
126B
 90
        3
 70
     0
 71
     0
  1
AcDbOsnapPointRef
 72
     1
331
1005
 73
     0
 91
        0
 40
0.0
 10
0.0
 20
0.0
 30
2.000000000000000E+50
 75
     0
  1
AcDbOsnapPointRef
 72
    13
331
100C
 73
     0
 91
        0
 40
0.0
 10
0.0
 20
0.0
 30
2.000000000000000E+50
 75
     0
  0
DIMASSOC
  5
129A
102
{ACAD_REACTORS
330
1299
102
}
330
1299
100
AcDbDimAssoc
330
128C
 90
        3
 70
     0
 71
     0
  1
AcDbOsnapPointRef
 72
     1
331
1005
 73
     0
 91
        0
 40
0.0
 10
0.0
 20
0.0
 30
2.000000000000000E+50
 75
     0
  1
AcDbOsnapPointRef
 72
     1
331
104A
 73
     0
 91
        0
 40
0.0
 10
0.0
 20
0.0
 30
2.000000000000000E+50
 75
     0
  0
DIMASSOC
  5
12BB
102
{ACAD_REACTORS
330
12BA
102
}
330
12BA
100
AcDbDimAssoc
330
12AD
 90
        3
 70
     0
 71
     0
  1
AcDbOsnapPointRef
 72
     1
331
1005
 73
     0
 91
        0
 40
0.0
 10
0.0
 20
0.0
 30
2.000000000000000E+50
 75
     0
  1
AcDbOsnapPointRef
 72
     1
331
106F
 73
     0
 91
        0
 40
0.0
 10
0.0
 20
0.0
 30
2.000000000000000E+50
 75
     0
  0
DIMASSOC
  5
1369
102
{ACAD_REACTORS
330
1368
102
}
330
1368
100
AcDbDimAssoc
330
135B
 90
        3
 70
     0
 71
     0
  1
AcDbOsnapPointRef
 72
    11
331
1046
 73
     0
 91
        0
 40
0.0
 10
0.0
 20
0.0
 30
0.0
332
105A
 74
     0
 92
        0
 75
     0
  1
AcDbOsnapPointRef
 72
     8
331
1045
 73
     0
 91
        0
 40
0.0
 10
0.0
 20
0.0
 30
0.0
 75
     1
  1
AcDbOsnapPointRef
 72
    11
331
1046
 73
     0
 91
        0
 40
0.0
 10
0.0
 20
0.0
 30
0.0
332
105A
 74
     0
 92
        0
 75
     0
  0
XRECORD
  5
26AF
102
{ACAD_REACTORS
330
B5E
102
}
330
B5E
100
AcDbXrecord
280
     1
102
SHADEPLOT
 70
     0
  0
XRECORD
  5
B5F
102
{ACAD_REACTORS
330
B5E
102
}
330
B5E
100
AcDbXrecord
280
     1
 90
        1
340
44E
  0
XRECORD
  5
26B0
102
{ACAD_REACTORS
330
B62
102
}
330
B62
100
AcDbXrecord
280
     1
102
SHADEPLOT
 70
     0
  0
XRECORD
  5
B63
102
{ACAD_REACTORS
330
B62
102
}
330
B62
100
AcDbXrecord
280
     1
 90
        1
340
44E
  0
XRECORD
  5
267F
102
{ACAD_REACTORS
330
267E
102
}
330
267E
100
AcDbXrecord
280
     1
 70
     1
  0
XRECORD
  5
2680
102
{ACAD_REACTORS
330
267E
102
}
330
267E
100
AcDbXrecord
280
     1
 40
1.570796326794896
  0
XRECORD
  5
2682
102
{ACAD_REACTORS
330
267E
102
}
330
267E
100
AcDbXrecord
280
     1
340
12
  0
XRECORD
  5
2683
102
{ACAD_REACTORS
330
267E
102
}
330
267E
100
AcDbXrecord
280
     1
340
12
  0
XRECORD
  5
2681
102
{ACAD_REACTORS
330
267E
102
}
330
267E
100
AcDbXrecord
280
     1
340
12
  0
ACDBDETAILVIEWSTYLE
  5
CF0
102
{ACAD_XDICTIONARY
360
26C7
102
}
102
{ACAD_REACTORS
330
CEF
330
1FB1
102
}
330
CEF
100
AcDbModelDocViewStyle
 70
     0
  3
Metric50
290
     0
100
AcDbDetailViewStyle
 70
     0
 71
     0
 90
        3
 71
     1
340
10
 40
5.0
340
0
 40
5.0
300

 40
0.0
280
     1
 71
     2
340
14
 90
       25
 71
     3
340
10
 40
5.0
 90
        0
 40
15.0
 90
        1
300
%<\AcVar ViewDetailId>% (%<\AcVar ViewScale \f "%sn">%)
 71
     4
340
14
 90
       25
340
14
 90
       25
280
     0
  0
LAYOUT
  5
B57
102
{ACAD_XDICTIONARY
360
26AD
102
}
102
{ACAD_REACTORS
330
301
102
}
330
301
100
AcDbPlotSettings
  1

  2
DWG To PDF.pc3
  4
UserDefinedMetric (297.00 x 210.00mm)
  6

 40
0.0
 41
0.0
 42
0.0
 43
0.0
 44
297.0
 45
210.0
 46
0.0
 47
0.0
 48
0.0
 49
0.0
140
0.0
141
0.0
142
1.0
143
1.0
 70
   688
 72
     1
 73
     0
 74
     5
  7
monochrome.ctb
 75
    16
147
1.0
148
0.0
149
0.0
100
AcDbLayout
  1
Layout1
 70
     1
 71
     1
 10
0.0
 20
0.0
 11
297.0
 21
210.0
 12
0.0
 22
0.0
 32
0.0
 14
-0.0226558438690745
 24
-0.0160192835437556
 34
-0.000000000000013
 15
297.000001383183
 25
210.0000009780083
 35
0.0000000000000023
146
0.0
 13
0.0
 23
0.0
 33
0.0
 16
1.0
 26
0.0
 36
0.0
 17
0.0
 27
1.0
 37
0.0
 76
     0
330
B56
331
B5D
1001
ACAD_PSEXT
1000
DWG To PDF.pc3
1000
PDF
1000
Datei
1000

1070
     0
  0
LAYOUT
  5
303
102
{ACAD_XDICTIONARY
360
2684
102
}
102
{ACAD_REACTORS
330
301
102
}
330
301
100
AcDbPlotSettings
  1

  2
Default Windows System Printer.pc3
  4
A4
  6

 40
4.233333110809326
 41
4.995328426361083
 42
4.233322143554686
 43
4.995330810546875
 44
209.9733276367186
 45
296.9683227539062
 46
0.0
 47
97.55556227323861
 48
0.0
 49
0.0
140
0.0
141
0.0
142
1.0
143
6.090554118624327
 70
  3764
 72
     1
 73
     1
 74
     1
  7
monochrome.ctb
 75
     0
147
0.164188673234525
148
197.0402205952446
149
599.055175279564
100
AcDbLayout
  1
Model
 70
     1
 71
     0
 10
0.0
 20
0.0
 11
12.0
 21
9.0
 12
0.0
 22
0.0
 32
0.0
 14
0.0
 24
0.0
 34
0.0
 15
0.0
 25
0.0
 35
0.0
146
0.0
 13
0.0
 23
0.0
 33
0.0
 16
1.0
 26
0.0
 36
0.0
 17
0.0
 27
1.0
 37
0.0
 76
     0
330
18
331
AD1
1001
ACAD_PSEXT
1000
Default Windows System Printer.pc3
1000
HP LaserJet 5100 PCL 6
1000
HPLaserJet5100Series
1000

1070
     0
  0
MATERIAL
  5
3F0
102
{ACAD_XDICTIONARY
360
1A38
102
}
102
{ACAD_REACTORS
330
386
102
}
330
386
100
AcDbMaterial
  1
ByBlock
 73
     1
 78
     1
172
     1
176
     1
270
     1
274
     1
  0
MATERIAL
  5
3EF
102
{ACAD_XDICTIONARY
360
1A36
102
}
102
{ACAD_REACTORS
330
386
102
}
330
386
100
AcDbMaterial
  1
ByLayer
 73
     1
 78
     1
172
     1
176
     1
270
     1
274
     1
  0
MATERIAL
  5
3F1
102
{ACAD_XDICTIONARY
360
1A3A
102
}
102
{ACAD_REACTORS
330
386
102
}
330
386
100
AcDbMaterial
  1
Global
 73
     1
 78
     1
172
     1
176
     1
270
     1
274
     1
  0
MLEADERSTYLE
  5
470
102
{ACAD_XDICTIONARY
360
26A7
102
}
102
{ACAD_REACTORS
330
46F
102
}
330
46F
100
AcDbMLeaderStyle
170
     2
171
     1
172
     0
 90
        2
 40
0.0
 41
0.0
173
     1
 91
-1056964608
340
12
 92
       -2
290
     1
 42
2.0
291
     1
 43
0.36
  3
Standard
 44
5.0
300

342
10
174
     0
178
     6
175
     1
176
     0
 93
-1056964608
 45
3.5
292
     0
297
     0
 46
4.0
 94
-1056964608
 47
1.0
 49
1.0
140
1.0
293
     1
141
0.0
294
     1
177
     0
142
1.0
295
     0
296
     0
143
0.125
1001
ACAD_MLEADERVER
1070
     2
  0
MLINESTYLE
  5
1B
102
{ACAD_REACTORS
330
E
102
}
330
E
100
AcDbMlineStyle
  2
STANDARD
 70
     0
  3

 62
     0
 51
90.0
 52
90.0
 71
     2
 49
0.5
 62
   256
  6
BYLAYER
 49
-0.5
 62
   256
  6
BYLAYER
  0
PLOTSETTINGS
  5
7EF
102
{ACAD_XDICTIONARY
360
26A9
102
}
102
{ACAD_REACTORS
330
302
102
}
330
302
100
AcDbPlotSettings
  1
DWG To PDF A4 - landscape
  2
DWG To PDF.pc3
  4
ISO_expand_A4_(297.00_x_210.00_MM)
  6

 40
5.793749809265136
 41
10.79374980926513
 42
5.79376220703125
 43
10.79374694824219
 44
297.0
 45
210.0
 46
99.7577788938406
 47
0.0
 48
0.0
 49
0.0
140
0.0
141
0.0
142
1.0
143
6.513831472368249
 70
 11956
 72
     1
 73
     0
 74
     1
  7
monochrome.ctb
 75
     0
147
0.153519476861201
148
197.0402205952446
149
599.055175279564
1001
ACAD_PSEXT
1000
DWG To PDF.pc3
1000
PDF
1000
Datei
1000

1070
     0
  0
PLOTSETTINGS
  5
7F8
102
{ACAD_XDICTIONARY
360
26AB
102
}
102
{ACAD_REACTORS
330
302
102
}
330
302
100
AcDbPlotSettings
  1
DWG To PDF A4 - portrait
  2
DWG To PDF.pc3
  4
ISO_expand_A4_(210.00_x_297.00_MM)
  6

 40
5.793749809265136
 41
10.79374980926513
 42
5.793746948242187
 43
10.79376220703125
 44
210.0
 45
297.0
 46
36.42621619811505
 47
0.0
 48
0.0
 49
0.0
140
0.0
141
0.0
142
1.0
143
4.456178811620381
 70
 11956
 72
     1
 73
     0
 74
     1
  7
monochrome.ctb
 75
     0
147
0.2244075119679441
148
197.0402205952446
149
599.055175279564
1001
ACAD_PSEXT
1000
DWG To PDF.pc3
1000
PDF
1000
Datei
1000

1070
     0
  0
ACDBPLACEHOLDER
  5
300
102
{ACAD_REACTORS
330
2FF
102
}
330
2FF
  0
SCALE
  5
BFC
102
{ACAD_REACTORS
330
44D
102
}
330
44D
100
AcDbScale
 70
     0
300
100:1
140
100.0
141
1.0
290
     0
  0
SCALE
  5
BFD
102
{ACAD_REACTORS
330
44D
102
}
330
44D
100
AcDbScale
 70
     0
300
50:1
140
50.0
141
1.0
290
     0
  0
SCALE
  5
BFE
102
{ACAD_REACTORS
330
44D
102
}
330
44D
100
AcDbScale
 70
     0
300
20:1
140
20.0
141
1.0
290
     0
  0
SCALE
  5
BFF
102
{ACAD_REACTORS
330
44D
102
}
330
44D
100
AcDbScale
 70
     0
300
10:1
140
10.0
141
1.0
290
     0
  0
SCALE
  5
C00
102
{ACAD_REACTORS
330
44D
102
}
330
44D
100
AcDbScale
 70
     0
300
5:1
140
5.0
141
1.0
290
     0
  0
SCALE
  5
C01
102
{ACAD_REACTORS
330
44D
102
}
330
44D
100
AcDbScale
 70
     0
300
2:1
140
2.0
141
1.0
290
     0
  0
SCALE
  5
44E
102
{ACAD_REACTORS
330
44D
102
}
330
44D
100
AcDbScale
 70
     0
300
1:1
140
1.0
141
1.0
290
     1
  0
SCALE
  5
C02
102
{ACAD_REACTORS
330
44D
102
}
330
44D
100
AcDbScale
 70
     0
300
1:2
140
1.0
141
2.0
290
     0
  0
SCALE
  5
C03
102
{ACAD_REACTORS
330
44D
102
}
330
44D
100
AcDbScale
 70
     0
300
1:5
140
1.0
141
5.0
290
     0
  0
SCALE
  5
C04
102
{ACAD_REACTORS
330
44D
102
}
330
44D
100
AcDbScale
 70
     0
300
1:10
140
1.0
141
10.0
290
     0
  0
SCALE
  5
C05
102
{ACAD_REACTORS
330
44D
102
}
330
44D
100
AcDbScale
 70
     0
300
1:20
140
1.0
141
20.0
290
     0
  0
SCALE
  5
C06
102
{ACAD_REACTORS
330
44D
102
}
330
44D
100
AcDbScale
 70
     0
300
1:50
140
1.0
141
50.0
290
     0
  0
SCALE
  5
C07
102
{ACAD_REACTORS
330
44D
102
}
330
44D
100
AcDbScale
 70
     0
300
1:100
140
1.0
141
100.0
290
     0
  0
ACDBSECTIONVIEWSTYLE
  5
CEE
102
{ACAD_XDICTIONARY
360
26C5
102
}
102
{ACAD_REACTORS
330
CED
330
1FB0
102
}
330
CED
100
AcDbModelDocViewStyle
 70
     0
  3
Metric50
290
     0
100
AcDbSectionViewStyle
 70
     0
 71
     0
 90
      102
 71
     1
340
10
 40
5.0
340
0
340
0
 40
5.0
300
I, O, Q, S, X, Z
 40
10.0
 90
        0
 40
2.5
 90
        0
 71
     2
340
14
 90
       25
340
14
 90
       50
 40
5.0
 40
2.5
 40
5.0
 71
     3
340
10
 40
5.0
 90
        0
 40
15.0
 90
        1
300
%<\AcVar ViewSectionStartId>%-%<\AcVar ViewSectionEndId>% (%<\AcVar ViewScale \f "%sn">%)
 71
     4
300
ANSI31
 40
1.0
 90
        0
290
     0
290
     0
 90
        6
 40
0.0
 40
1.570796326794896
 40
0.2617993877991494
 40
1.308996938995747
 40
-0.2617993877991494
 40
1.832595714594044
  0
TABLESTYLE
  5
389
102
{ACAD_XDICTIONARY
360
577
102
}
102
{ACAD_REACTORS
330
388
102
}
330
388
100
AcDbTableStyle
  3
Standard
 70
     0
 71
     0
 40
1.5
 41
1.5
280
     0
281
     0
  7
STANDARD
140
4.5
170
     2
 62
     0
 63
     7
283
     0
274
    -2
284
     1
 64
     0
275
    -2
285
     1
 65
     0
276
    -2
286
     1
 66
     0
277
    -2
287
     1
 67
     0
278
    -2
288
     1
 68
     0
279
    -2
289
     1
 69
     0
  7
STANDARD 5 mm
140
6.0
170
     5
 62
     0
 63
     7
283
     0
274
    -2
284
     1
 64
     0
275
    -2
285
     1
 65
     0
276
    -2
286
     1
 66
     0
277
    -2
287
     1
 67
     0
278
    -2
288
     1
 68
     0
279
    -2
289
     1
 69
     0
  7
STANDARD
140
4.5
170
     5
 62
     0
 63
     7
283
     0
274
    -2
284
     1
 64
     0
275
    -2
285
     1
 65
     0
276
    -2
286
     1
 66
     0
277
    -2
287
     1
 67
     0
278
    -2
288
     1
 68
     0
279
    -2
289
     1
 69
     0
  0
VISUALSTYLE
  5
3F8
102
{ACAD_XDICTIONARY
360
2691
102
}
102
{ACAD_REACTORS
330
3F2
102
}
330
3F2
100
AcDbVisualStyle
  2

 70
     4
 71
     0
 72
     2
 73
     0
 90
        0
 40
-0.6
 41
-30.0
 62
     5
 63
     7
 74
     1
 91
        4
 64
     7
 65
   257
 75
     1
175
     1
 42
1.0
 92
        0
 66
   257
 43
1.0
 76
     1
 77
     6
 78
     2
 67
     7
 79
     5
170
     0
171
     0
290
     0
174
     0
 93
        1
 44
0.0
173
     0
291
     0
 45
0.0
1001
ACAD
1000
AcDbSavedByObjectVersion
1070
     0
  0
VISUALSTYLE
  5
3FA
102
{ACAD_XDICTIONARY
360
2695
102
}
102
{ACAD_REACTORS
330
3F2
102
}
330
3F2
100
AcDbVisualStyle
  2

 70
     6
 71
     1
 72
     2
 73
     2
 90
        0
 40
-0.6
 41
-30.0
 62
     5
 63
     7
 74
     2
 91
        2
 64
     7
 65
   257
 75
     2
175
     1
 42
40.0
 92
        0
 66
   257
 43
1.0
 76
     1
 77
     6
 78
     2
 67
     7
 79
     3
170
     0
171
     0
290
     0
174
     0
 93
        1
 44
0.0
173
     0
291
     0
 45
0.0
1001
ACAD
1000
AcDbSavedByObjectVersion
1070
     0
  0
VISUALSTYLE
  5
3F9
102
{ACAD_XDICTIONARY
360
2693
102
}
102
{ACAD_REACTORS
330
3F2
102
}
330
3F2
100
AcDbVisualStyle
  2

 70
     5
 71
     0
 72
     2
 73
     0
 90
        0
 40
-0.6
 41
-30.0
 62
     5
 63
     7
 74
     1
 91
        4
 64
     7
 65
   257
 75
     1
175
     1
 42
1.0
 92
        0
 66
   257
 43
1.0
 76
     1
 77
     6
 78
     2
 67
     7
 79
     5
170
     0
171
     0
290
     0
174
     0
 93
        1
 44
0.0
173
     0
291
     0
 45
0.0
1001
ACAD
1000
AcDbSavedByObjectVersion
1070
     0
  0
VISUALSTYLE
  5
3F7
102
{ACAD_XDICTIONARY
360
268F
102
}
102
{ACAD_REACTORS
330
3F2
102
}
330
3F2
100
AcDbVisualStyle
  2

 70
     7
 71
     1
 72
     0
 73
     1
 90
        0
 40
-0.6
 41
-30.0
 62
     5
 63
     7
 74
     0
 91
        4
 64
     7
 65
   257
 75
     1
175
     1
 42
1.0
 92
        8
 66
     7
 43
1.0
 76
     1
 77
     6
 78
     2
 67
     7
 79
     5
170
     0
171
     0
290
     0
174
     0
 93
        1
 44
0.0
173
     0
291
     1
 45
0.0
1001
ACAD
1000
AcDbSavedByObjectVersion
1070
     0
  0
VISUALSTYLE
  5
3FE
102
{ACAD_XDICTIONARY
360
269D
102
}
102
{ACAD_REACTORS
330
3F2
102
}
330
3F2
100
AcDbVisualStyle
  2

 70
    12
 71
     2
 72
     2
 73
     0
 90
        0
 40
-0.6
 41
-30.0
 62
     5
 63
     7
 74
     1
 91
        4
 64
     7
 65
   257
 75
     1
175
     1
 42
1.0
 92
        8
 66
     7
 43
1.0
 76
     1
 77
     6
 78
     2
 67
     7
 79
     5
170
     0
171
     0
290
     0
174
     0
 93
        1
 44
50.0
173
     0
291
     1
 45
0.0
1001
ACAD
1000
AcDbSavedByObjectVersion
1070
     0
  0
VISUALSTYLE
  5
402
102
{ACAD_XDICTIONARY
360
26A5
102
}
102
{ACAD_REACTORS
330
3F2
102
}
330
3F2
100
AcDbVisualStyle
  2

 70
    16
 71
     2
 72
     2
 73
     3
 90
        0
 40
-0.6
 41
-30.0
 62
     5
 63
     8
 74
     1
 91
        4
 64
     7
 65
   257
 75
     1
175
     1
 42
1.0
 92
        8
 66
     8
 43
1.0
 76
     1
 77
     6
 78
     2
 67
     7
 79
     5
170
     0
171
     0
290
     0
174
     0
 93
        1
 44
0.0
173
     0
291
     1
 45
0.0
1001
ACAD
1000
AcDbSavedByObjectVersion
1070
     0
  0
VISUALSTYLE
  5
3FB
102
{ACAD_XDICTIONARY
360
2697
102
}
102
{ACAD_REACTORS
330
3F2
102
}
330
3F2
100
AcDbVisualStyle
  2

 70
     9
 71
     3
 72
     2
 73
     0
 90
        0
 40
-0.6
 41
-30.0
 62
     5
 63
     7
 74
     2
 91
        2
 64
     7
 65
   257
 75
     1
175
     1
 42
40.0
 92
        8
 66
     7
 43
1.0
 76
     1
 77
     6
 78
     2
 67
     7
 79
     3
170
     0
171
     0
290
     0
174
     0
 93
        1
 44
0.0
173
     0
291
     0
 45
0.0
1001
ACAD
1000
AcDbSavedByObjectVersion
1070
     0
  0
VISUALSTYLE
  5
3FD
102
{ACAD_XDICTIONARY
360
269B
102
}
102
{ACAD_REACTORS
330
3F2
102
}
330
3F2
100
AcDbVisualStyle
  2

 70
    11
 71
     2
 72
     2
 73
     0
 90
        0
 40
-0.6
 41
-30.0
 62
     5
 63
     7
 74
     1
 91
        4
 64
     7
 65
   257
 75
     1
175
     1
 42
1.0
 92
        8
 66
     7
 43
1.0
 76
     1
 77
     6
 78
     2
 67
     7
 79
     5
170
     0
171
     0
290
     0
174
     0
 93
        1
 44
-50.0
173
     0
291
     1
 45
0.0
1001
ACAD
1000
AcDbSavedByObjectVersion
1070
     0
  0
VISUALSTYLE
  5
BDF
102
{ACAD_XDICTIONARY
360
26B5
102
}
102
{ACAD_REACTORS
330
3F2
102
}
330
3F2
100
AcDbVisualStyle
  2

 70
    22
 71
     2
 72
     2
 73
     0
 90
        0
 40
-0.6
 41
-30.0
 62
     5
 63
     7
 74
     1
 91
        4
 64
     7
 65
   257
 75
     1
175
     1
 42
1.0
 92
        8
 66
     7
 43
1.0
 76
     1
 77
     6
 78
     2
 67
     7
 79
     5
170
     0
171
     0
290
     0
174
     0
 93
        1
 44
0.0
173
     0
291
     1
 45
0.0
1001
ACAD
1000
AcDbSavedByObjectVersion
1070
     0
  0
VISUALSTYLE
  5
401
102
{ACAD_XDICTIONARY
360
26A3
102
}
102
{ACAD_REACTORS
330
3F2
102
}
330
3F2
100
AcDbVisualStyle
  2

 70
    15
 71
     2
 72
     2
 73
     0
 90
        0
 40
-0.6
 41
-30.0
 62
     5
 63
     7
 74
     1
 91
        4
 64
     7
 65
   257
 75
     1
175
     1
 42
1.0
 92
        8
 66
     7
 43
1.0
 76
     1
 77
     6
 78
     2
 67
     7
 79
     5
170
     0
171
     0
290
     0
174
     0
 93
        1
 44
0.0
173
     0
291
     1
 45
0.0
1001
ACAD
1000
AcDbSavedByObjectVersion
1070
     0
  0
VISUALSTYLE
  5
3F3
102
{ACAD_XDICTIONARY
360
2687
102
}
102
{ACAD_REACTORS
330
3F2
102
}
330
3F2
100
AcDbVisualStyle
  2

 70
     0
 71
     2
 72
     1
 73
     1
 90
        2
 40
-0.6
 41
30.0
 62
     5
 63
     7
 74
     0
 91
        4
 64
     7
 65
   257
 75
     1
175
     1
 42
1.0
 92
        8
 66
     7
 43
1.0
 76
     1
 77
     6
 78
     2
 67
     7
 79
     5
170
     0
171
     0
290
     0
174
     0
 93
       13
 44
0.0
173
     0
291
     1
 45
0.0
1001
ACAD
1000
AcDbSavedByObjectVersion
1070
     0
  0
VISUALSTYLE
  5
3F4
102
{ACAD_XDICTIONARY
360
2689
102
}
102
{ACAD_REACTORS
330
3F2
102
}
330
3F2
100
AcDbVisualStyle
  2

 70
     1
 71
     2
 72
     1
 73
     1
 90
        2
 40
-0.6
 41
30.0
 62
     5
 63
     7
 74
     1
 91
        4
 64
     7
 65
   257
 75
     1
175
     1
 42
1.0
 92
        0
 66
   257
 43
1.0
 76
     1
 77
     6
 78
     2
 67
     7
 79
     5
170
     0
171
     0
290
     0
174
     0
 93
       13
 44
0.0
173
     0
291
     1
 45
0.0
1001
ACAD
1000
AcDbSavedByObjectVersion
1070
     0
  0
VISUALSTYLE
  5
3F5
102
{ACAD_XDICTIONARY
360
268B
102
}
102
{ACAD_REACTORS
330
3F2
102
}
330
3F2
100
AcDbVisualStyle
  2

 70
     2
 71
     2
 72
     2
 73
     1
 90
        2
 40
-0.6
 41
30.0
 62
     5
 63
     7
 74
     0
 91
        4
 64
     7
 65
   257
 75
     1
175
     1
 42
1.0
 92
        0
 66
     7
 43
1.0
 76
     1
 77
     6
 78
     2
 67
     7
 79
     5
170
     0
171
     0
290
     0
174
     0
 93
       13
 44
0.0
173
     0
291
     1
 45
0.0
1001
ACAD
1000
AcDbSavedByObjectVersion
1070
     0
  0
VISUALSTYLE
  5
3F6
102
{ACAD_XDICTIONARY
360
268D
102
}
102
{ACAD_REACTORS
330
3F2
102
}
330
3F2
100
AcDbVisualStyle
  2

 70
     3
 71
     2
 72
     2
 73
     1
 90
        2
 40
-0.6
 41
30.0
 62
     5
 63
     7
 74
     1
 91
        4
 64
     7
 65
   257
 75
     1
175
     1
 42
1.0
 92
        0
 66
   257
 43
1.0
 76
     1
 77
     6
 78
     2
 67
     7
 79
     5
170
     0
171
     0
290
     0
174
     0
 93
       13
 44
0.0
173
     0
291
     1
 45
0.0
1001
ACAD
1000
AcDbSavedByObjectVersion
1070
     0
  0
VISUALSTYLE
  5
CE7
102
{ACAD_XDICTIONARY
360
26B9
102
}
102
{ACAD_REACTORS
330
3F2
102
}
330
3F2
100
AcDbVisualStyle
  2

 70
     6
 71
     1
 72
     2
 73
     2
 90
        0
 40
-0.6
 41
-30.0
 62
     5
 63
     7
 74
     2
 91
        2
 64
     7
 65
   257
 75
     2
175
     1
 42
40.0
 92
        0
 66
   257
 43
1.0
 76
     1
 77
     6
 78
     2
 67
     7
 79
     3
170
     0
171
     0
290
     0
174
     0
 93
        1
 44
0.0
173
     0
291
     0
 45
0.0
1001
ACAD
1000
AcDbSavedByObjectVersion
1070
     0
  0
VISUALSTYLE
  5
BDD
102
{ACAD_XDICTIONARY
360
26B1
102
}
102
{ACAD_REACTORS
330
3F2
102
}
330
3F2
100
AcDbVisualStyle
  2

 70
    20
 71
     2
 72
     2
 73
     0
 90
        0
 40
-0.6
 41
-30.0
 62
     5
 63
     7
 74
     1
 91
        4
 64
     7
 65
   257
 75
     1
175
     1
 42
1.0
 92
       10
 66
     7
 43
1.0
 76
     1
 77
     6
 78
     2
 67
     7
 79
     5
170
     0
171
     0
290
     0
174
     0
 93
        1
 44
0.0
173
     0
291
     1
 45
0.0
1001
ACAD
1000
AcDbSavedByObjectVersion
1070
     0
  0
VISUALSTYLE
  5
400
102
{ACAD_XDICTIONARY
360
26A1
102
}
102
{ACAD_REACTORS
330
3F2
102
}
330
3F2
100
AcDbVisualStyle
  2

 70
    14
 71
     2
 72
     2
 73
     0
 90
        0
 40
-0.6
 41
-30.0
 62
     5
 63
     7
 74
     1
 91
        4
 64
     7
 65
   257
 75
     7
175
     7
 42
1.0
 92
        8
 66
     7
 43
1.0
 76
     1
 77
     6
 78
     2
 67
     7
 79
     5
170
     0
171
     0
290
     0
174
     0
 93
        1
 44
0.0
173
     0
291
     1
 45
0.0
1001
ACAD
1000
AcDbSavedByObjectVersion
1070
     0
  0
VISUALSTYLE
  5
BDE
102
{ACAD_XDICTIONARY
360
26B3
102
}
102
{ACAD_REACTORS
330
3F2
102
}
330
3F2
100
AcDbVisualStyle
  2

 70
    21
 71
     2
 72
     2
 73
     0
 90
        0
 40
-0.6
 41
-30.0
 62
     5
 63
     7
 74
     1
 91
        4
 64
     7
 65
   257
 75
     1
175
     1
 42
1.0
 92
        9
 66
     7
 43
1.0
 76
     1
 77
     6
 78
     2
 67
     7
 79
     5
170
     0
171
     0
290
     0
174
     0
 93
        1
 44
0.0
173
     0
291
     1
 45
0.0
1001
ACAD
1000
AcDbSavedByObjectVersion
1070
     0
  0
VISUALSTYLE
  5
3FC
102
{ACAD_XDICTIONARY
360
2699
102
}
102
{ACAD_REACTORS
330
3F2
102
}
330
3F2
100
AcDbVisualStyle
  2

 70
     8
 71
     2
 72
     2
 73
     0
 90
        0
 40
-0.6
 41
-30.0
 62
     5
 63
     7
 74
     1
 91
        0
 64
     7
 65
   257
 75
     1
175
     1
 42
1.0
 92
        8
 66
     8
 43
1.0
 76
     1
 77
     6
 78
     2
 67
     7
 79
     5
170
     0
171
     0
290
     0
174
     0
 93
       13
 44
0.0
173
     0
291
     0
 45
0.0
1001
ACAD
1000
AcDbSavedByObjectVersion
1070
     0
  0
VISUALSTYLE
  5
CEC
102
{ACAD_XDICTIONARY
360
26C3
102
}
102
{ACAD_REACTORS
330
3F2
102
}
330
3F2
100
AcDbVisualStyle
  2

 70
    27
 71
     2
 72
     2
 73
     1
 90
        2
 40
-0.6
 41
30.0
 62
     5
 63
     7
 74
     0
 91
        4
 64
     7
 65
   257
 75
     1
175
     1
 42
1.0
 92
        8
 66
   257
 43
1.0
 76
     1
 77
     6
 78
     2
 67
     8
 79
     3
170
     0
171
     0
290
     0
174
     0
 93
        5
 44
0.0
173
     0
291
     0
 45
0.0
1001
ACAD
1000
AcDbSavedByObjectVersion
1070
     0
  0
VISUALSTYLE
  5
CEB
102
{ACAD_XDICTIONARY
360
26C1
102
}
102
{ACAD_REACTORS
330
3F2
102
}
330
3F2
100
AcDbVisualStyle
  2

 70
    26
 71
     2
 72
     2
 73
     1
 90
        2
 40
-0.6
 41
30.0
 62
     5
 63
     7
 74
     1
 91
        2
 64
     7
 65
   257
 75
     2
175
     1
 42
1.0
 92
        8
 66
   257
 43
1.0
 76
     1
 77
     6
 78
     2
 67
     7
 79
     3
170
     0
171
     0
290
     0
174
     0
 93
        5
 44
0.0
173
     0
291
     0
 45
0.0
1001
ACAD
1000
AcDbSavedByObjectVersion
1070
     0
  0
VISUALSTYLE
  5
CE8
102
{ACAD_XDICTIONARY
360
26BB
102
}
102
{ACAD_REACTORS
330
3F2
102
}
330
3F2
100
AcDbVisualStyle
  2

 70
    23
 71
     2
 72
     2
 73
     3
 90
        0
 40
-0.6
 41
-30.0
 62
     5
 63
     7
 74
     2
 91
        2
 64
     7
 65
     7
 75
     1
175
     1
 42
40.0
 92
        8
 66
     7
 43
1.0
 76
     1
 77
     6
 78
     2
 67
     7
 79
     3
170
     0
171
     0
290
     0
174
     0
 93
        1
 44
0.0
173
     0
291
     0
 45
0.0
1001
ACAD
1000
AcDbSavedByObjectVersion
1070
     0
  0
VISUALSTYLE
  5
CE9
102
{ACAD_XDICTIONARY
360
26BD
102
}
102
{ACAD_REACTORS
330
3F2
102
}
330
3F2
100
AcDbVisualStyle
  2

 70
    24
 71
     1
 72
     2
 73
     2
 90
        0
 40
-0.6
 41
-30.0
 62
     5
 63
     7
 74
     2
 91
        2
 64
     7
 65
     7
 75
     1
175
     1
 42
40.0
 92
       11
 66
     7
 43
1.0
 76
     1
 77
     6
 78
     2
 67
     7
 79
     6
170
     0
171
     0
290
     0
174
     0
 93
        1
 44
0.0
173
     0
291
     0
 45
0.0
1001
ACAD
1000
AcDbSavedByObjectVersion
1070
     0
  0
VISUALSTYLE
  5
3FF
102
{ACAD_XDICTIONARY
360
269F
102
}
102
{ACAD_REACTORS
330
3F2
102
}
330
3F2
100
AcDbVisualStyle
  2

 70
    13
 71
     2
 72
     2
 73
     0
 90
        0
 40
-0.6
 41
-30.0
 62
     5
 63
     7
 74
     1
 91
        4
 64
     7
 65
   257
 75
     1
175
     1
 42
1.0
 92
       12
 66
     7
 43
1.0
 76
     1
 77
     6
 78
     2
 67
     7
 79
     5
170
     0
171
     0
290
     0
174
     0
 93
        1
 44
0.0
173
     0
291
     1
 45
0.0
1001
ACAD
1000
AcDbSavedByObjectVersion
1070
     0
  0
VISUALSTYLE
  5
CE6
102
{ACAD_XDICTIONARY
360
26B7
102
}
102
{ACAD_REACTORS
330
3F2
102
}
330
3F2
100
AcDbVisualStyle
  2

 70
     5
 71
     0
 72
     2
 73
     0
 90
        0
 40
-0.6
 41
-30.0
 62
     5
 63
     7
 74
     1
 91
        4
 64
     7
 65
   257
 75
     1
175
     1
 42
1.0
 92
        0
 66
   257
 43
1.0
 76
     1
 77
     6
 78
     2
 67
     7
 79
     3
170
     0
171
     0
290
     0
174
     0
 93
        1
 44
0.0
173
     0
291
     0
 45
0.0
1001
ACAD
1000
AcDbSavedByObjectVersion
1070
     0
  0
VISUALSTYLE
  5
CEA
102
{ACAD_XDICTIONARY
360
26BF
102
}
102
{ACAD_REACTORS
330
3F2
102
}
330
3F2
100
AcDbVisualStyle
  2

 70
    25
 71
     2
 72
     2
 73
     1
 90
        1
 40
0.5
 41
-30.0
 62
     5
 63
     7
 74
     1
 91
        0
 64
     7
 65
   257
 75
     1
175
     1
 42
1.0
 92
        8
 66
     7
 43
1.0
 76
     1
 77
     6
 78
     2
 67
     7
 79
     3
170
     0
171
     0
290
     0
174
     0
 93
       13
 44
0.0
173
     0
291
     0
 45
0.0
1001
ACAD
1000
AcDbSavedByObjectVersion
1070
     0
  0
DICTIONARYVAR
  5
57C
102
{ACAD_REACTORS
330
357
102
}
330
357
100
DictionaryVariables
280
     0
  1
1:1
  0
DICTIONARYVAR
  5
57A
102
{ACAD_REACTORS
330
357
102
}
330
357
100
DictionaryVariables
280
     0
  1
STANDARD
  0
DICTIONARYVAR
  5
38E
102
{ACAD_REACTORS
330
357
102
}
330
357
100
DictionaryVariables
280
     0
  1
STANDARD
  0
DICTIONARYVAR
  5
D2C
102
{ACAD_REACTORS
330
357
102
}
330
357
100
DictionaryVariables
280
     0
  1
Metric50
  0
DICTIONARYVAR
  5
D2D
102
{ACAD_REACTORS
330
357
102
}
330
357
100
DictionaryVariables
280
     0
  1
Metric50
  0
DICTIONARYVAR
  5
359
102
{ACAD_REACTORS
330
357
102
}
330
357
100
DictionaryVariables
280
     0
  1
2
  0
DICTIONARYVAR
  5
358
102
{ACAD_REACTORS
330
357
102
}
330
357
100
DictionaryVariables
280
     0
  1
1
  0
DICTIONARYVAR
  5
ACC
102
{ACAD_REACTORS
330
357
102
}
330
357
100
DictionaryVariables
280
     0
  1
0
  0
DICTIONARYVAR
  5
BF1
102
{ACAD_REACTORS
330
357
102
}
330
357
100
DictionaryVariables
280
     0
  1
1
  0
DICTIONARYVAR
  5
BF2
102
{ACAD_REACTORS
330
357
102
}
330
357
100
DictionaryVariables
280
     0
  1
15
  0
DICTIONARYVAR
  5
57D
102
{ACAD_REACTORS
330
357
102
}
330
357
100
DictionaryVariables
280
     0
  1
0
  0
DICTIONARYVAR
  5
57B
102
{ACAD_REACTORS
330
357
102
}
330
357
100
DictionaryVariables
280
     0
  1
0
  0
DICTIONARYVAR
  5
1A25
102
{ACAD_REACTORS
330
357
102
}
330
357
100
DictionaryVariables
280
     0
  1
1
  0
DICTIONARYVAR
  5
ACB
102
{ACAD_REACTORS
330
357
102
}
330
357
100
DictionaryVariables
280
     0
  1
127
  0
DICTIONARYVAR
  5
267A
102
{ACAD_REACTORS
330
357
102
}
330
357
100
DictionaryVariables
280
     0
  1
2
  0
DICTIONARY
  5
4DC
102
{ACAD_REACTORS
330
4D1
102
}
330
4D1
100
AcDbDictionary
281
     1
  0
XRECORD
  5
4F3
102
{ACAD_REACTORS
330
4D1
102
}
330
4D1
100
AcDbXrecord
280
     1
 90
-1023410169
  0
XRECORD
  5
8E9
102
{ACAD_REACTORS
330
567
102
}
330
567
100
AcDbXrecord
280
     1
 91
     1023
301

290
     0
302
1
  8
200
 90
        8
 62
     2
370
    50
331
14
  1
Color_2
  8
160
 90
        8
 62
     1
370
    35
331
14
  1
Color_1
  8
150
 90
        8
 62
    96
370
    50
331
14
  1
Color_96
 92
-1040154880
  8
140
 90
        8
 62
     5
370
    35
331
14
  1
Color_5
  8
130
 90
        8
 62
     6
370
    35
331
14
  1
Color_6
  8
120
 90
        8
 62
     3
370
    50
331
14
  1
Color_3
  8
110
 90
        8
 62
     7
370
    25
331
14
  1
Color_7
  8
100
 90
        8
 62
     4
370
    50
331
14
  1
Color_4
  8
INFTEXT69
 90
        8
 62
     5
370
    -3
331
14
  1
Color_5
  8
INFTEXT68
 90
        8
 62
     5
370
    -3
331
14
  1
Color_5
  8
INFTEXT67
 90
        8
 62
     5
370
    -3
331
14
  1
Color_5
  8
INFTEXT66
 90
        8
 62
     5
370
    -3
331
14
  1
Color_5
  8
INFTEXT65
 90
        8
 62
     5
370
    -3
331
14
  1
Color_5
  8
INFTEXT64
 90
        8
 62
     5
370
    -3
331
14
  1
Color_5
  8
INFTEXT63
 90
        8
 62
     5
370
    -3
331
14
  1
Color_5
  8
INFTEXT62
 90
        8
 62
     5
370
    -3
331
14
  1
Color_5
  8
RECON69
 90
        8
 62
     5
370
    35
331
14
  1
Color_5
  8
RECON68
 90
        8
 62
     5
370
    35
331
14
  1
Color_5
  8
RECON67
 90
        8
 62
     5
370
    35
331
14
  1
Color_5
  8
RECON66
 90
        8
 62
     5
370
    35
331
14
  1
Color_5
  8
RECON65
 90
        8
 62
     5
370
    35
331
14
  1
Color_5
  8
RECON64
 90
        8
 62
     5
370
    35
331
14
  1
Color_5
  8
RECON63
 90
        8
 62
     5
370
    35
331
14
  1
Color_5
  8
RECON62
 90
        8
 62
     5
370
    35
331
14
  1
Color_5
  8
RECON61
 90
        8
 62
     5
370
    35
331
14
  1
Color_5
  8
SK69
 90
        8
 62
     5
370
    35
331
14
  1
Color_5
  8
SK68
 90
        8
 62
     5
370
    35
331
14
  1
Color_5
  8
SK67
 90
        8
 62
     5
370
    35
331
14
  1
Color_5
  8
SK66
 90
        8
 62
     5
370
    35
331
14
  1
Color_5
  8
SK65
 90
        8
 62
     5
370
    35
331
14
  1
Color_5
  8
SK64
 90
        8
 62
     5
370
    35
331
14
  1
Color_5
  8
SK63
 90
        8
 62
     5
370
    35
331
14
  1
Color_5
  8
SK62
 90
        8
 62
     5
370
    35
331
14
  1
Color_5
  8
SK61
 90
        8
 62
     5
370
    35
331
14
  1
Color_5
  8
SKVIEW69
 90
        8
 62
     5
370
    35
331
14
  1
Color_5
  8
SKVIEW68
 90
        8
 62
     5
370
    35
331
14
  1
Color_5
  8
SKVIEW67
 90
        8
 62
     5
370
    35
331
14
  1
Color_5
  8
SKVIEW66
 90
        8
 62
     5
370
    35
331
14
  1
Color_5
  8
SKVIEW65
 90
        8
 62
     5
370
    35
331
14
  1
Color_5
  8
SKVIEW64
 90
        8
 62
     5
370
    35
331
14
  1
Color_5
  8
SKVIEW63
 90
        8
 62
     5
370
    35
331
14
  1
Color_5
  8
SKVIEW62
 90
        8
 62
     5
370
    35
331
14
  1
Color_5
  8
SKVIEW61
 90
        8
 62
     5
370
    35
331
14
  1
Color_5
  8
69
 90
        8
 62
     5
370
    35
331
14
  1
Color_5
  8
68
 90
        8
 62
     5
370
    35
331
14
  1
Color_5
  8
67
 90
        8
 62
     5
370
    35
331
14
  1
Color_5
  8
66
 90
        8
 62
     5
370
    35
331
14
  1
Color_5
  8
65
 90
        8
 62
     5
370
    35
331
14
  1
Color_5
  8
64
 90
        8
 62
     5
370
    35
331
14
  1
Color_5
  8
63
 90
        8
 62
     5
370
    35
331
14
  1
Color_5
  8
62
 90
        8
 62
     5
370
    35
331
14
  1
Color_5
  8
61
 90
        8
 62
     5
370
    35
331
14
  1
Color_5
  8
59
 90
        8
 62
     5
370
    -3
331
14
  1
Color_5
  8
58
 90
        8
 62
     5
370
    -3
331
14
  1
Color_5
  8
57
 90
        8
 62
     5
370
    -3
331
14
  1
Color_5
  8
56
 90
        8
 62
     5
370
    -3
331
14
  1
Color_5
  8
55
 90
        8
 62
     5
370
    -3
331
14
  1
Color_5
  8
54
 90
        8
 62
     5
370
    -3
331
14
  1
Color_5
  8
53
 90
        8
 62
     5
370
    -3
331
14
  1
Color_5
  8
52
 90
        8
 62
     5
370
    -3
331
14
  1
Color_5
  8
51
 90
        8
 62
     5
370
    -3
331
14
  1
Color_5
  8
FRAME59
 90
        8
 62
     7
370
    -3
331
14
  1
Color_7
  8
FRAME58
 90
        8
 62
     7
370
    -3
331
14
  1
Color_7
  8
FRAME57
 90
        8
 62
     7
370
    -3
331
14
  1
Color_7
  8
FRAME56
 90
        8
 62
     7
370
    -3
331
14
  1
Color_7
  8
FRAME55
 90
        8
 62
     7
370
    -3
331
14
  1
Color_7
  8
FRAME54
 90
        8
 62
     7
370
    -3
331
14
  1
Color_7
  8
FRAME53
 90
        8
 62
     7
370
    -3
331
14
  1
Color_7
  8
FRAME52
 90
        8
 62
     7
370
    -3
331
14
  1
Color_7
  8
RECON7
 90
        8
 62
     5
370
    25
331
14
  1
Color_5
  8
RECON6
 90
        8
 62
     5
370
    35
331
14
  1
Color_5
  8
RECON4
 90
        8
 62
     2
370
    25
331
14
  1
Color_2
  8
RECON3
 90
        8
 62
     1
370
    35
331
14
  1
Color_1
  8
RECON2
 90
        8
 62
     7
370
    25
331
14
  1
Color_7
  8
RECON1
 90
        8
 62
     4
370
    50
331
14
  1
Color_4
  8
SKVIEW7
 90
        8
 62
     5
370
    25
331
14
  1
Color_5
  8
SK7
 90
        8
 62
     5
370
    25
331
14
  1
Color_5
  8
7
 90
        8
 62
     5
370
    25
331
14
  1
Color_5
  8
INFMAINVIEW
 90
        8
 62
     9
370
    18
331
14
  1
Color_9
  8
INFTOTAL
 90
        8
 62
     9
370
    18
331
14
  1
Color_9
  8
INFTEXT61
 90
        8
 62
     5
370
    -3
331
14
  1
Color_5
  8
INFWKP
 90
        8
 62
    30
370
    25
331
14
  1
Color_30
  8
SKVIEW6
 90
        8
 62
     5
370
    35
331
14
  1
Color_5
  8
SKVIEW4
 90
        8
 62
     2
370
    25
331
14
  1
Color_2
  8
SKVIEW3
 90
        8
 62
     1
370
    35
331
14
  1
Color_1
  8
SKVIEW2
 90
        8
 62
     7
370
    25
331
14
  1
Color_7
  8
SKVIEW1
 90
        8
 62
     4
370
    50
331
14
  1
Color_4
  8
NOCUT
 90
        8
 62
     7
370
    25
331
14
  1
Color_7
  8
CUT
 90
        8
 62
     1
370
    25
331
14
  1
Color_1
  8
DEFPOINTS
 90
        0
 62
     7
370
    -3
331
14
  1
Color_7
  8
SK6
 90
        8
 62
     5
370
    35
331
14
  1
Color_5
  8
6
 90
        8
 62
     5
370
    35
331
14
  1
Color_5
  8
FRAME51
 90
        8
 62
     7
370
    -3
331
14
  1
Color_7
  8
SK4
 90
        8
 62
     2
370
    25
331
14
  1
Color_2
  8
4
 90
        8
 62
     2
370
    25
331
14
  1
Color_2
  8
SK3
 90
        8
 62
     1
370
    35
331
14
  1
Color_1
  8
3
 90
        8
 62
     1
370
    35
331
14
  1
Color_1
  8
SK2
 90
        8
 62
     7
370
    25
331
14
  1
Color_7
  8
2
 90
        8
 62
     7
370
    25
331
14
  1
Color_7
  8
SK1
 90
        8
 62
     4
370
    50
331
14
  1
Color_4
  8
1
 90
        8
 62
     4
370
    50
331
14
  1
Color_4
  8
0
 90
        0
 62
     7
370
    -3
331
14
  1
Color_7
  0
DICTIONARY
  5
26C7
330
CF0
100
AcDbDictionary
280
     1
281
     1
  3
ACAD_XREC_ROUNDTRIP
360
26C8
  0
DICTIONARY
  5
26AD
330
B57
100
AcDbDictionary
280
     1
281
     1
  3
ACAD_XREC_ROUNDTRIP
360
26AE
  0
DICTIONARY
  5
2684
330
303
100
AcDbDictionary
280
     1
281
     1
  3
ACAD_XREC_ROUNDTRIP
360
2685
  0
DICTIONARY
  5
1A38
330
3F0
100
AcDbDictionary
280
     1
281
     1
  3
ACAD_XREC_ROUNDTRIP
360
1A39
  0
DICTIONARY
  5
1A36
330
3EF
100
AcDbDictionary
280
     1
281
     1
  3
ACAD_XREC_ROUNDTRIP
360
1A37
  0
DICTIONARY
  5
1A3A
330
3F1
100
AcDbDictionary
280
     1
281
     1
  3
ACAD_XREC_ROUNDTRIP
360
1A3B
  0
DICTIONARY
  5
26A7
330
470
100
AcDbDictionary
280
     1
281
     1
  3
ACAD_XREC_ROUNDTRIP
360
26A8
  0
DICTIONARY
  5
26A9
330
7EF
100
AcDbDictionary
280
     1
281
     1
  3
ACAD_XREC_ROUNDTRIP
360
26AA
  0
DICTIONARY
  5
26AB
330
7F8
100
AcDbDictionary
280
     1
281
     1
  3
ACAD_XREC_ROUNDTRIP
360
26AC
  0
DICTIONARY
  5
26C5
330
CEE
100
AcDbDictionary
280
     1
281
     1
  3
ACAD_XREC_ROUNDTRIP
360
26C6
  0
DICTIONARY
  5
577
330
389
100
AcDbDictionary
280
     1
281
     1
  3
ACAD_ROUNDTRIP_2008_TABLESTYLE_CELLSTYLEMAP
360
267B
  3
ACAD_XREC_ROUNDTRIP
360
2686
  0
DICTIONARY
  5
2691
330
3F8
100
AcDbDictionary
280
     1
281
     1
  3
ACAD_XREC_ROUNDTRIP
360
2692
  0
DICTIONARY
  5
2695
330
3FA
100
AcDbDictionary
280
     1
281
     1
  3
ACAD_XREC_ROUNDTRIP
360
2696
  0
DICTIONARY
  5
2693
330
3F9
100
AcDbDictionary
280
     1
281
     1
  3
ACAD_XREC_ROUNDTRIP
360
2694
  0
DICTIONARY
  5
268F
330
3F7
100
AcDbDictionary
280
     1
281
     1
  3
ACAD_XREC_ROUNDTRIP
360
2690
  0
DICTIONARY
  5
269D
330
3FE
100
AcDbDictionary
280
     1
281
     1
  3
ACAD_XREC_ROUNDTRIP
360
269E
  0
DICTIONARY
  5
26A5
330
402
100
AcDbDictionary
280
     1
281
     1
  3
ACAD_XREC_ROUNDTRIP
360
26A6
  0
DICTIONARY
  5
2697
330
3FB
100
AcDbDictionary
280
     1
281
     1
  3
ACAD_XREC_ROUNDTRIP
360
2698
  0
DICTIONARY
  5
269B
330
3FD
100
AcDbDictionary
280
     1
281
     1
  3
ACAD_XREC_ROUNDTRIP
360
269C
  0
DICTIONARY
  5
26B5
330
BDF
100
AcDbDictionary
280
     1
281
     1
  3
ACAD_XREC_ROUNDTRIP
360
26B6
  0
DICTIONARY
  5
26A3
330
401
100
AcDbDictionary
280
     1
281
     1
  3
ACAD_XREC_ROUNDTRIP
360
26A4
  0
DICTIONARY
  5
2687
330
3F3
100
AcDbDictionary
280
     1
281
     1
  3
ACAD_XREC_ROUNDTRIP
360
2688
  0
DICTIONARY
  5
2689
330
3F4
100
AcDbDictionary
280
     1
281
     1
  3
ACAD_XREC_ROUNDTRIP
360
268A
  0
DICTIONARY
  5
268B
330
3F5
100
AcDbDictionary
280
     1
281
     1
  3
ACAD_XREC_ROUNDTRIP
360
268C
  0
DICTIONARY
  5
268D
330
3F6
100
AcDbDictionary
280
     1
281
     1
  3
ACAD_XREC_ROUNDTRIP
360
268E
  0
DICTIONARY
  5
26B9
330
CE7
100
AcDbDictionary
280
     1
281
     1
  3
ACAD_XREC_ROUNDTRIP
360
26BA
  0
DICTIONARY
  5
26B1
330
BDD
100
AcDbDictionary
280
     1
281
     1
  3
ACAD_XREC_ROUNDTRIP
360
26B2
  0
DICTIONARY
  5
26A1
330
400
100
AcDbDictionary
280
     1
281
     1
  3
ACAD_XREC_ROUNDTRIP
360
26A2
  0
DICTIONARY
  5
26B3
330
BDE
100
AcDbDictionary
280
     1
281
     1
  3
ACAD_XREC_ROUNDTRIP
360
26B4
  0
DICTIONARY
  5
2699
330
3FC
100
AcDbDictionary
280
     1
281
     1
  3
ACAD_XREC_ROUNDTRIP
360
269A
  0
DICTIONARY
  5
26C3
330
CEC
100
AcDbDictionary
280
     1
281
     1
  3
ACAD_XREC_ROUNDTRIP
360
26C4
  0
DICTIONARY
  5
26C1
330
CEB
100
AcDbDictionary
280
     1
281
     1
  3
ACAD_XREC_ROUNDTRIP
360
26C2
  0
DICTIONARY
  5
26BB
330
CE8
100
AcDbDictionary
280
     1
281
     1
  3
ACAD_XREC_ROUNDTRIP
360
26BC
  0
DICTIONARY
  5
26BD
330
CE9
100
AcDbDictionary
280
     1
281
     1
  3
ACAD_XREC_ROUNDTRIP
360
26BE
  0
DICTIONARY
  5
269F
330
3FF
100
AcDbDictionary
280
     1
281
     1
  3
ACAD_XREC_ROUNDTRIP
360
26A0
  0
DICTIONARY
  5
26B7
330
CE6
100
AcDbDictionary
280
     1
281
     1
  3
ACAD_XREC_ROUNDTRIP
360
26B8
  0
DICTIONARY
  5
26BF
330
CEA
100
AcDbDictionary
280
     1
281
     1
  3
ACAD_XREC_ROUNDTRIP
360
26C0
  0
XRECORD
  5
26C8
102
{ACAD_REACTORS
330
26C7
102
}
330
26C7
100
AcDbXrecord
280
     1
102
DISPLAYNAME
  1
Metric50
102
FLAGS
 90
        0
  0
XRECORD
  5
26AE
102
{ACAD_REACTORS
330
26AD
102
}
330
26AD
100
AcDbXrecord
280
     1
102
SHADEPLOT
 70
     0
102
SHADEPLOTRESLEVEL
 70
     2
102
SHADEPLOTCUSTOMDPI
 70
   300
  0
XRECORD
  5
2685
102
{ACAD_REACTORS
330
2684
102
}
330
2684
100
AcDbXrecord
280
     1
102
SHADEPLOT
 70
     0
102
SHADEPLOTRESLEVEL
 70
     2
102
SHADEPLOTCUSTOMDPI
 70
   300
  0
XRECORD
  5
1A39
102
{ACAD_REACTORS
330
1A38
102
}
330
1A38
100
AcDbXrecord
280
     1
102
MATERIAL
148
0.0
149
0.0
149
0.0
 93
        0
 94
      127
282
     0
 72
     1
 77
     1
171
     1
175
     1
179
     1
273
     0
  0
XRECORD
  5
1A37
102
{ACAD_REACTORS
330
1A36
102
}
330
1A36
100
AcDbXrecord
280
     1
102
MATERIAL
148
0.0
149
0.0
149
0.0
 93
        0
 94
      127
282
     0
 72
     1
 77
     1
171
     1
175
     1
179
     1
273
     0
  0
XRECORD
  5
1A3B
102
{ACAD_REACTORS
330
1A3A
102
}
330
1A3A
100
AcDbXrecord
280
     1
102
MATERIAL
148
0.0
149
0.0
149
0.0
 93
        0
 94
      127
282
     0
 72
     1
 77
     1
171
     1
175
     1
179
     1
273
     0
  0
XRECORD
  5
26A8
102
{ACAD_REACTORS
330
26A7
102
}
330
26A7
100
AcDbXrecord
280
     1
102
ACAD_ROUNDTRIP_2012_MLEADER_STYLE
298
     1
  0
XRECORD
  5
26AA
102
{ACAD_REACTORS
330
26A9
102
}
330
26A9
100
AcDbXrecord
280
     1
102
SHADEPLOT
 70
     0
102
SHADEPLOTRESLEVEL
 70
     2
102
SHADEPLOTCUSTOMDPI
 70
   300
  0
XRECORD
  5
26AC
102
{ACAD_REACTORS
330
26AB
102
}
330
26AB
100
AcDbXrecord
280
     1
102
SHADEPLOT
 70
     0
102
SHADEPLOTRESLEVEL
 70
     2
102
SHADEPLOTCUSTOMDPI
 70
   300
  0
XRECORD
  5
26C6
102
{ACAD_REACTORS
330
26C5
102
}
330
26C5
100
AcDbXrecord
280
     1
102
DISPLAYNAME
  1
Metric50
102
FLAGS
 90
        0
  0
CELLSTYLEMAP
  5
267B
102
{ACAD_REACTORS
330
577
102
}
330
577
100
AcDbCellStyleMap
 90
        3
300
CELLSTYLE
  1
TABLEFORMAT_BEGIN
 90
        5
170
     1
 91
        0
 92
    32768
 62
   257
 93
        1
300
CONTENTFORMAT
  1
CONTENTFORMAT_BEGIN
 90
        0
 91
        0
 92
        4
 93
        0
300

 40
0.0
140
1.0
 94
        5
 62
     0
340
1E
144
6.0
309
CONTENTFORMAT_END
171
     1
301
MARGIN
  1
CELLMARGIN_BEGIN
 40
1.5
 40
1.5
 40
1.5
 40
1.5
 40
0.18
 40
0.18
309
CELLMARGIN_END
 94
        6
 95
        1
302
GRIDFORMAT
  1
GRIDFORMAT_BEGIN
 90
        0
 91
        1
 62
     0
 92
       -2
340
0
 93
        0
 40
0.045
309
GRIDFORMAT_END
 95
        2
302
GRIDFORMAT
  1
GRIDFORMAT_BEGIN
 90
        0
 91
        1
 62
     0
 92
       -2
340
0
 93
        0
 40
0.045
309
GRIDFORMAT_END
 95
        4
302
GRIDFORMAT
  1
GRIDFORMAT_BEGIN
 90
        0
 91
        1
 62
     0
 92
       -2
340
0
 93
        0
 40
0.045
309
GRIDFORMAT_END
 95
        8
302
GRIDFORMAT
  1
GRIDFORMAT_BEGIN
 90
        0
 91
        1
 62
     0
 92
       -2
340
0
 93
        0
 40
0.045
309
GRIDFORMAT_END
 95
       16
302
GRIDFORMAT
  1
GRIDFORMAT_BEGIN
 90
        0
 91
        1
 62
     0
 92
       -2
340
0
 93
        0
 40
0.045
309
GRIDFORMAT_END
 95
       32
302
GRIDFORMAT
  1
GRIDFORMAT_BEGIN
 90
        0
 91
        1
 62
     0
 92
       -2
340
0
 93
        0
 40
0.045
309
GRIDFORMAT_END
309
TABLEFORMAT_END
  1
CELLSTYLE_BEGIN
 90
        1
 91
        1
300
_TITLE
309
CELLSTYLE_END
300
CELLSTYLE
  1
TABLEFORMAT_BEGIN
 90
        5
170
     1
 91
        0
 92
        0
 62
   257
 93
        1
300
CONTENTFORMAT
  1
CONTENTFORMAT_BEGIN
 90
        0
 91
        0
 92
        4
 93
        0
300

 40
0.0
140
1.0
 94
        5
 62
     0
340
10
144
4.5
309
CONTENTFORMAT_END
171
     1
301
MARGIN
  1
CELLMARGIN_BEGIN
 40
1.5
 40
1.5
 40
1.5
 40
1.5
 40
0.18
 40
0.18
309
CELLMARGIN_END
 94
        6
 95
        1
302
GRIDFORMAT
  1
GRIDFORMAT_BEGIN
 90
        0
 91
        1
 62
     0
 92
       -2
340
0
 93
        0
 40
0.045
309
GRIDFORMAT_END
 95
        2
302
GRIDFORMAT
  1
GRIDFORMAT_BEGIN
 90
        0
 91
        1
 62
     0
 92
       -2
340
0
 93
        0
 40
0.045
309
GRIDFORMAT_END
 95
        4
302
GRIDFORMAT
  1
GRIDFORMAT_BEGIN
 90
        0
 91
        1
 62
     0
 92
       -2
340
0
 93
        0
 40
0.045
309
GRIDFORMAT_END
 95
        8
302
GRIDFORMAT
  1
GRIDFORMAT_BEGIN
 90
        0
 91
        1
 62
     0
 92
       -2
340
0
 93
        0
 40
0.045
309
GRIDFORMAT_END
 95
       16
302
GRIDFORMAT
  1
GRIDFORMAT_BEGIN
 90
        0
 91
        1
 62
     0
 92
       -2
340
0
 93
        0
 40
0.045
309
GRIDFORMAT_END
 95
       32
302
GRIDFORMAT
  1
GRIDFORMAT_BEGIN
 90
        0
 91
        1
 62
     0
 92
       -2
340
0
 93
        0
 40
0.045
309
GRIDFORMAT_END
309
TABLEFORMAT_END
  1
CELLSTYLE_BEGIN
 90
        2
 91
        1
300
_HEADER
309
CELLSTYLE_END
300
CELLSTYLE
  1
TABLEFORMAT_BEGIN
 90
        5
170
     1
 91
        0
 92
        0
 62
   257
 93
        1
300
CONTENTFORMAT
  1
CONTENTFORMAT_BEGIN
 90
        0
 91
        0
 92
        4
 93
        0
300

 40
0.0
140
1.0
 94
        2
 62
     0
340
10
144
4.5
309
CONTENTFORMAT_END
171
     1
301
MARGIN
  1
CELLMARGIN_BEGIN
 40
1.5
 40
1.5
 40
1.5
 40
1.5
 40
0.18
 40
0.18
309
CELLMARGIN_END
 94
        6
 95
        1
302
GRIDFORMAT
  1
GRIDFORMAT_BEGIN
 90
        0
 91
        1
 62
     0
 92
       -2
340
0
 93
        0
 40
0.045
309
GRIDFORMAT_END
 95
        2
302
GRIDFORMAT
  1
GRIDFORMAT_BEGIN
 90
        0
 91
        1
 62
     0
 92
       -2
340
0
 93
        0
 40
0.045
309
GRIDFORMAT_END
 95
        4
302
GRIDFORMAT
  1
GRIDFORMAT_BEGIN
 90
        0
 91
        1
 62
     0
 92
       -2
340
0
 93
        0
 40
0.045
309
GRIDFORMAT_END
 95
        8
302
GRIDFORMAT
  1
GRIDFORMAT_BEGIN
 90
        0
 91
        1
 62
     0
 92
       -2
340
0
 93
        0
 40
0.045
309
GRIDFORMAT_END
 95
       16
302
GRIDFORMAT
  1
GRIDFORMAT_BEGIN
 90
        0
 91
        1
 62
     0
 92
       -2
340
0
 93
        0
 40
0.045
309
GRIDFORMAT_END
 95
       32
302
GRIDFORMAT
  1
GRIDFORMAT_BEGIN
 90
        0
 91
        1
 62
     0
 92
       -2
340
0
 93
        0
 40
0.045
309
GRIDFORMAT_END
309
TABLEFORMAT_END
  1
CELLSTYLE_BEGIN
 90
        3
 91
        2
300
_DATA
309
CELLSTYLE_END
  0
XRECORD
  5
2686
102
{ACAD_REACTORS
330
577
102
}
330
577
100
AcDbXrecord
280
     1
102
ACAD_ROUNDTRIP_PRE2007_TABLESTYLE
 90
        4
 91
        0
  1

 92
        4
 93
        0
  2

 94
        4
 95
        0
  3

  0
XRECORD
  5
2692
102
{ACAD_REACTORS
330
2691
102
}
330
2691
100
AcDbXrecord
280
     1
102
RTVSPost2010Prop28
280
     1
102
RTVSPost2010PropOp28
 70
     1
102
RTVSPost2010Prop29
280
     1
102
RTVSPost2010PropOp29
 70
     1
102
RTVSPost2010Prop30
280
     0
102
RTVSPost2010PropOp30
 70
     1
102
RTVSPost2010Prop31
280
     0
102
RTVSPost2010PropOp31
 70
     1
102
RTVSPost2010Prop32
280
     0
102
RTVSPost2010PropOp32
 70
     1
102
RTVSPost2010Prop33
280
     0
102
RTVSPost2010PropOp33
 70
     1
102
RTVSPost2010Prop34
280
     0
102
RTVSPost2010PropOp34
 70
     1
102
RTVSPost2010Prop35
280
     0
102
RTVSPost2010PropOp35
 70
     1
102
RTVSPost2010Prop36
280
     0
102
RTVSPost2010PropOp36
 70
     1
102
RTVSPost2010Prop37
 90
       50
102
RTVSPost2010PropOp37
 70
     1
102
RTVSPost2010Prop38
140
0.0
102
RTVSPost2010PropOp38
 70
     1
102
RTVSPost2010Prop39
140
1.0
102
RTVSPost2010PropOp39
 70
     1
102
RTVSPost2010Prop40
 90
        0
102
RTVSPost2010PropOp40
 70
     1
102
RTVSPost2010Prop41ColorIndex
 90
       18
102
RTVSPost2010Prop41ColorRGB
 90
        0
102
RTVSPost2010PropOp41
 70
     1
102
RTVSPost2010Prop42
 90
       50
102
RTVSPost2010PropOp42
 70
     1
102
RTVSPost2010Prop43
 90
        3
102
RTVSPost2010PropOp43
 70
     1
102
RTVSPost2010Prop44ColorIndex
 90
        5
102
RTVSPost2010Prop44ColorRGB
 90
      255
102
RTVSPost2010PropOp44
 70
     1
102
RTVSPost2010Prop45
280
     0
102
RTVSPost2010PropOp45
 70
     1
102
RTVSPost2010Prop46
 90
       50
102
RTVSPost2010PropOp46
 70
     1
102
RTVSPost2010Prop47
 90
       50
102
RTVSPost2010PropOp47
 70
     1
102
RTVSPost2010Prop48
 90
       50
102
RTVSPost2010PropOp48
 70
     1
102
RTVSPost2010Prop49
280
     0
102
RTVSPost2010PropOp49
 70
     1
102
RTVSPost2010Prop50
 90
       50
102
RTVSPost2010PropOp50
 70
     1
102
RTVSPost2010Prop51ColorIndex
 90
      256
102
RTVSPost2010Prop51ColorRGB
 90
-16777216
102
RTVSPost2010PropOp51
 70
     0
102
RTVSPost2010Prop52
140
1.0
102
RTVSPost2010PropOp52
 70
     0
102
RTVSPost2010Prop53
 90
        2
102
RTVSPost2010PropOp53
 70
     1
102
RTVSPost2010Prop54
  1
strokes_ogs.tif
102
RTVSPost2010PropOp54
 70
     1
102
RTVSPost2010Prop55
280
     0
102
RTVSPost2010PropOp55
 70
     1
102
RTVSPost2010Prop56
140
1.0
102
RTVSPost2010PropOp56
 70
     1
102
RTVSPost2010Prop57
140
1.0
102
RTVSPost2010PropOp57
 70
     1
102
RTVSPropertyOp0
 70
     1
102
RTVSPropertyOp1
 70
     1
102
RTVSPropertyOp2
 70
     1
102
RTVSPropertyOp3
 70
     1
102
RTVSPropertyOp4
 70
     1
102
RTVSPropertyOp5
 70
     1
102
RTVSPropertyOp6
 70
     1
102
RTVSPropertyOp7
 70
     1
102
RTVSPropertyOp8
 70
     1
102
RTVSPropertyOp9
 70
     1
102
RTVSPropertyOp10
 70
     1
102
RTVSPropertyOp11
 70
     1
102
RTVSPropertyOp12
 70
     1
102
RTVSPropertyOp13
 70
     1
102
RTVSPropertyOp14
 70
     1
102
RTVSPropertyOp15
 70
     1
102
RTVSPropertyOp16
 70
     1
102
RTVSPropertyOp17
 70
     1
102
RTVSPropertyOp18
 70
     1
102
RTVSPropertyOp19
 70
     1
102
RTVSPropertyOp20
 70
     1
102
RTVSPropertyOp21
 70
     1
102
RTVSPropertyOp22
 70
     1
102
RTVSPropertyOp23
 70
     1
102
RTVSPropertyOp24
 70
     1
102
RTVSPropertyOp25
 70
     1
102
RTVSPropertyOp26
 70
     1
102
RTVSPropertyOp27
 70
     1
102
RTVSPropertyOp28
 70
     1
102
RTVSPropertyOp29
 70
     1
102
RTVSPropertyOp30
 70
     1
102
RTVSPropertyOp31
 70
     1
102
RTVSPropertyOp32
 70
     1
102
RTVSPropertyOp33
 70
     1
102
RTVSPropertyOp34
 70
     1
102
RTVSPropertyOp35
 70
     1
102
RTVSPropertyOp36
 70
     1
102
RTVSPropertyOp37
 70
     1
102
RTVSPropertyOp38
 70
     1
102
RTVSPropertyOp39
 70
     1
102
RTVSPropertyOp40
 70
     1
102
RTVSPropertyOp41
 70
     1
102
RTVSPropertyOp42
 70
     1
102
RTVSPropertyOp43
 70
     1
102
RTVSPropertyOp44
 70
     1
102
RTVSPropertyOp45
 70
     1
102
RTVSPropertyOp46
 70
     1
102
RTVSPropertyOp47
 70
     1
102
RTVSPropertyOp48
 70
     1
102
RTVSPropertyOp49
 70
     1
102
RTVSPropertyOp50
 70
     1
102
RTVSPropertyOp51
 70
     0
102
RTVSPropertyOp52
 70
     0
102
RTVSPropertyOp53
 70
     1
102
RTVSPropertyOp54
 70
     1
102
RTVSPropertyOp55
 70
     1
102
RTVSPropertyOp56
 70
     1
102
RTVSPropertyOp57
 70
     1
102
RTVSPropertyOp58
 70
     1
102
RTVSPropertyOp59
 70
     1
102
RTVSPropertyOp60
 70
     1
102
RTVSPropertyOp61
 70
     1
102
RTVSPropertyOp62
 70
     1
  0
XRECORD
  5
2696
102
{ACAD_REACTORS
330
2695
102
}
330
2695
100
AcDbXrecord
280
     1
102
RTVSPost2010Prop28
280
     0
102
RTVSPost2010PropOp28
 70
     1
102
RTVSPost2010Prop29
280
     1
102
RTVSPost2010PropOp29
 70
     1
102
RTVSPost2010Prop30
280
     1
102
RTVSPost2010PropOp30
 70
     1
102
RTVSPost2010Prop31
280
     0
102
RTVSPost2010PropOp31
 70
     1
102
RTVSPost2010Prop32
280
     0
102
RTVSPost2010PropOp32
 70
     1
102
RTVSPost2010Prop33
280
     0
102
RTVSPost2010PropOp33
 70
     1
102
RTVSPost2010Prop34
280
     0
102
RTVSPost2010PropOp34
 70
     1
102
RTVSPost2010Prop35
280
     0
102
RTVSPost2010PropOp35
 70
     1
102
RTVSPost2010Prop36
280
     0
102
RTVSPost2010PropOp36
 70
     1
102
RTVSPost2010Prop37
 90
       50
102
RTVSPost2010PropOp37
 70
     1
102
RTVSPost2010Prop38
140
0.0
102
RTVSPost2010PropOp38
 70
     1
102
RTVSPost2010Prop39
140
1.0
102
RTVSPost2010PropOp39
 70
     1
102
RTVSPost2010Prop40
 90
        0
102
RTVSPost2010PropOp40
 70
     1
102
RTVSPost2010Prop41ColorIndex
 90
       18
102
RTVSPost2010Prop41ColorRGB
 90
        0
102
RTVSPost2010PropOp41
 70
     1
102
RTVSPost2010Prop42
 90
       50
102
RTVSPost2010PropOp42
 70
     1
102
RTVSPost2010Prop43
 90
        3
102
RTVSPost2010PropOp43
 70
     1
102
RTVSPost2010Prop44ColorIndex
 90
        5
102
RTVSPost2010Prop44ColorRGB
 90
      255
102
RTVSPost2010PropOp44
 70
     1
102
RTVSPost2010Prop45
280
     0
102
RTVSPost2010PropOp45
 70
     1
102
RTVSPost2010Prop46
 90
       50
102
RTVSPost2010PropOp46
 70
     1
102
RTVSPost2010Prop47
 90
       50
102
RTVSPost2010PropOp47
 70
     1
102
RTVSPost2010Prop48
 90
       50
102
RTVSPost2010PropOp48
 70
     1
102
RTVSPost2010Prop49
280
     0
102
RTVSPost2010PropOp49
 70
     1
102
RTVSPost2010Prop50
 90
       50
102
RTVSPost2010PropOp50
 70
     1
102
RTVSPost2010Prop51ColorIndex
 90
      256
102
RTVSPost2010Prop51ColorRGB
 90
-16777216
102
RTVSPost2010PropOp51
 70
     0
102
RTVSPost2010Prop52
140
1.0
102
RTVSPost2010PropOp52
 70
     0
102
RTVSPost2010Prop53
 90
        2
102
RTVSPost2010PropOp53
 70
     1
102
RTVSPost2010Prop54
  1
strokes_ogs.tif
102
RTVSPost2010PropOp54
 70
     1
102
RTVSPost2010Prop55
280
     0
102
RTVSPost2010PropOp55
 70
     1
102
RTVSPost2010Prop56
140
1.0
102
RTVSPost2010PropOp56
 70
     1
102
RTVSPost2010Prop57
140
1.0
102
RTVSPost2010PropOp57
 70
     1
102
RTVSPropertyOp0
 70
     1
102
RTVSPropertyOp1
 70
     1
102
RTVSPropertyOp2
 70
     1
102
RTVSPropertyOp3
 70
     1
102
RTVSPropertyOp4
 70
     1
102
RTVSPropertyOp5
 70
     1
102
RTVSPropertyOp6
 70
     1
102
RTVSPropertyOp7
 70
     1
102
RTVSPropertyOp8
 70
     1
102
RTVSPropertyOp9
 70
     1
102
RTVSPropertyOp10
 70
     1
102
RTVSPropertyOp11
 70
     1
102
RTVSPropertyOp12
 70
     1
102
RTVSPropertyOp13
 70
     1
102
RTVSPropertyOp14
 70
     1
102
RTVSPropertyOp15
 70
     1
102
RTVSPropertyOp16
 70
     1
102
RTVSPropertyOp17
 70
     1
102
RTVSPropertyOp18
 70
     1
102
RTVSPropertyOp19
 70
     1
102
RTVSPropertyOp20
 70
     1
102
RTVSPropertyOp21
 70
     1
102
RTVSPropertyOp22
 70
     1
102
RTVSPropertyOp23
 70
     1
102
RTVSPropertyOp24
 70
     1
102
RTVSPropertyOp25
 70
     1
102
RTVSPropertyOp26
 70
     1
102
RTVSPropertyOp27
 70
     1
102
RTVSPropertyOp28
 70
     1
102
RTVSPropertyOp29
 70
     1
102
RTVSPropertyOp30
 70
     1
102
RTVSPropertyOp31
 70
     1
102
RTVSPropertyOp32
 70
     1
102
RTVSPropertyOp33
 70
     1
102
RTVSPropertyOp34
 70
     1
102
RTVSPropertyOp35
 70
     1
102
RTVSPropertyOp36
 70
     1
102
RTVSPropertyOp37
 70
     1
102
RTVSPropertyOp38
 70
     1
102
RTVSPropertyOp39
 70
     1
102
RTVSPropertyOp40
 70
     1
102
RTVSPropertyOp41
 70
     1
102
RTVSPropertyOp42
 70
     1
102
RTVSPropertyOp43
 70
     1
102
RTVSPropertyOp44
 70
     1
102
RTVSPropertyOp45
 70
     1
102
RTVSPropertyOp46
 70
     1
102
RTVSPropertyOp47
 70
     1
102
RTVSPropertyOp48
 70
     1
102
RTVSPropertyOp49
 70
     1
102
RTVSPropertyOp50
 70
     1
102
RTVSPropertyOp51
 70
     0
102
RTVSPropertyOp52
 70
     0
102
RTVSPropertyOp53
 70
     1
102
RTVSPropertyOp54
 70
     1
102
RTVSPropertyOp55
 70
     1
102
RTVSPropertyOp56
 70
     1
102
RTVSPropertyOp57
 70
     1
102
RTVSPropertyOp58
 70
     1
102
RTVSPropertyOp59
 70
     1
102
RTVSPropertyOp60
 70
     1
102
RTVSPropertyOp61
 70
     1
102
RTVSPropertyOp62
 70
     1
  0
XRECORD
  5
2694
102
{ACAD_REACTORS
330
2693
102
}
330
2693
100
AcDbXrecord
280
     1
102
RTVSPost2010Prop28
280
     0
102
RTVSPost2010PropOp28
 70
     1
102
RTVSPost2010Prop29
280
     1
102
RTVSPost2010PropOp29
 70
     1
102
RTVSPost2010Prop30
280
     1
102
RTVSPost2010PropOp30
 70
     1
102
RTVSPost2010Prop31
280
     0
102
RTVSPost2010PropOp31
 70
     1
102
RTVSPost2010Prop32
280
     0
102
RTVSPost2010PropOp32
 70
     1
102
RTVSPost2010Prop33
280
     0
102
RTVSPost2010PropOp33
 70
     1
102
RTVSPost2010Prop34
280
     0
102
RTVSPost2010PropOp34
 70
     1
102
RTVSPost2010Prop35
280
     0
102
RTVSPost2010PropOp35
 70
     1
102
RTVSPost2010Prop36
280
     0
102
RTVSPost2010PropOp36
 70
     1
102
RTVSPost2010Prop37
 90
       50
102
RTVSPost2010PropOp37
 70
     1
102
RTVSPost2010Prop38
140
0.0
102
RTVSPost2010PropOp38
 70
     1
102
RTVSPost2010Prop39
140
1.0
102
RTVSPost2010PropOp39
 70
     1
102
RTVSPost2010Prop40
 90
        0
102
RTVSPost2010PropOp40
 70
     1
102
RTVSPost2010Prop41ColorIndex
 90
       18
102
RTVSPost2010Prop41ColorRGB
 90
        0
102
RTVSPost2010PropOp41
 70
     1
102
RTVSPost2010Prop42
 90
       50
102
RTVSPost2010PropOp42
 70
     1
102
RTVSPost2010Prop43
 90
        3
102
RTVSPost2010PropOp43
 70
     1
102
RTVSPost2010Prop44ColorIndex
 90
        5
102
RTVSPost2010Prop44ColorRGB
 90
      255
102
RTVSPost2010PropOp44
 70
     1
102
RTVSPost2010Prop45
280
     0
102
RTVSPost2010PropOp45
 70
     1
102
RTVSPost2010Prop46
 90
       50
102
RTVSPost2010PropOp46
 70
     1
102
RTVSPost2010Prop47
 90
       50
102
RTVSPost2010PropOp47
 70
     1
102
RTVSPost2010Prop48
 90
       50
102
RTVSPost2010PropOp48
 70
     1
102
RTVSPost2010Prop49
280
     0
102
RTVSPost2010PropOp49
 70
     1
102
RTVSPost2010Prop50
 90
       50
102
RTVSPost2010PropOp50
 70
     1
102
RTVSPost2010Prop51ColorIndex
 90
      256
102
RTVSPost2010Prop51ColorRGB
 90
-16777216
102
RTVSPost2010PropOp51
 70
     0
102
RTVSPost2010Prop52
140
1.0
102
RTVSPost2010PropOp52
 70
     0
102
RTVSPost2010Prop53
 90
        2
102
RTVSPost2010PropOp53
 70
     1
102
RTVSPost2010Prop54
  1
strokes_ogs.tif
102
RTVSPost2010PropOp54
 70
     1
102
RTVSPost2010Prop55
280
     0
102
RTVSPost2010PropOp55
 70
     1
102
RTVSPost2010Prop56
140
1.0
102
RTVSPost2010PropOp56
 70
     1
102
RTVSPost2010Prop57
140
1.0
102
RTVSPost2010PropOp57
 70
     1
102
RTVSPropertyOp0
 70
     1
102
RTVSPropertyOp1
 70
     1
102
RTVSPropertyOp2
 70
     1
102
RTVSPropertyOp3
 70
     1
102
RTVSPropertyOp4
 70
     1
102
RTVSPropertyOp5
 70
     1
102
RTVSPropertyOp6
 70
     1
102
RTVSPropertyOp7
 70
     1
102
RTVSPropertyOp8
 70
     1
102
RTVSPropertyOp9
 70
     1
102
RTVSPropertyOp10
 70
     1
102
RTVSPropertyOp11
 70
     1
102
RTVSPropertyOp12
 70
     1
102
RTVSPropertyOp13
 70
     1
102
RTVSPropertyOp14
 70
     1
102
RTVSPropertyOp15
 70
     1
102
RTVSPropertyOp16
 70
     1
102
RTVSPropertyOp17
 70
     1
102
RTVSPropertyOp18
 70
     1
102
RTVSPropertyOp19
 70
     1
102
RTVSPropertyOp20
 70
     1
102
RTVSPropertyOp21
 70
     1
102
RTVSPropertyOp22
 70
     1
102
RTVSPropertyOp23
 70
     1
102
RTVSPropertyOp24
 70
     1
102
RTVSPropertyOp25
 70
     1
102
RTVSPropertyOp26
 70
     1
102
RTVSPropertyOp27
 70
     1
102
RTVSPropertyOp28
 70
     1
102
RTVSPropertyOp29
 70
     1
102
RTVSPropertyOp30
 70
     1
102
RTVSPropertyOp31
 70
     1
102
RTVSPropertyOp32
 70
     1
102
RTVSPropertyOp33
 70
     1
102
RTVSPropertyOp34
 70
     1
102
RTVSPropertyOp35
 70
     1
102
RTVSPropertyOp36
 70
     1
102
RTVSPropertyOp37
 70
     1
102
RTVSPropertyOp38
 70
     1
102
RTVSPropertyOp39
 70
     1
102
RTVSPropertyOp40
 70
     1
102
RTVSPropertyOp41
 70
     1
102
RTVSPropertyOp42
 70
     1
102
RTVSPropertyOp43
 70
     1
102
RTVSPropertyOp44
 70
     1
102
RTVSPropertyOp45
 70
     1
102
RTVSPropertyOp46
 70
     1
102
RTVSPropertyOp47
 70
     1
102
RTVSPropertyOp48
 70
     1
102
RTVSPropertyOp49
 70
     1
102
RTVSPropertyOp50
 70
     1
102
RTVSPropertyOp51
 70
     0
102
RTVSPropertyOp52
 70
     0
102
RTVSPropertyOp53
 70
     1
102
RTVSPropertyOp54
 70
     1
102
RTVSPropertyOp55
 70
     1
102
RTVSPropertyOp56
 70
     1
102
RTVSPropertyOp57
 70
     1
102
RTVSPropertyOp58
 70
     1
102
RTVSPropertyOp59
 70
     1
102
RTVSPropertyOp60
 70
     1
102
RTVSPropertyOp61
 70
     1
102
RTVSPropertyOp62
 70
     1
  0
XRECORD
  5
2690
102
{ACAD_REACTORS
330
268F
102
}
330
268F
100
AcDbXrecord
280
     1
102
RTVSPost2010Prop28
280
     0
102
RTVSPost2010PropOp28
 70
     1
102
RTVSPost2010Prop29
280
     1
102
RTVSPost2010PropOp29
 70
     1
102
RTVSPost2010Prop30
280
     1
102
RTVSPost2010PropOp30
 70
     1
102
RTVSPost2010Prop31
280
     0
102
RTVSPost2010PropOp31
 70
     1
102
RTVSPost2010Prop32
280
     0
102
RTVSPost2010PropOp32
 70
     1
102
RTVSPost2010Prop33
280
     0
102
RTVSPost2010PropOp33
 70
     1
102
RTVSPost2010Prop34
280
     0
102
RTVSPost2010PropOp34
 70
     1
102
RTVSPost2010Prop35
280
     0
102
RTVSPost2010PropOp35
 70
     1
102
RTVSPost2010Prop36
280
     0
102
RTVSPost2010PropOp36
 70
     1
102
RTVSPost2010Prop37
 90
       50
102
RTVSPost2010PropOp37
 70
     1
102
RTVSPost2010Prop38
140
0.0
102
RTVSPost2010PropOp38
 70
     1
102
RTVSPost2010Prop39
140
1.0
102
RTVSPost2010PropOp39
 70
     1
102
RTVSPost2010Prop40
 90
        0
102
RTVSPost2010PropOp40
 70
     1
102
RTVSPost2010Prop41ColorIndex
 90
       18
102
RTVSPost2010Prop41ColorRGB
 90
        0
102
RTVSPost2010PropOp41
 70
     1
102
RTVSPost2010Prop42
 90
       50
102
RTVSPost2010PropOp42
 70
     1
102
RTVSPost2010Prop43
 90
        3
102
RTVSPost2010PropOp43
 70
     1
102
RTVSPost2010Prop44ColorIndex
 90
        5
102
RTVSPost2010Prop44ColorRGB
 90
      255
102
RTVSPost2010PropOp44
 70
     1
102
RTVSPost2010Prop45
280
     0
102
RTVSPost2010PropOp45
 70
     1
102
RTVSPost2010Prop46
 90
       50
102
RTVSPost2010PropOp46
 70
     1
102
RTVSPost2010Prop47
 90
       50
102
RTVSPost2010PropOp47
 70
     1
102
RTVSPost2010Prop48
 90
       50
102
RTVSPost2010PropOp48
 70
     1
102
RTVSPost2010Prop49
280
     0
102
RTVSPost2010PropOp49
 70
     1
102
RTVSPost2010Prop50
 90
       50
102
RTVSPost2010PropOp50
 70
     1
102
RTVSPost2010Prop51ColorIndex
 90
      256
102
RTVSPost2010Prop51ColorRGB
 90
-16777216
102
RTVSPost2010PropOp51
 70
     0
102
RTVSPost2010Prop52
140
1.0
102
RTVSPost2010PropOp52
 70
     0
102
RTVSPost2010Prop53
 90
        2
102
RTVSPost2010PropOp53
 70
     1
102
RTVSPost2010Prop54
  1
strokes_ogs.tif
102
RTVSPost2010PropOp54
 70
     1
102
RTVSPost2010Prop55
280
     0
102
RTVSPost2010PropOp55
 70
     1
102
RTVSPost2010Prop56
140
1.0
102
RTVSPost2010PropOp56
 70
     1
102
RTVSPost2010Prop57
140
1.0
102
RTVSPost2010PropOp57
 70
     1
102
RTVSPropertyOp0
 70
     1
102
RTVSPropertyOp1
 70
     1
102
RTVSPropertyOp2
 70
     1
102
RTVSPropertyOp3
 70
     1
102
RTVSPropertyOp4
 70
     1
102
RTVSPropertyOp5
 70
     1
102
RTVSPropertyOp6
 70
     1
102
RTVSPropertyOp7
 70
     1
102
RTVSPropertyOp8
 70
     1
102
RTVSPropertyOp9
 70
     1
102
RTVSPropertyOp10
 70
     1
102
RTVSPropertyOp11
 70
     1
102
RTVSPropertyOp12
 70
     1
102
RTVSPropertyOp13
 70
     1
102
RTVSPropertyOp14
 70
     1
102
RTVSPropertyOp15
 70
     1
102
RTVSPropertyOp16
 70
     1
102
RTVSPropertyOp17
 70
     1
102
RTVSPropertyOp18
 70
     1
102
RTVSPropertyOp19
 70
     1
102
RTVSPropertyOp20
 70
     1
102
RTVSPropertyOp21
 70
     1
102
RTVSPropertyOp22
 70
     1
102
RTVSPropertyOp23
 70
     1
102
RTVSPropertyOp24
 70
     1
102
RTVSPropertyOp25
 70
     1
102
RTVSPropertyOp26
 70
     1
102
RTVSPropertyOp27
 70
     1
102
RTVSPropertyOp28
 70
     1
102
RTVSPropertyOp29
 70
     1
102
RTVSPropertyOp30
 70
     1
102
RTVSPropertyOp31
 70
     1
102
RTVSPropertyOp32
 70
     1
102
RTVSPropertyOp33
 70
     1
102
RTVSPropertyOp34
 70
     1
102
RTVSPropertyOp35
 70
     1
102
RTVSPropertyOp36
 70
     1
102
RTVSPropertyOp37
 70
     1
102
RTVSPropertyOp38
 70
     1
102
RTVSPropertyOp39
 70
     1
102
RTVSPropertyOp40
 70
     1
102
RTVSPropertyOp41
 70
     1
102
RTVSPropertyOp42
 70
     1
102
RTVSPropertyOp43
 70
     1
102
RTVSPropertyOp44
 70
     1
102
RTVSPropertyOp45
 70
     1
102
RTVSPropertyOp46
 70
     1
102
RTVSPropertyOp47
 70
     1
102
RTVSPropertyOp48
 70
     1
102
RTVSPropertyOp49
 70
     1
102
RTVSPropertyOp50
 70
     1
102
RTVSPropertyOp51
 70
     0
102
RTVSPropertyOp52
 70
     0
102
RTVSPropertyOp53
 70
     1
102
RTVSPropertyOp54
 70
     1
102
RTVSPropertyOp55
 70
     1
102
RTVSPropertyOp56
 70
     1
102
RTVSPropertyOp57
 70
     1
102
RTVSPropertyOp58
 70
     1
102
RTVSPropertyOp59
 70
     1
102
RTVSPropertyOp60
 70
     1
102
RTVSPropertyOp61
 70
     1
102
RTVSPropertyOp62
 70
     1
  0
XRECORD
  5
269E
102
{ACAD_REACTORS
330
269D
102
}
330
269D
100
AcDbXrecord
280
     1
102
RTVSPost2010Prop28
280
     0
102
RTVSPost2010PropOp28
 70
     1
102
RTVSPost2010Prop29
280
     1
102
RTVSPost2010PropOp29
 70
     1
102
RTVSPost2010Prop30
280
     1
102
RTVSPost2010PropOp30
 70
     1
102
RTVSPost2010Prop31
280
     0
102
RTVSPost2010PropOp31
 70
     1
102
RTVSPost2010Prop32
280
     0
102
RTVSPost2010PropOp32
 70
     1
102
RTVSPost2010Prop33
280
     0
102
RTVSPost2010PropOp33
 70
     1
102
RTVSPost2010Prop34
280
     0
102
RTVSPost2010PropOp34
 70
     1
102
RTVSPost2010Prop35
280
     0
102
RTVSPost2010PropOp35
 70
     1
102
RTVSPost2010Prop36
280
     0
102
RTVSPost2010PropOp36
 70
     1
102
RTVSPost2010Prop37
 90
       50
102
RTVSPost2010PropOp37
 70
     1
102
RTVSPost2010Prop38
140
0.0
102
RTVSPost2010PropOp38
 70
     1
102
RTVSPost2010Prop39
140
1.0
102
RTVSPost2010PropOp39
 70
     1
102
RTVSPost2010Prop40
 90
        0
102
RTVSPost2010PropOp40
 70
     1
102
RTVSPost2010Prop41ColorIndex
 90
       18
102
RTVSPost2010Prop41ColorRGB
 90
        0
102
RTVSPost2010PropOp41
 70
     1
102
RTVSPost2010Prop42
 90
       50
102
RTVSPost2010PropOp42
 70
     1
102
RTVSPost2010Prop43
 90
        3
102
RTVSPost2010PropOp43
 70
     1
102
RTVSPost2010Prop44ColorIndex
 90
        5
102
RTVSPost2010Prop44ColorRGB
 90
      255
102
RTVSPost2010PropOp44
 70
     1
102
RTVSPost2010Prop45
280
     0
102
RTVSPost2010PropOp45
 70
     1
102
RTVSPost2010Prop46
 90
       50
102
RTVSPost2010PropOp46
 70
     1
102
RTVSPost2010Prop47
 90
       50
102
RTVSPost2010PropOp47
 70
     1
102
RTVSPost2010Prop48
 90
       50
102
RTVSPost2010PropOp48
 70
     1
102
RTVSPost2010Prop49
280
     0
102
RTVSPost2010PropOp49
 70
     1
102
RTVSPost2010Prop50
 90
       50
102
RTVSPost2010PropOp50
 70
     1
102
RTVSPost2010Prop51ColorIndex
 90
      256
102
RTVSPost2010Prop51ColorRGB
 90
-16777216
102
RTVSPost2010PropOp51
 70
     0
102
RTVSPost2010Prop52
140
1.0
102
RTVSPost2010PropOp52
 70
     0
102
RTVSPost2010Prop53
 90
        2
102
RTVSPost2010PropOp53
 70
     1
102
RTVSPost2010Prop54
  1
strokes_ogs.tif
102
RTVSPost2010PropOp54
 70
     1
102
RTVSPost2010Prop55
280
     0
102
RTVSPost2010PropOp55
 70
     1
102
RTVSPost2010Prop56
140
1.0
102
RTVSPost2010PropOp56
 70
     1
102
RTVSPost2010Prop57
140
1.0
102
RTVSPost2010PropOp57
 70
     1
102
RTVSPropertyOp0
 70
     1
102
RTVSPropertyOp1
 70
     1
102
RTVSPropertyOp2
 70
     1
102
RTVSPropertyOp3
 70
     1
102
RTVSPropertyOp4
 70
     1
102
RTVSPropertyOp5
 70
     1
102
RTVSPropertyOp6
 70
     1
102
RTVSPropertyOp7
 70
     1
102
RTVSPropertyOp8
 70
     1
102
RTVSPropertyOp9
 70
     1
102
RTVSPropertyOp10
 70
     1
102
RTVSPropertyOp11
 70
     1
102
RTVSPropertyOp12
 70
     1
102
RTVSPropertyOp13
 70
     1
102
RTVSPropertyOp14
 70
     1
102
RTVSPropertyOp15
 70
     1
102
RTVSPropertyOp16
 70
     1
102
RTVSPropertyOp17
 70
     1
102
RTVSPropertyOp18
 70
     1
102
RTVSPropertyOp19
 70
     1
102
RTVSPropertyOp20
 70
     1
102
RTVSPropertyOp21
 70
     1
102
RTVSPropertyOp22
 70
     1
102
RTVSPropertyOp23
 70
     1
102
RTVSPropertyOp24
 70
     1
102
RTVSPropertyOp25
 70
     1
102
RTVSPropertyOp26
 70
     1
102
RTVSPropertyOp27
 70
     1
102
RTVSPropertyOp28
 70
     1
102
RTVSPropertyOp29
 70
     1
102
RTVSPropertyOp30
 70
     1
102
RTVSPropertyOp31
 70
     1
102
RTVSPropertyOp32
 70
     1
102
RTVSPropertyOp33
 70
     1
102
RTVSPropertyOp34
 70
     1
102
RTVSPropertyOp35
 70
     1
102
RTVSPropertyOp36
 70
     1
102
RTVSPropertyOp37
 70
     1
102
RTVSPropertyOp38
 70
     1
102
RTVSPropertyOp39
 70
     1
102
RTVSPropertyOp40
 70
     1
102
RTVSPropertyOp41
 70
     1
102
RTVSPropertyOp42
 70
     1
102
RTVSPropertyOp43
 70
     1
102
RTVSPropertyOp44
 70
     1
102
RTVSPropertyOp45
 70
     1
102
RTVSPropertyOp46
 70
     1
102
RTVSPropertyOp47
 70
     1
102
RTVSPropertyOp48
 70
     1
102
RTVSPropertyOp49
 70
     1
102
RTVSPropertyOp50
 70
     1
102
RTVSPropertyOp51
 70
     0
102
RTVSPropertyOp52
 70
     0
102
RTVSPropertyOp53
 70
     1
102
RTVSPropertyOp54
 70
     1
102
RTVSPropertyOp55
 70
     1
102
RTVSPropertyOp56
 70
     1
102
RTVSPropertyOp57
 70
     1
102
RTVSPropertyOp58
 70
     1
102
RTVSPropertyOp59
 70
     1
102
RTVSPropertyOp60
 70
     1
102
RTVSPropertyOp61
 70
     1
102
RTVSPropertyOp62
 70
     1
  0
XRECORD
  5
26A6
102
{ACAD_REACTORS
330
26A5
102
}
330
26A5
100
AcDbXrecord
280
     1
102
RTVSPost2010Prop28
280
     0
102
RTVSPost2010PropOp28
 70
     1
102
RTVSPost2010Prop29
280
     1
102
RTVSPost2010PropOp29
 70
     1
102
RTVSPost2010Prop30
280
     1
102
RTVSPost2010PropOp30
 70
     1
102
RTVSPost2010Prop31
280
     0
102
RTVSPost2010PropOp31
 70
     1
102
RTVSPost2010Prop32
280
     0
102
RTVSPost2010PropOp32
 70
     1
102
RTVSPost2010Prop33
280
     0
102
RTVSPost2010PropOp33
 70
     1
102
RTVSPost2010Prop34
280
     0
102
RTVSPost2010PropOp34
 70
     1
102
RTVSPost2010Prop35
280
     0
102
RTVSPost2010PropOp35
 70
     1
102
RTVSPost2010Prop36
280
     0
102
RTVSPost2010PropOp36
 70
     1
102
RTVSPost2010Prop37
 90
       50
102
RTVSPost2010PropOp37
 70
     1
102
RTVSPost2010Prop38
140
0.0
102
RTVSPost2010PropOp38
 70
     1
102
RTVSPost2010Prop39
140
1.0
102
RTVSPost2010PropOp39
 70
     1
102
RTVSPost2010Prop40
 90
        0
102
RTVSPost2010PropOp40
 70
     1
102
RTVSPost2010Prop41ColorIndex
 90
       18
102
RTVSPost2010Prop41ColorRGB
 90
        0
102
RTVSPost2010PropOp41
 70
     1
102
RTVSPost2010Prop42
 90
       50
102
RTVSPost2010PropOp42
 70
     1
102
RTVSPost2010Prop43
 90
        3
102
RTVSPost2010PropOp43
 70
     1
102
RTVSPost2010Prop44ColorIndex
 90
        5
102
RTVSPost2010Prop44ColorRGB
 90
      255
102
RTVSPost2010PropOp44
 70
     1
102
RTVSPost2010Prop45
280
     0
102
RTVSPost2010PropOp45
 70
     1
102
RTVSPost2010Prop46
 90
       50
102
RTVSPost2010PropOp46
 70
     1
102
RTVSPost2010Prop47
 90
       50
102
RTVSPost2010PropOp47
 70
     1
102
RTVSPost2010Prop48
 90
       50
102
RTVSPost2010PropOp48
 70
     1
102
RTVSPost2010Prop49
280
     0
102
RTVSPost2010PropOp49
 70
     1
102
RTVSPost2010Prop50
 90
       50
102
RTVSPost2010PropOp50
 70
     1
102
RTVSPost2010Prop51ColorIndex
 90
      256
102
RTVSPost2010Prop51ColorRGB
 90
-16777216
102
RTVSPost2010PropOp51
 70
     0
102
RTVSPost2010Prop52
140
1.0
102
RTVSPost2010PropOp52
 70
     0
102
RTVSPost2010Prop53
 90
        2
102
RTVSPost2010PropOp53
 70
     1
102
RTVSPost2010Prop54
  1
strokes_ogs.tif
102
RTVSPost2010PropOp54
 70
     1
102
RTVSPost2010Prop55
280
     0
102
RTVSPost2010PropOp55
 70
     1
102
RTVSPost2010Prop56
140
1.0
102
RTVSPost2010PropOp56
 70
     1
102
RTVSPost2010Prop57
140
1.0
102
RTVSPost2010PropOp57
 70
     1
102
RTVSPropertyOp0
 70
     1
102
RTVSPropertyOp1
 70
     1
102
RTVSPropertyOp2
 70
     1
102
RTVSPropertyOp3
 70
     1
102
RTVSPropertyOp4
 70
     1
102
RTVSPropertyOp5
 70
     1
102
RTVSPropertyOp6
 70
     1
102
RTVSPropertyOp7
 70
     1
102
RTVSPropertyOp8
 70
     1
102
RTVSPropertyOp9
 70
     1
102
RTVSPropertyOp10
 70
     1
102
RTVSPropertyOp11
 70
     1
102
RTVSPropertyOp12
 70
     1
102
RTVSPropertyOp13
 70
     1
102
RTVSPropertyOp14
 70
     1
102
RTVSPropertyOp15
 70
     1
102
RTVSPropertyOp16
 70
     1
102
RTVSPropertyOp17
 70
     1
102
RTVSPropertyOp18
 70
     1
102
RTVSPropertyOp19
 70
     1
102
RTVSPropertyOp20
 70
     1
102
RTVSPropertyOp21
 70
     1
102
RTVSPropertyOp22
 70
     1
102
RTVSPropertyOp23
 70
     1
102
RTVSPropertyOp24
 70
     1
102
RTVSPropertyOp25
 70
     1
102
RTVSPropertyOp26
 70
     1
102
RTVSPropertyOp27
 70
     1
102
RTVSPropertyOp28
 70
     1
102
RTVSPropertyOp29
 70
     1
102
RTVSPropertyOp30
 70
     1
102
RTVSPropertyOp31
 70
     1
102
RTVSPropertyOp32
 70
     1
102
RTVSPropertyOp33
 70
     1
102
RTVSPropertyOp34
 70
     1
102
RTVSPropertyOp35
 70
     1
102
RTVSPropertyOp36
 70
     1
102
RTVSPropertyOp37
 70
     1
102
RTVSPropertyOp38
 70
     1
102
RTVSPropertyOp39
 70
     1
102
RTVSPropertyOp40
 70
     1
102
RTVSPropertyOp41
 70
     1
102
RTVSPropertyOp42
 70
     1
102
RTVSPropertyOp43
 70
     1
102
RTVSPropertyOp44
 70
     1
102
RTVSPropertyOp45
 70
     1
102
RTVSPropertyOp46
 70
     1
102
RTVSPropertyOp47
 70
     1
102
RTVSPropertyOp48
 70
     1
102
RTVSPropertyOp49
 70
     1
102
RTVSPropertyOp50
 70
     1
102
RTVSPropertyOp51
 70
     0
102
RTVSPropertyOp52
 70
     0
102
RTVSPropertyOp53
 70
     1
102
RTVSPropertyOp54
 70
     1
102
RTVSPropertyOp55
 70
     1
102
RTVSPropertyOp56
 70
     1
102
RTVSPropertyOp57
 70
     1
102
RTVSPropertyOp58
 70
     1
102
RTVSPropertyOp59
 70
     1
102
RTVSPropertyOp60
 70
     1
102
RTVSPropertyOp61
 70
     1
102
RTVSPropertyOp62
 70
     1
  0
XRECORD
  5
2698
102
{ACAD_REACTORS
330
2697
102
}
330
2697
100
AcDbXrecord
280
     1
102
RTVSPost2010Prop28
280
     0
102
RTVSPost2010PropOp28
 70
     1
102
RTVSPost2010Prop29
280
     1
102
RTVSPost2010PropOp29
 70
     1
102
RTVSPost2010Prop30
280
     1
102
RTVSPost2010PropOp30
 70
     1
102
RTVSPost2010Prop31
280
     0
102
RTVSPost2010PropOp31
 70
     1
102
RTVSPost2010Prop32
280
     0
102
RTVSPost2010PropOp32
 70
     1
102
RTVSPost2010Prop33
280
     0
102
RTVSPost2010PropOp33
 70
     1
102
RTVSPost2010Prop34
280
     0
102
RTVSPost2010PropOp34
 70
     1
102
RTVSPost2010Prop35
280
     0
102
RTVSPost2010PropOp35
 70
     1
102
RTVSPost2010Prop36
280
     0
102
RTVSPost2010PropOp36
 70
     1
102
RTVSPost2010Prop37
 90
       50
102
RTVSPost2010PropOp37
 70
     1
102
RTVSPost2010Prop38
140
0.0
102
RTVSPost2010PropOp38
 70
     1
102
RTVSPost2010Prop39
140
1.0
102
RTVSPost2010PropOp39
 70
     1
102
RTVSPost2010Prop40
 90
        0
102
RTVSPost2010PropOp40
 70
     1
102
RTVSPost2010Prop41ColorIndex
 90
       18
102
RTVSPost2010Prop41ColorRGB
 90
        0
102
RTVSPost2010PropOp41
 70
     1
102
RTVSPost2010Prop42
 90
       50
102
RTVSPost2010PropOp42
 70
     1
102
RTVSPost2010Prop43
 90
        3
102
RTVSPost2010PropOp43
 70
     1
102
RTVSPost2010Prop44ColorIndex
 90
        5
102
RTVSPost2010Prop44ColorRGB
 90
      255
102
RTVSPost2010PropOp44
 70
     1
102
RTVSPost2010Prop45
280
     0
102
RTVSPost2010PropOp45
 70
     1
102
RTVSPost2010Prop46
 90
       50
102
RTVSPost2010PropOp46
 70
     1
102
RTVSPost2010Prop47
 90
       50
102
RTVSPost2010PropOp47
 70
     1
102
RTVSPost2010Prop48
 90
       50
102
RTVSPost2010PropOp48
 70
     1
102
RTVSPost2010Prop49
280
     0
102
RTVSPost2010PropOp49
 70
     1
102
RTVSPost2010Prop50
 90
       50
102
RTVSPost2010PropOp50
 70
     1
102
RTVSPost2010Prop51ColorIndex
 90
      256
102
RTVSPost2010Prop51ColorRGB
 90
-16777216
102
RTVSPost2010PropOp51
 70
     0
102
RTVSPost2010Prop52
140
1.0
102
RTVSPost2010PropOp52
 70
     0
102
RTVSPost2010Prop53
 90
        2
102
RTVSPost2010PropOp53
 70
     1
102
RTVSPost2010Prop54
  1
strokes_ogs.tif
102
RTVSPost2010PropOp54
 70
     1
102
RTVSPost2010Prop55
280
     0
102
RTVSPost2010PropOp55
 70
     1
102
RTVSPost2010Prop56
140
1.0
102
RTVSPost2010PropOp56
 70
     1
102
RTVSPost2010Prop57
140
1.0
102
RTVSPost2010PropOp57
 70
     1
102
RTVSPropertyOp0
 70
     1
102
RTVSPropertyOp1
 70
     1
102
RTVSPropertyOp2
 70
     1
102
RTVSPropertyOp3
 70
     1
102
RTVSPropertyOp4
 70
     1
102
RTVSPropertyOp5
 70
     1
102
RTVSPropertyOp6
 70
     1
102
RTVSPropertyOp7
 70
     1
102
RTVSPropertyOp8
 70
     1
102
RTVSPropertyOp9
 70
     1
102
RTVSPropertyOp10
 70
     1
102
RTVSPropertyOp11
 70
     1
102
RTVSPropertyOp12
 70
     1
102
RTVSPropertyOp13
 70
     1
102
RTVSPropertyOp14
 70
     1
102
RTVSPropertyOp15
 70
     1
102
RTVSPropertyOp16
 70
     1
102
RTVSPropertyOp17
 70
     1
102
RTVSPropertyOp18
 70
     1
102
RTVSPropertyOp19
 70
     1
102
RTVSPropertyOp20
 70
     1
102
RTVSPropertyOp21
 70
     1
102
RTVSPropertyOp22
 70
     1
102
RTVSPropertyOp23
 70
     1
102
RTVSPropertyOp24
 70
     1
102
RTVSPropertyOp25
 70
     1
102
RTVSPropertyOp26
 70
     1
102
RTVSPropertyOp27
 70
     1
102
RTVSPropertyOp28
 70
     1
102
RTVSPropertyOp29
 70
     1
102
RTVSPropertyOp30
 70
     1
102
RTVSPropertyOp31
 70
     1
102
RTVSPropertyOp32
 70
     1
102
RTVSPropertyOp33
 70
     1
102
RTVSPropertyOp34
 70
     1
102
RTVSPropertyOp35
 70
     1
102
RTVSPropertyOp36
 70
     1
102
RTVSPropertyOp37
 70
     1
102
RTVSPropertyOp38
 70
     1
102
RTVSPropertyOp39
 70
     1
102
RTVSPropertyOp40
 70
     1
102
RTVSPropertyOp41
 70
     1
102
RTVSPropertyOp42
 70
     1
102
RTVSPropertyOp43
 70
     1
102
RTVSPropertyOp44
 70
     1
102
RTVSPropertyOp45
 70
     1
102
RTVSPropertyOp46
 70
     1
102
RTVSPropertyOp47
 70
     1
102
RTVSPropertyOp48
 70
     1
102
RTVSPropertyOp49
 70
     1
102
RTVSPropertyOp50
 70
     1
102
RTVSPropertyOp51
 70
     0
102
RTVSPropertyOp52
 70
     0
102
RTVSPropertyOp53
 70
     1
102
RTVSPropertyOp54
 70
     1
102
RTVSPropertyOp55
 70
     1
102
RTVSPropertyOp56
 70
     1
102
RTVSPropertyOp57
 70
     1
102
RTVSPropertyOp58
 70
     1
102
RTVSPropertyOp59
 70
     1
102
RTVSPropertyOp60
 70
     1
102
RTVSPropertyOp61
 70
     1
102
RTVSPropertyOp62
 70
     1
  0
XRECORD
  5
269C
102
{ACAD_REACTORS
330
269B
102
}
330
269B
100
AcDbXrecord
280
     1
102
RTVSPost2010Prop28
280
     0
102
RTVSPost2010PropOp28
 70
     1
102
RTVSPost2010Prop29
280
     1
102
RTVSPost2010PropOp29
 70
     1
102
RTVSPost2010Prop30
280
     1
102
RTVSPost2010PropOp30
 70
     1
102
RTVSPost2010Prop31
280
     0
102
RTVSPost2010PropOp31
 70
     1
102
RTVSPost2010Prop32
280
     0
102
RTVSPost2010PropOp32
 70
     1
102
RTVSPost2010Prop33
280
     0
102
RTVSPost2010PropOp33
 70
     1
102
RTVSPost2010Prop34
280
     0
102
RTVSPost2010PropOp34
 70
     1
102
RTVSPost2010Prop35
280
     0
102
RTVSPost2010PropOp35
 70
     1
102
RTVSPost2010Prop36
280
     0
102
RTVSPost2010PropOp36
 70
     1
102
RTVSPost2010Prop37
 90
       50
102
RTVSPost2010PropOp37
 70
     1
102
RTVSPost2010Prop38
140
0.0
102
RTVSPost2010PropOp38
 70
     1
102
RTVSPost2010Prop39
140
1.0
102
RTVSPost2010PropOp39
 70
     1
102
RTVSPost2010Prop40
 90
        0
102
RTVSPost2010PropOp40
 70
     1
102
RTVSPost2010Prop41ColorIndex
 90
       18
102
RTVSPost2010Prop41ColorRGB
 90
        0
102
RTVSPost2010PropOp41
 70
     1
102
RTVSPost2010Prop42
 90
       50
102
RTVSPost2010PropOp42
 70
     1
102
RTVSPost2010Prop43
 90
        3
102
RTVSPost2010PropOp43
 70
     1
102
RTVSPost2010Prop44ColorIndex
 90
        5
102
RTVSPost2010Prop44ColorRGB
 90
      255
102
RTVSPost2010PropOp44
 70
     1
102
RTVSPost2010Prop45
280
     0
102
RTVSPost2010PropOp45
 70
     1
102
RTVSPost2010Prop46
 90
       50
102
RTVSPost2010PropOp46
 70
     1
102
RTVSPost2010Prop47
 90
       50
102
RTVSPost2010PropOp47
 70
     1
102
RTVSPost2010Prop48
 90
       50
102
RTVSPost2010PropOp48
 70
     1
102
RTVSPost2010Prop49
280
     0
102
RTVSPost2010PropOp49
 70
     1
102
RTVSPost2010Prop50
 90
       50
102
RTVSPost2010PropOp50
 70
     1
102
RTVSPost2010Prop51ColorIndex
 90
      256
102
RTVSPost2010Prop51ColorRGB
 90
-16777216
102
RTVSPost2010PropOp51
 70
     0
102
RTVSPost2010Prop52
140
1.0
102
RTVSPost2010PropOp52
 70
     0
102
RTVSPost2010Prop53
 90
        2
102
RTVSPost2010PropOp53
 70
     1
102
RTVSPost2010Prop54
  1
strokes_ogs.tif
102
RTVSPost2010PropOp54
 70
     1
102
RTVSPost2010Prop55
280
     0
102
RTVSPost2010PropOp55
 70
     1
102
RTVSPost2010Prop56
140
1.0
102
RTVSPost2010PropOp56
 70
     1
102
RTVSPost2010Prop57
140
1.0
102
RTVSPost2010PropOp57
 70
     1
102
RTVSPropertyOp0
 70
     1
102
RTVSPropertyOp1
 70
     1
102
RTVSPropertyOp2
 70
     1
102
RTVSPropertyOp3
 70
     1
102
RTVSPropertyOp4
 70
     1
102
RTVSPropertyOp5
 70
     1
102
RTVSPropertyOp6
 70
     1
102
RTVSPropertyOp7
 70
     1
102
RTVSPropertyOp8
 70
     1
102
RTVSPropertyOp9
 70
     1
102
RTVSPropertyOp10
 70
     1
102
RTVSPropertyOp11
 70
     1
102
RTVSPropertyOp12
 70
     1
102
RTVSPropertyOp13
 70
     1
102
RTVSPropertyOp14
 70
     1
102
RTVSPropertyOp15
 70
     1
102
RTVSPropertyOp16
 70
     1
102
RTVSPropertyOp17
 70
     1
102
RTVSPropertyOp18
 70
     1
102
RTVSPropertyOp19
 70
     1
102
RTVSPropertyOp20
 70
     1
102
RTVSPropertyOp21
 70
     1
102
RTVSPropertyOp22
 70
     1
102
RTVSPropertyOp23
 70
     1
102
RTVSPropertyOp24
 70
     1
102
RTVSPropertyOp25
 70
     1
102
RTVSPropertyOp26
 70
     1
102
RTVSPropertyOp27
 70
     1
102
RTVSPropertyOp28
 70
     1
102
RTVSPropertyOp29
 70
     1
102
RTVSPropertyOp30
 70
     1
102
RTVSPropertyOp31
 70
     1
102
RTVSPropertyOp32
 70
     1
102
RTVSPropertyOp33
 70
     1
102
RTVSPropertyOp34
 70
     1
102
RTVSPropertyOp35
 70
     1
102
RTVSPropertyOp36
 70
     1
102
RTVSPropertyOp37
 70
     1
102
RTVSPropertyOp38
 70
     1
102
RTVSPropertyOp39
 70
     1
102
RTVSPropertyOp40
 70
     1
102
RTVSPropertyOp41
 70
     1
102
RTVSPropertyOp42
 70
     1
102
RTVSPropertyOp43
 70
     1
102
RTVSPropertyOp44
 70
     1
102
RTVSPropertyOp45
 70
     1
102
RTVSPropertyOp46
 70
     1
102
RTVSPropertyOp47
 70
     1
102
RTVSPropertyOp48
 70
     1
102
RTVSPropertyOp49
 70
     1
102
RTVSPropertyOp50
 70
     1
102
RTVSPropertyOp51
 70
     0
102
RTVSPropertyOp52
 70
     0
102
RTVSPropertyOp53
 70
     1
102
RTVSPropertyOp54
 70
     1
102
RTVSPropertyOp55
 70
     1
102
RTVSPropertyOp56
 70
     1
102
RTVSPropertyOp57
 70
     1
102
RTVSPropertyOp58
 70
     1
102
RTVSPropertyOp59
 70
     1
102
RTVSPropertyOp60
 70
     1
102
RTVSPropertyOp61
 70
     1
102
RTVSPropertyOp62
 70
     1
  0
XRECORD
  5
26B6
102
{ACAD_REACTORS
330
26B5
102
}
330
26B5
100
AcDbXrecord
280
     1
102
RTVSPost2010Prop28
280
     0
102
RTVSPost2010PropOp28
 70
     1
102
RTVSPost2010Prop29
280
     1
102
RTVSPost2010PropOp29
 70
     1
102
RTVSPost2010Prop30
280
     1
102
RTVSPost2010PropOp30
 70
     1
102
RTVSPost2010Prop31
280
     0
102
RTVSPost2010PropOp31
 70
     1
102
RTVSPost2010Prop32
280
     0
102
RTVSPost2010PropOp32
 70
     1
102
RTVSPost2010Prop33
280
     0
102
RTVSPost2010PropOp33
 70
     1
102
RTVSPost2010Prop34
280
     0
102
RTVSPost2010PropOp34
 70
     1
102
RTVSPost2010Prop35
280
     0
102
RTVSPost2010PropOp35
 70
     1
102
RTVSPost2010Prop36
280
     0
102
RTVSPost2010PropOp36
 70
     1
102
RTVSPost2010Prop37
 90
       50
102
RTVSPost2010PropOp37
 70
     1
102
RTVSPost2010Prop38
140
0.0
102
RTVSPost2010PropOp38
 70
     1
102
RTVSPost2010Prop39
140
1.0
102
RTVSPost2010PropOp39
 70
     1
102
RTVSPost2010Prop40
 90
        0
102
RTVSPost2010PropOp40
 70
     1
102
RTVSPost2010Prop41ColorIndex
 90
       18
102
RTVSPost2010Prop41ColorRGB
 90
        0
102
RTVSPost2010PropOp41
 70
     1
102
RTVSPost2010Prop42
 90
       50
102
RTVSPost2010PropOp42
 70
     1
102
RTVSPost2010Prop43
 90
        3
102
RTVSPost2010PropOp43
 70
     1
102
RTVSPost2010Prop44ColorIndex
 90
        5
102
RTVSPost2010Prop44ColorRGB
 90
      255
102
RTVSPost2010PropOp44
 70
     1
102
RTVSPost2010Prop45
280
     0
102
RTVSPost2010PropOp45
 70
     1
102
RTVSPost2010Prop46
 90
       50
102
RTVSPost2010PropOp46
 70
     1
102
RTVSPost2010Prop47
 90
       50
102
RTVSPost2010PropOp47
 70
     1
102
RTVSPost2010Prop48
 90
       50
102
RTVSPost2010PropOp48
 70
     1
102
RTVSPost2010Prop49
280
     0
102
RTVSPost2010PropOp49
 70
     1
102
RTVSPost2010Prop50
 90
       50
102
RTVSPost2010PropOp50
 70
     1
102
RTVSPost2010Prop51ColorIndex
 90
      256
102
RTVSPost2010Prop51ColorRGB
 90
-16777216
102
RTVSPost2010PropOp51
 70
     0
102
RTVSPost2010Prop52
140
1.0
102
RTVSPost2010PropOp52
 70
     0
102
RTVSPost2010Prop53
 90
        2
102
RTVSPost2010PropOp53
 70
     1
102
RTVSPost2010Prop54
  1
strokes_ogs.tif
102
RTVSPost2010PropOp54
 70
     1
102
RTVSPost2010Prop55
280
     0
102
RTVSPost2010PropOp55
 70
     1
102
RTVSPost2010Prop56
140
1.0
102
RTVSPost2010PropOp56
 70
     1
102
RTVSPost2010Prop57
140
1.0
102
RTVSPost2010PropOp57
 70
     1
102
RTVSPropertyOp0
 70
     0
102
RTVSPropertyOp1
 70
     0
102
RTVSPropertyOp2
 70
     0
102
RTVSPropertyOp3
 70
     0
102
RTVSPropertyOp4
 70
     0
102
RTVSPropertyOp5
 70
     0
102
RTVSPropertyOp6
 70
     0
102
RTVSPropertyOp7
 70
     0
102
RTVSPropertyOp8
 70
     0
102
RTVSPropertyOp9
 70
     0
102
RTVSPropertyOp10
 70
     0
102
RTVSPropertyOp11
 70
     0
102
RTVSPropertyOp12
 70
     0
102
RTVSPropertyOp13
 70
     0
102
RTVSPropertyOp14
 70
     2
102
RTVSPropertyOp15
 70
     0
102
RTVSPropertyOp16
 70
     0
102
RTVSPropertyOp17
 70
     0
102
RTVSPropertyOp18
 70
     0
102
RTVSPropertyOp19
 70
     0
102
RTVSPropertyOp20
 70
     0
102
RTVSPropertyOp21
 70
     0
102
RTVSPropertyOp22
 70
     0
102
RTVSPropertyOp23
 70
     0
102
RTVSPropertyOp24
 70
     0
102
RTVSPropertyOp25
 70
     0
102
RTVSPropertyOp26
 70
     0
102
RTVSPropertyOp27
 70
     0
102
RTVSPropertyOp28
 70
     1
102
RTVSPropertyOp29
 70
     1
102
RTVSPropertyOp30
 70
     1
102
RTVSPropertyOp31
 70
     1
102
RTVSPropertyOp32
 70
     1
102
RTVSPropertyOp33
 70
     1
102
RTVSPropertyOp34
 70
     1
102
RTVSPropertyOp35
 70
     1
102
RTVSPropertyOp36
 70
     1
102
RTVSPropertyOp37
 70
     1
102
RTVSPropertyOp38
 70
     1
102
RTVSPropertyOp39
 70
     1
102
RTVSPropertyOp40
 70
     1
102
RTVSPropertyOp41
 70
     1
102
RTVSPropertyOp42
 70
     1
102
RTVSPropertyOp43
 70
     1
102
RTVSPropertyOp44
 70
     1
102
RTVSPropertyOp45
 70
     1
102
RTVSPropertyOp46
 70
     1
102
RTVSPropertyOp47
 70
     1
102
RTVSPropertyOp48
 70
     1
102
RTVSPropertyOp49
 70
     1
102
RTVSPropertyOp50
 70
     1
102
RTVSPropertyOp51
 70
     0
102
RTVSPropertyOp52
 70
     0
102
RTVSPropertyOp53
 70
     1
102
RTVSPropertyOp54
 70
     1
102
RTVSPropertyOp55
 70
     1
102
RTVSPropertyOp56
 70
     1
102
RTVSPropertyOp57
 70
     1
102
RTVSPropertyOp58
 70
     1
102
RTVSPropertyOp59
 70
     1
102
RTVSPropertyOp60
 70
     1
102
RTVSPropertyOp61
 70
     1
102
RTVSPropertyOp62
 70
     1
  0
XRECORD
  5
26A4
102
{ACAD_REACTORS
330
26A3
102
}
330
26A3
100
AcDbXrecord
280
     1
102
RTVSPost2010Prop28
280
     0
102
RTVSPost2010PropOp28
 70
     1
102
RTVSPost2010Prop29
280
     1
102
RTVSPost2010PropOp29
 70
     1
102
RTVSPost2010Prop30
280
     1
102
RTVSPost2010PropOp30
 70
     1
102
RTVSPost2010Prop31
280
     0
102
RTVSPost2010PropOp31
 70
     1
102
RTVSPost2010Prop32
280
     0
102
RTVSPost2010PropOp32
 70
     1
102
RTVSPost2010Prop33
280
     0
102
RTVSPost2010PropOp33
 70
     1
102
RTVSPost2010Prop34
280
     0
102
RTVSPost2010PropOp34
 70
     1
102
RTVSPost2010Prop35
280
     0
102
RTVSPost2010PropOp35
 70
     1
102
RTVSPost2010Prop36
280
     0
102
RTVSPost2010PropOp36
 70
     1
102
RTVSPost2010Prop37
 90
       50
102
RTVSPost2010PropOp37
 70
     1
102
RTVSPost2010Prop38
140
0.0
102
RTVSPost2010PropOp38
 70
     1
102
RTVSPost2010Prop39
140
1.0
102
RTVSPost2010PropOp39
 70
     1
102
RTVSPost2010Prop40
 90
        0
102
RTVSPost2010PropOp40
 70
     1
102
RTVSPost2010Prop41ColorIndex
 90
       18
102
RTVSPost2010Prop41ColorRGB
 90
        0
102
RTVSPost2010PropOp41
 70
     1
102
RTVSPost2010Prop42
 90
       50
102
RTVSPost2010PropOp42
 70
     1
102
RTVSPost2010Prop43
 90
        3
102
RTVSPost2010PropOp43
 70
     1
102
RTVSPost2010Prop44ColorIndex
 90
        5
102
RTVSPost2010Prop44ColorRGB
 90
      255
102
RTVSPost2010PropOp44
 70
     1
102
RTVSPost2010Prop45
280
     0
102
RTVSPost2010PropOp45
 70
     1
102
RTVSPost2010Prop46
 90
       50
102
RTVSPost2010PropOp46
 70
     1
102
RTVSPost2010Prop47
 90
       50
102
RTVSPost2010PropOp47
 70
     1
102
RTVSPost2010Prop48
 90
       50
102
RTVSPost2010PropOp48
 70
     1
102
RTVSPost2010Prop49
280
     0
102
RTVSPost2010PropOp49
 70
     1
102
RTVSPost2010Prop50
 90
       50
102
RTVSPost2010PropOp50
 70
     1
102
RTVSPost2010Prop51ColorIndex
 90
      256
102
RTVSPost2010Prop51ColorRGB
 90
-16777216
102
RTVSPost2010PropOp51
 70
     0
102
RTVSPost2010Prop52
140
1.0
102
RTVSPost2010PropOp52
 70
     0
102
RTVSPost2010Prop53
 90
        2
102
RTVSPost2010PropOp53
 70
     1
102
RTVSPost2010Prop54
  1
strokes_ogs.tif
102
RTVSPost2010PropOp54
 70
     1
102
RTVSPost2010Prop55
280
     0
102
RTVSPost2010PropOp55
 70
     1
102
RTVSPost2010Prop56
140
1.0
102
RTVSPost2010PropOp56
 70
     1
102
RTVSPost2010Prop57
140
1.0
102
RTVSPost2010PropOp57
 70
     1
102
RTVSPropertyOp0
 70
     1
102
RTVSPropertyOp1
 70
     1
102
RTVSPropertyOp2
 70
     1
102
RTVSPropertyOp3
 70
     1
102
RTVSPropertyOp4
 70
     1
102
RTVSPropertyOp5
 70
     1
102
RTVSPropertyOp6
 70
     1
102
RTVSPropertyOp7
 70
     1
102
RTVSPropertyOp8
 70
     1
102
RTVSPropertyOp9
 70
     1
102
RTVSPropertyOp10
 70
     1
102
RTVSPropertyOp11
 70
     1
102
RTVSPropertyOp12
 70
     1
102
RTVSPropertyOp13
 70
     1
102
RTVSPropertyOp14
 70
     1
102
RTVSPropertyOp15
 70
     1
102
RTVSPropertyOp16
 70
     1
102
RTVSPropertyOp17
 70
     1
102
RTVSPropertyOp18
 70
     1
102
RTVSPropertyOp19
 70
     1
102
RTVSPropertyOp20
 70
     1
102
RTVSPropertyOp21
 70
     1
102
RTVSPropertyOp22
 70
     1
102
RTVSPropertyOp23
 70
     1
102
RTVSPropertyOp24
 70
     1
102
RTVSPropertyOp25
 70
     1
102
RTVSPropertyOp26
 70
     1
102
RTVSPropertyOp27
 70
     1
102
RTVSPropertyOp28
 70
     1
102
RTVSPropertyOp29
 70
     1
102
RTVSPropertyOp30
 70
     1
102
RTVSPropertyOp31
 70
     1
102
RTVSPropertyOp32
 70
     1
102
RTVSPropertyOp33
 70
     1
102
RTVSPropertyOp34
 70
     1
102
RTVSPropertyOp35
 70
     1
102
RTVSPropertyOp36
 70
     1
102
RTVSPropertyOp37
 70
     1
102
RTVSPropertyOp38
 70
     1
102
RTVSPropertyOp39
 70
     1
102
RTVSPropertyOp40
 70
     1
102
RTVSPropertyOp41
 70
     1
102
RTVSPropertyOp42
 70
     1
102
RTVSPropertyOp43
 70
     1
102
RTVSPropertyOp44
 70
     1
102
RTVSPropertyOp45
 70
     1
102
RTVSPropertyOp46
 70
     1
102
RTVSPropertyOp47
 70
     1
102
RTVSPropertyOp48
 70
     1
102
RTVSPropertyOp49
 70
     1
102
RTVSPropertyOp50
 70
     1
102
RTVSPropertyOp51
 70
     0
102
RTVSPropertyOp52
 70
     0
102
RTVSPropertyOp53
 70
     1
102
RTVSPropertyOp54
 70
     1
102
RTVSPropertyOp55
 70
     1
102
RTVSPropertyOp56
 70
     1
102
RTVSPropertyOp57
 70
     1
102
RTVSPropertyOp58
 70
     1
102
RTVSPropertyOp59
 70
     1
102
RTVSPropertyOp60
 70
     1
102
RTVSPropertyOp61
 70
     1
102
RTVSPropertyOp62
 70
     1
  0
XRECORD
  5
2688
102
{ACAD_REACTORS
330
2687
102
}
330
2687
100
AcDbXrecord
280
     1
102
RTVSPost2010Prop28
280
     0
102
RTVSPost2010PropOp28
 70
     1
102
RTVSPost2010Prop29
280
     1
102
RTVSPost2010PropOp29
 70
     1
102
RTVSPost2010Prop30
280
     1
102
RTVSPost2010PropOp30
 70
     1
102
RTVSPost2010Prop31
280
     0
102
RTVSPost2010PropOp31
 70
     1
102
RTVSPost2010Prop32
280
     0
102
RTVSPost2010PropOp32
 70
     1
102
RTVSPost2010Prop33
280
     0
102
RTVSPost2010PropOp33
 70
     1
102
RTVSPost2010Prop34
280
     0
102
RTVSPost2010PropOp34
 70
     1
102
RTVSPost2010Prop35
280
     0
102
RTVSPost2010PropOp35
 70
     1
102
RTVSPost2010Prop36
280
     0
102
RTVSPost2010PropOp36
 70
     1
102
RTVSPost2010Prop37
 90
       50
102
RTVSPost2010PropOp37
 70
     1
102
RTVSPost2010Prop38
140
0.0
102
RTVSPost2010PropOp38
 70
     1
102
RTVSPost2010Prop39
140
1.0
102
RTVSPost2010PropOp39
 70
     1
102
RTVSPost2010Prop40
 90
        0
102
RTVSPost2010PropOp40
 70
     1
102
RTVSPost2010Prop41ColorIndex
 90
       18
102
RTVSPost2010Prop41ColorRGB
 90
        0
102
RTVSPost2010PropOp41
 70
     1
102
RTVSPost2010Prop42
 90
       50
102
RTVSPost2010PropOp42
 70
     1
102
RTVSPost2010Prop43
 90
        3
102
RTVSPost2010PropOp43
 70
     1
102
RTVSPost2010Prop44ColorIndex
 90
        5
102
RTVSPost2010Prop44ColorRGB
 90
      255
102
RTVSPost2010PropOp44
 70
     1
102
RTVSPost2010Prop45
280
     0
102
RTVSPost2010PropOp45
 70
     1
102
RTVSPost2010Prop46
 90
       50
102
RTVSPost2010PropOp46
 70
     1
102
RTVSPost2010Prop47
 90
       50
102
RTVSPost2010PropOp47
 70
     1
102
RTVSPost2010Prop48
 90
       50
102
RTVSPost2010PropOp48
 70
     1
102
RTVSPost2010Prop49
280
     0
102
RTVSPost2010PropOp49
 70
     1
102
RTVSPost2010Prop50
 90
       50
102
RTVSPost2010PropOp50
 70
     1
102
RTVSPost2010Prop51ColorIndex
 90
      256
102
RTVSPost2010Prop51ColorRGB
 90
-16777216
102
RTVSPost2010PropOp51
 70
     0
102
RTVSPost2010Prop52
140
1.0
102
RTVSPost2010PropOp52
 70
     0
102
RTVSPost2010Prop53
 90
        2
102
RTVSPost2010PropOp53
 70
     1
102
RTVSPost2010Prop54
  1
strokes_ogs.tif
102
RTVSPost2010PropOp54
 70
     1
102
RTVSPost2010Prop55
280
     0
102
RTVSPost2010PropOp55
 70
     1
102
RTVSPost2010Prop56
140
1.0
102
RTVSPost2010PropOp56
 70
     1
102
RTVSPost2010Prop57
140
1.0
102
RTVSPost2010PropOp57
 70
     1
102
RTVSPropertyOp0
 70
     1
102
RTVSPropertyOp1
 70
     1
102
RTVSPropertyOp2
 70
     1
102
RTVSPropertyOp3
 70
     1
102
RTVSPropertyOp4
 70
     1
102
RTVSPropertyOp5
 70
     1
102
RTVSPropertyOp6
 70
     1
102
RTVSPropertyOp7
 70
     1
102
RTVSPropertyOp8
 70
     1
102
RTVSPropertyOp9
 70
     1
102
RTVSPropertyOp10
 70
     1
102
RTVSPropertyOp11
 70
     1
102
RTVSPropertyOp12
 70
     1
102
RTVSPropertyOp13
 70
     1
102
RTVSPropertyOp14
 70
     1
102
RTVSPropertyOp15
 70
     1
102
RTVSPropertyOp16
 70
     1
102
RTVSPropertyOp17
 70
     1
102
RTVSPropertyOp18
 70
     1
102
RTVSPropertyOp19
 70
     1
102
RTVSPropertyOp20
 70
     1
102
RTVSPropertyOp21
 70
     1
102
RTVSPropertyOp22
 70
     1
102
RTVSPropertyOp23
 70
     1
102
RTVSPropertyOp24
 70
     1
102
RTVSPropertyOp25
 70
     1
102
RTVSPropertyOp26
 70
     1
102
RTVSPropertyOp27
 70
     1
102
RTVSPropertyOp28
 70
     1
102
RTVSPropertyOp29
 70
     1
102
RTVSPropertyOp30
 70
     1
102
RTVSPropertyOp31
 70
     1
102
RTVSPropertyOp32
 70
     1
102
RTVSPropertyOp33
 70
     1
102
RTVSPropertyOp34
 70
     1
102
RTVSPropertyOp35
 70
     1
102
RTVSPropertyOp36
 70
     1
102
RTVSPropertyOp37
 70
     1
102
RTVSPropertyOp38
 70
     1
102
RTVSPropertyOp39
 70
     1
102
RTVSPropertyOp40
 70
     1
102
RTVSPropertyOp41
 70
     1
102
RTVSPropertyOp42
 70
     1
102
RTVSPropertyOp43
 70
     1
102
RTVSPropertyOp44
 70
     1
102
RTVSPropertyOp45
 70
     1
102
RTVSPropertyOp46
 70
     1
102
RTVSPropertyOp47
 70
     1
102
RTVSPropertyOp48
 70
     1
102
RTVSPropertyOp49
 70
     1
102
RTVSPropertyOp50
 70
     1
102
RTVSPropertyOp51
 70
     0
102
RTVSPropertyOp52
 70
     0
102
RTVSPropertyOp53
 70
     1
102
RTVSPropertyOp54
 70
     1
102
RTVSPropertyOp55
 70
     1
102
RTVSPropertyOp56
 70
     1
102
RTVSPropertyOp57
 70
     1
102
RTVSPropertyOp58
 70
     1
102
RTVSPropertyOp59
 70
     1
102
RTVSPropertyOp60
 70
     1
102
RTVSPropertyOp61
 70
     1
102
RTVSPropertyOp62
 70
     1
  0
XRECORD
  5
268A
102
{ACAD_REACTORS
330
2689
102
}
330
2689
100
AcDbXrecord
280
     1
102
RTVSPost2010Prop28
280
     0
102
RTVSPost2010PropOp28
 70
     1
102
RTVSPost2010Prop29
280
     1
102
RTVSPost2010PropOp29
 70
     1
102
RTVSPost2010Prop30
280
     1
102
RTVSPost2010PropOp30
 70
     1
102
RTVSPost2010Prop31
280
     0
102
RTVSPost2010PropOp31
 70
     1
102
RTVSPost2010Prop32
280
     0
102
RTVSPost2010PropOp32
 70
     1
102
RTVSPost2010Prop33
280
     0
102
RTVSPost2010PropOp33
 70
     1
102
RTVSPost2010Prop34
280
     0
102
RTVSPost2010PropOp34
 70
     1
102
RTVSPost2010Prop35
280
     0
102
RTVSPost2010PropOp35
 70
     1
102
RTVSPost2010Prop36
280
     0
102
RTVSPost2010PropOp36
 70
     1
102
RTVSPost2010Prop37
 90
       50
102
RTVSPost2010PropOp37
 70
     1
102
RTVSPost2010Prop38
140
0.0
102
RTVSPost2010PropOp38
 70
     1
102
RTVSPost2010Prop39
140
1.0
102
RTVSPost2010PropOp39
 70
     1
102
RTVSPost2010Prop40
 90
        0
102
RTVSPost2010PropOp40
 70
     1
102
RTVSPost2010Prop41ColorIndex
 90
       18
102
RTVSPost2010Prop41ColorRGB
 90
        0
102
RTVSPost2010PropOp41
 70
     1
102
RTVSPost2010Prop42
 90
       50
102
RTVSPost2010PropOp42
 70
     1
102
RTVSPost2010Prop43
 90
        3
102
RTVSPost2010PropOp43
 70
     1
102
RTVSPost2010Prop44ColorIndex
 90
        5
102
RTVSPost2010Prop44ColorRGB
 90
      255
102
RTVSPost2010PropOp44
 70
     1
102
RTVSPost2010Prop45
280
     0
102
RTVSPost2010PropOp45
 70
     1
102
RTVSPost2010Prop46
 90
       50
102
RTVSPost2010PropOp46
 70
     1
102
RTVSPost2010Prop47
 90
       50
102
RTVSPost2010PropOp47
 70
     1
102
RTVSPost2010Prop48
 90
       50
102
RTVSPost2010PropOp48
 70
     1
102
RTVSPost2010Prop49
280
     0
102
RTVSPost2010PropOp49
 70
     1
102
RTVSPost2010Prop50
 90
       50
102
RTVSPost2010PropOp50
 70
     1
102
RTVSPost2010Prop51ColorIndex
 90
      256
102
RTVSPost2010Prop51ColorRGB
 90
-16777216
102
RTVSPost2010PropOp51
 70
     0
102
RTVSPost2010Prop52
140
1.0
102
RTVSPost2010PropOp52
 70
     0
102
RTVSPost2010Prop53
 90
        2
102
RTVSPost2010PropOp53
 70
     1
102
RTVSPost2010Prop54
  1
strokes_ogs.tif
102
RTVSPost2010PropOp54
 70
     1
102
RTVSPost2010Prop55
280
     0
102
RTVSPost2010PropOp55
 70
     1
102
RTVSPost2010Prop56
140
1.0
102
RTVSPost2010PropOp56
 70
     1
102
RTVSPost2010Prop57
140
1.0
102
RTVSPost2010PropOp57
 70
     1
102
RTVSPropertyOp0
 70
     1
102
RTVSPropertyOp1
 70
     1
102
RTVSPropertyOp2
 70
     1
102
RTVSPropertyOp3
 70
     1
102
RTVSPropertyOp4
 70
     1
102
RTVSPropertyOp5
 70
     1
102
RTVSPropertyOp6
 70
     1
102
RTVSPropertyOp7
 70
     1
102
RTVSPropertyOp8
 70
     1
102
RTVSPropertyOp9
 70
     1
102
RTVSPropertyOp10
 70
     1
102
RTVSPropertyOp11
 70
     1
102
RTVSPropertyOp12
 70
     1
102
RTVSPropertyOp13
 70
     1
102
RTVSPropertyOp14
 70
     1
102
RTVSPropertyOp15
 70
     1
102
RTVSPropertyOp16
 70
     1
102
RTVSPropertyOp17
 70
     1
102
RTVSPropertyOp18
 70
     1
102
RTVSPropertyOp19
 70
     1
102
RTVSPropertyOp20
 70
     1
102
RTVSPropertyOp21
 70
     1
102
RTVSPropertyOp22
 70
     1
102
RTVSPropertyOp23
 70
     1
102
RTVSPropertyOp24
 70
     1
102
RTVSPropertyOp25
 70
     1
102
RTVSPropertyOp26
 70
     1
102
RTVSPropertyOp27
 70
     1
102
RTVSPropertyOp28
 70
     1
102
RTVSPropertyOp29
 70
     1
102
RTVSPropertyOp30
 70
     1
102
RTVSPropertyOp31
 70
     1
102
RTVSPropertyOp32
 70
     1
102
RTVSPropertyOp33
 70
     1
102
RTVSPropertyOp34
 70
     1
102
RTVSPropertyOp35
 70
     1
102
RTVSPropertyOp36
 70
     1
102
RTVSPropertyOp37
 70
     1
102
RTVSPropertyOp38
 70
     1
102
RTVSPropertyOp39
 70
     1
102
RTVSPropertyOp40
 70
     1
102
RTVSPropertyOp41
 70
     1
102
RTVSPropertyOp42
 70
     1
102
RTVSPropertyOp43
 70
     1
102
RTVSPropertyOp44
 70
     1
102
RTVSPropertyOp45
 70
     1
102
RTVSPropertyOp46
 70
     1
102
RTVSPropertyOp47
 70
     1
102
RTVSPropertyOp48
 70
     1
102
RTVSPropertyOp49
 70
     1
102
RTVSPropertyOp50
 70
     1
102
RTVSPropertyOp51
 70
     0
102
RTVSPropertyOp52
 70
     0
102
RTVSPropertyOp53
 70
     1
102
RTVSPropertyOp54
 70
     1
102
RTVSPropertyOp55
 70
     1
102
RTVSPropertyOp56
 70
     1
102
RTVSPropertyOp57
 70
     1
102
RTVSPropertyOp58
 70
     1
102
RTVSPropertyOp59
 70
     1
102
RTVSPropertyOp60
 70
     1
102
RTVSPropertyOp61
 70
     1
102
RTVSPropertyOp62
 70
     1
  0
XRECORD
  5
268C
102
{ACAD_REACTORS
330
268B
102
}
330
268B
100
AcDbXrecord
280
     1
102
RTVSPost2010Prop28
280
     0
102
RTVSPost2010PropOp28
 70
     1
102
RTVSPost2010Prop29
280
     1
102
RTVSPost2010PropOp29
 70
     1
102
RTVSPost2010Prop30
280
     1
102
RTVSPost2010PropOp30
 70
     1
102
RTVSPost2010Prop31
280
     0
102
RTVSPost2010PropOp31
 70
     1
102
RTVSPost2010Prop32
280
     0
102
RTVSPost2010PropOp32
 70
     1
102
RTVSPost2010Prop33
280
     0
102
RTVSPost2010PropOp33
 70
     1
102
RTVSPost2010Prop34
280
     0
102
RTVSPost2010PropOp34
 70
     1
102
RTVSPost2010Prop35
280
     0
102
RTVSPost2010PropOp35
 70
     1
102
RTVSPost2010Prop36
280
     0
102
RTVSPost2010PropOp36
 70
     1
102
RTVSPost2010Prop37
 90
       50
102
RTVSPost2010PropOp37
 70
     1
102
RTVSPost2010Prop38
140
0.0
102
RTVSPost2010PropOp38
 70
     1
102
RTVSPost2010Prop39
140
1.0
102
RTVSPost2010PropOp39
 70
     1
102
RTVSPost2010Prop40
 90
        0
102
RTVSPost2010PropOp40
 70
     1
102
RTVSPost2010Prop41ColorIndex
 90
       18
102
RTVSPost2010Prop41ColorRGB
 90
        0
102
RTVSPost2010PropOp41
 70
     1
102
RTVSPost2010Prop42
 90
       50
102
RTVSPost2010PropOp42
 70
     1
102
RTVSPost2010Prop43
 90
        3
102
RTVSPost2010PropOp43
 70
     1
102
RTVSPost2010Prop44ColorIndex
 90
        5
102
RTVSPost2010Prop44ColorRGB
 90
      255
102
RTVSPost2010PropOp44
 70
     1
102
RTVSPost2010Prop45
280
     0
102
RTVSPost2010PropOp45
 70
     1
102
RTVSPost2010Prop46
 90
       50
102
RTVSPost2010PropOp46
 70
     1
102
RTVSPost2010Prop47
 90
       50
102
RTVSPost2010PropOp47
 70
     1
102
RTVSPost2010Prop48
 90
       50
102
RTVSPost2010PropOp48
 70
     1
102
RTVSPost2010Prop49
280
     0
102
RTVSPost2010PropOp49
 70
     1
102
RTVSPost2010Prop50
 90
       50
102
RTVSPost2010PropOp50
 70
     1
102
RTVSPost2010Prop51ColorIndex
 90
      256
102
RTVSPost2010Prop51ColorRGB
 90
-16777216
102
RTVSPost2010PropOp51
 70
     0
102
RTVSPost2010Prop52
140
1.0
102
RTVSPost2010PropOp52
 70
     0
102
RTVSPost2010Prop53
 90
        2
102
RTVSPost2010PropOp53
 70
     1
102
RTVSPost2010Prop54
  1
strokes_ogs.tif
102
RTVSPost2010PropOp54
 70
     1
102
RTVSPost2010Prop55
280
     0
102
RTVSPost2010PropOp55
 70
     1
102
RTVSPost2010Prop56
140
1.0
102
RTVSPost2010PropOp56
 70
     1
102
RTVSPost2010Prop57
140
1.0
102
RTVSPost2010PropOp57
 70
     1
102
RTVSPropertyOp0
 70
     1
102
RTVSPropertyOp1
 70
     1
102
RTVSPropertyOp2
 70
     1
102
RTVSPropertyOp3
 70
     1
102
RTVSPropertyOp4
 70
     1
102
RTVSPropertyOp5
 70
     1
102
RTVSPropertyOp6
 70
     1
102
RTVSPropertyOp7
 70
     1
102
RTVSPropertyOp8
 70
     1
102
RTVSPropertyOp9
 70
     1
102
RTVSPropertyOp10
 70
     1
102
RTVSPropertyOp11
 70
     1
102
RTVSPropertyOp12
 70
     1
102
RTVSPropertyOp13
 70
     1
102
RTVSPropertyOp14
 70
     1
102
RTVSPropertyOp15
 70
     1
102
RTVSPropertyOp16
 70
     1
102
RTVSPropertyOp17
 70
     1
102
RTVSPropertyOp18
 70
     1
102
RTVSPropertyOp19
 70
     1
102
RTVSPropertyOp20
 70
     1
102
RTVSPropertyOp21
 70
     1
102
RTVSPropertyOp22
 70
     1
102
RTVSPropertyOp23
 70
     1
102
RTVSPropertyOp24
 70
     1
102
RTVSPropertyOp25
 70
     1
102
RTVSPropertyOp26
 70
     1
102
RTVSPropertyOp27
 70
     1
102
RTVSPropertyOp28
 70
     1
102
RTVSPropertyOp29
 70
     1
102
RTVSPropertyOp30
 70
     1
102
RTVSPropertyOp31
 70
     1
102
RTVSPropertyOp32
 70
     1
102
RTVSPropertyOp33
 70
     1
102
RTVSPropertyOp34
 70
     1
102
RTVSPropertyOp35
 70
     1
102
RTVSPropertyOp36
 70
     1
102
RTVSPropertyOp37
 70
     1
102
RTVSPropertyOp38
 70
     1
102
RTVSPropertyOp39
 70
     1
102
RTVSPropertyOp40
 70
     1
102
RTVSPropertyOp41
 70
     1
102
RTVSPropertyOp42
 70
     1
102
RTVSPropertyOp43
 70
     1
102
RTVSPropertyOp44
 70
     1
102
RTVSPropertyOp45
 70
     1
102
RTVSPropertyOp46
 70
     1
102
RTVSPropertyOp47
 70
     1
102
RTVSPropertyOp48
 70
     1
102
RTVSPropertyOp49
 70
     1
102
RTVSPropertyOp50
 70
     1
102
RTVSPropertyOp51
 70
     0
102
RTVSPropertyOp52
 70
     0
102
RTVSPropertyOp53
 70
     1
102
RTVSPropertyOp54
 70
     1
102
RTVSPropertyOp55
 70
     1
102
RTVSPropertyOp56
 70
     1
102
RTVSPropertyOp57
 70
     1
102
RTVSPropertyOp58
 70
     1
102
RTVSPropertyOp59
 70
     1
102
RTVSPropertyOp60
 70
     1
102
RTVSPropertyOp61
 70
     1
102
RTVSPropertyOp62
 70
     1
  0
XRECORD
  5
268E
102
{ACAD_REACTORS
330
268D
102
}
330
268D
100
AcDbXrecord
280
     1
102
RTVSPost2010Prop28
280
     0
102
RTVSPost2010PropOp28
 70
     1
102
RTVSPost2010Prop29
280
     1
102
RTVSPost2010PropOp29
 70
     1
102
RTVSPost2010Prop30
280
     1
102
RTVSPost2010PropOp30
 70
     1
102
RTVSPost2010Prop31
280
     0
102
RTVSPost2010PropOp31
 70
     1
102
RTVSPost2010Prop32
280
     0
102
RTVSPost2010PropOp32
 70
     1
102
RTVSPost2010Prop33
280
     0
102
RTVSPost2010PropOp33
 70
     1
102
RTVSPost2010Prop34
280
     0
102
RTVSPost2010PropOp34
 70
     1
102
RTVSPost2010Prop35
280
     0
102
RTVSPost2010PropOp35
 70
     1
102
RTVSPost2010Prop36
280
     0
102
RTVSPost2010PropOp36
 70
     1
102
RTVSPost2010Prop37
 90
       50
102
RTVSPost2010PropOp37
 70
     1
102
RTVSPost2010Prop38
140
0.0
102
RTVSPost2010PropOp38
 70
     1
102
RTVSPost2010Prop39
140
1.0
102
RTVSPost2010PropOp39
 70
     1
102
RTVSPost2010Prop40
 90
        0
102
RTVSPost2010PropOp40
 70
     1
102
RTVSPost2010Prop41ColorIndex
 90
       18
102
RTVSPost2010Prop41ColorRGB
 90
        0
102
RTVSPost2010PropOp41
 70
     1
102
RTVSPost2010Prop42
 90
       50
102
RTVSPost2010PropOp42
 70
     1
102
RTVSPost2010Prop43
 90
        3
102
RTVSPost2010PropOp43
 70
     1
102
RTVSPost2010Prop44ColorIndex
 90
        5
102
RTVSPost2010Prop44ColorRGB
 90
      255
102
RTVSPost2010PropOp44
 70
     1
102
RTVSPost2010Prop45
280
     0
102
RTVSPost2010PropOp45
 70
     1
102
RTVSPost2010Prop46
 90
       50
102
RTVSPost2010PropOp46
 70
     1
102
RTVSPost2010Prop47
 90
       50
102
RTVSPost2010PropOp47
 70
     1
102
RTVSPost2010Prop48
 90
       50
102
RTVSPost2010PropOp48
 70
     1
102
RTVSPost2010Prop49
280
     0
102
RTVSPost2010PropOp49
 70
     1
102
RTVSPost2010Prop50
 90
       50
102
RTVSPost2010PropOp50
 70
     1
102
RTVSPost2010Prop51ColorIndex
 90
      256
102
RTVSPost2010Prop51ColorRGB
 90
-16777216
102
RTVSPost2010PropOp51
 70
     0
102
RTVSPost2010Prop52
140
1.0
102
RTVSPost2010PropOp52
 70
     0
102
RTVSPost2010Prop53
 90
        2
102
RTVSPost2010PropOp53
 70
     1
102
RTVSPost2010Prop54
  1
strokes_ogs.tif
102
RTVSPost2010PropOp54
 70
     1
102
RTVSPost2010Prop55
280
     0
102
RTVSPost2010PropOp55
 70
     1
102
RTVSPost2010Prop56
140
1.0
102
RTVSPost2010PropOp56
 70
     1
102
RTVSPost2010Prop57
140
1.0
102
RTVSPost2010PropOp57
 70
     1
102
RTVSPropertyOp0
 70
     1
102
RTVSPropertyOp1
 70
     1
102
RTVSPropertyOp2
 70
     1
102
RTVSPropertyOp3
 70
     1
102
RTVSPropertyOp4
 70
     1
102
RTVSPropertyOp5
 70
     1
102
RTVSPropertyOp6
 70
     1
102
RTVSPropertyOp7
 70
     1
102
RTVSPropertyOp8
 70
     1
102
RTVSPropertyOp9
 70
     1
102
RTVSPropertyOp10
 70
     1
102
RTVSPropertyOp11
 70
     1
102
RTVSPropertyOp12
 70
     1
102
RTVSPropertyOp13
 70
     1
102
RTVSPropertyOp14
 70
     1
102
RTVSPropertyOp15
 70
     1
102
RTVSPropertyOp16
 70
     1
102
RTVSPropertyOp17
 70
     1
102
RTVSPropertyOp18
 70
     1
102
RTVSPropertyOp19
 70
     1
102
RTVSPropertyOp20
 70
     1
102
RTVSPropertyOp21
 70
     1
102
RTVSPropertyOp22
 70
     1
102
RTVSPropertyOp23
 70
     1
102
RTVSPropertyOp24
 70
     1
102
RTVSPropertyOp25
 70
     1
102
RTVSPropertyOp26
 70
     1
102
RTVSPropertyOp27
 70
     1
102
RTVSPropertyOp28
 70
     1
102
RTVSPropertyOp29
 70
     1
102
RTVSPropertyOp30
 70
     1
102
RTVSPropertyOp31
 70
     1
102
RTVSPropertyOp32
 70
     1
102
RTVSPropertyOp33
 70
     1
102
RTVSPropertyOp34
 70
     1
102
RTVSPropertyOp35
 70
     1
102
RTVSPropertyOp36
 70
     1
102
RTVSPropertyOp37
 70
     1
102
RTVSPropertyOp38
 70
     1
102
RTVSPropertyOp39
 70
     1
102
RTVSPropertyOp40
 70
     1
102
RTVSPropertyOp41
 70
     1
102
RTVSPropertyOp42
 70
     1
102
RTVSPropertyOp43
 70
     1
102
RTVSPropertyOp44
 70
     1
102
RTVSPropertyOp45
 70
     1
102
RTVSPropertyOp46
 70
     1
102
RTVSPropertyOp47
 70
     1
102
RTVSPropertyOp48
 70
     1
102
RTVSPropertyOp49
 70
     1
102
RTVSPropertyOp50
 70
     1
102
RTVSPropertyOp51
 70
     0
102
RTVSPropertyOp52
 70
     0
102
RTVSPropertyOp53
 70
     1
102
RTVSPropertyOp54
 70
     1
102
RTVSPropertyOp55
 70
     1
102
RTVSPropertyOp56
 70
     1
102
RTVSPropertyOp57
 70
     1
102
RTVSPropertyOp58
 70
     1
102
RTVSPropertyOp59
 70
     1
102
RTVSPropertyOp60
 70
     1
102
RTVSPropertyOp61
 70
     1
102
RTVSPropertyOp62
 70
     1
  0
XRECORD
  5
26BA
102
{ACAD_REACTORS
330
26B9
102
}
330
26B9
100
AcDbXrecord
280
     1
102
RTVSPost2010Prop28
280
     0
102
RTVSPost2010PropOp28
 70
     1
102
RTVSPost2010Prop29
280
     1
102
RTVSPost2010PropOp29
 70
     1
102
RTVSPost2010Prop30
280
     1
102
RTVSPost2010PropOp30
 70
     1
102
RTVSPost2010Prop31
280
     0
102
RTVSPost2010PropOp31
 70
     1
102
RTVSPost2010Prop32
280
     0
102
RTVSPost2010PropOp32
 70
     1
102
RTVSPost2010Prop33
280
     0
102
RTVSPost2010PropOp33
 70
     1
102
RTVSPost2010Prop34
280
     0
102
RTVSPost2010PropOp34
 70
     1
102
RTVSPost2010Prop35
280
     0
102
RTVSPost2010PropOp35
 70
     1
102
RTVSPost2010Prop36
280
     0
102
RTVSPost2010PropOp36
 70
     1
102
RTVSPost2010Prop37
 90
       50
102
RTVSPost2010PropOp37
 70
     1
102
RTVSPost2010Prop38
140
0.0
102
RTVSPost2010PropOp38
 70
     1
102
RTVSPost2010Prop39
140
1.0
102
RTVSPost2010PropOp39
 70
     1
102
RTVSPost2010Prop40
 90
        0
102
RTVSPost2010PropOp40
 70
     1
102
RTVSPost2010Prop41ColorIndex
 90
       18
102
RTVSPost2010Prop41ColorRGB
 90
        0
102
RTVSPost2010PropOp41
 70
     1
102
RTVSPost2010Prop42
 90
       50
102
RTVSPost2010PropOp42
 70
     1
102
RTVSPost2010Prop43
 90
        3
102
RTVSPost2010PropOp43
 70
     1
102
RTVSPost2010Prop44ColorIndex
 90
        5
102
RTVSPost2010Prop44ColorRGB
 90
      255
102
RTVSPost2010PropOp44
 70
     1
102
RTVSPost2010Prop45
280
     0
102
RTVSPost2010PropOp45
 70
     1
102
RTVSPost2010Prop46
 90
       50
102
RTVSPost2010PropOp46
 70
     1
102
RTVSPost2010Prop47
 90
       50
102
RTVSPost2010PropOp47
 70
     1
102
RTVSPost2010Prop48
 90
       50
102
RTVSPost2010PropOp48
 70
     1
102
RTVSPost2010Prop49
280
     0
102
RTVSPost2010PropOp49
 70
     1
102
RTVSPost2010Prop50
 90
       50
102
RTVSPost2010PropOp50
 70
     1
102
RTVSPost2010Prop51ColorIndex
 90
      256
102
RTVSPost2010Prop51ColorRGB
 90
-16777216
102
RTVSPost2010PropOp51
 70
     0
102
RTVSPost2010Prop52
140
1.0
102
RTVSPost2010PropOp52
 70
     0
102
RTVSPost2010Prop53
 90
        2
102
RTVSPost2010PropOp53
 70
     1
102
RTVSPost2010Prop54
  1
strokes_ogs.tif
102
RTVSPost2010PropOp54
 70
     1
102
RTVSPost2010Prop55
280
     0
102
RTVSPost2010PropOp55
 70
     1
102
RTVSPost2010Prop56
140
1.0
102
RTVSPost2010PropOp56
 70
     1
102
RTVSPost2010Prop57
140
1.0
102
RTVSPost2010PropOp57
 70
     1
102
RTVSPropertyOp0
 70
     1
102
RTVSPropertyOp1
 70
     1
102
RTVSPropertyOp2
 70
     1
102
RTVSPropertyOp3
 70
     1
102
RTVSPropertyOp4
 70
     1
102
RTVSPropertyOp5
 70
     1
102
RTVSPropertyOp6
 70
     1
102
RTVSPropertyOp7
 70
     1
102
RTVSPropertyOp8
 70
     1
102
RTVSPropertyOp9
 70
     1
102
RTVSPropertyOp10
 70
     1
102
RTVSPropertyOp11
 70
     1
102
RTVSPropertyOp12
 70
     1
102
RTVSPropertyOp13
 70
     1
102
RTVSPropertyOp14
 70
     1
102
RTVSPropertyOp15
 70
     1
102
RTVSPropertyOp16
 70
     1
102
RTVSPropertyOp17
 70
     1
102
RTVSPropertyOp18
 70
     1
102
RTVSPropertyOp19
 70
     1
102
RTVSPropertyOp20
 70
     1
102
RTVSPropertyOp21
 70
     1
102
RTVSPropertyOp22
 70
     1
102
RTVSPropertyOp23
 70
     1
102
RTVSPropertyOp24
 70
     1
102
RTVSPropertyOp25
 70
     1
102
RTVSPropertyOp26
 70
     1
102
RTVSPropertyOp27
 70
     1
102
RTVSPropertyOp28
 70
     1
102
RTVSPropertyOp29
 70
     1
102
RTVSPropertyOp30
 70
     1
102
RTVSPropertyOp31
 70
     1
102
RTVSPropertyOp32
 70
     1
102
RTVSPropertyOp33
 70
     1
102
RTVSPropertyOp34
 70
     1
102
RTVSPropertyOp35
 70
     1
102
RTVSPropertyOp36
 70
     1
102
RTVSPropertyOp37
 70
     1
102
RTVSPropertyOp38
 70
     1
102
RTVSPropertyOp39
 70
     1
102
RTVSPropertyOp40
 70
     1
102
RTVSPropertyOp41
 70
     1
102
RTVSPropertyOp42
 70
     1
102
RTVSPropertyOp43
 70
     1
102
RTVSPropertyOp44
 70
     1
102
RTVSPropertyOp45
 70
     1
102
RTVSPropertyOp46
 70
     1
102
RTVSPropertyOp47
 70
     1
102
RTVSPropertyOp48
 70
     1
102
RTVSPropertyOp49
 70
     1
102
RTVSPropertyOp50
 70
     1
102
RTVSPropertyOp51
 70
     0
102
RTVSPropertyOp52
 70
     0
102
RTVSPropertyOp53
 70
     1
102
RTVSPropertyOp54
 70
     1
102
RTVSPropertyOp55
 70
     1
102
RTVSPropertyOp56
 70
     1
102
RTVSPropertyOp57
 70
     1
102
RTVSPropertyOp58
 70
     1
102
RTVSPropertyOp59
 70
     1
102
RTVSPropertyOp60
 70
     1
102
RTVSPropertyOp61
 70
     1
102
RTVSPropertyOp62
 70
     1
  0
XRECORD
  5
26B2
102
{ACAD_REACTORS
330
26B1
102
}
330
26B1
100
AcDbXrecord
280
     1
102
RTVSPost2010Prop28
280
     0
102
RTVSPost2010PropOp28
 70
     1
102
RTVSPost2010Prop29
280
     1
102
RTVSPost2010PropOp29
 70
     1
102
RTVSPost2010Prop30
280
     1
102
RTVSPost2010PropOp30
 70
     1
102
RTVSPost2010Prop31
280
     0
102
RTVSPost2010PropOp31
 70
     1
102
RTVSPost2010Prop32
280
     0
102
RTVSPost2010PropOp32
 70
     1
102
RTVSPost2010Prop33
280
     0
102
RTVSPost2010PropOp33
 70
     1
102
RTVSPost2010Prop34
280
     0
102
RTVSPost2010PropOp34
 70
     1
102
RTVSPost2010Prop35
280
     0
102
RTVSPost2010PropOp35
 70
     1
102
RTVSPost2010Prop36
280
     0
102
RTVSPost2010PropOp36
 70
     1
102
RTVSPost2010Prop37
 90
       50
102
RTVSPost2010PropOp37
 70
     1
102
RTVSPost2010Prop38
140
0.0
102
RTVSPost2010PropOp38
 70
     1
102
RTVSPost2010Prop39
140
1.0
102
RTVSPost2010PropOp39
 70
     1
102
RTVSPost2010Prop40
 90
        0
102
RTVSPost2010PropOp40
 70
     1
102
RTVSPost2010Prop41ColorIndex
 90
       18
102
RTVSPost2010Prop41ColorRGB
 90
        0
102
RTVSPost2010PropOp41
 70
     1
102
RTVSPost2010Prop42
 90
       50
102
RTVSPost2010PropOp42
 70
     1
102
RTVSPost2010Prop43
 90
        3
102
RTVSPost2010PropOp43
 70
     1
102
RTVSPost2010Prop44ColorIndex
 90
        5
102
RTVSPost2010Prop44ColorRGB
 90
      255
102
RTVSPost2010PropOp44
 70
     1
102
RTVSPost2010Prop45
280
     0
102
RTVSPost2010PropOp45
 70
     1
102
RTVSPost2010Prop46
 90
       50
102
RTVSPost2010PropOp46
 70
     1
102
RTVSPost2010Prop47
 90
       50
102
RTVSPost2010PropOp47
 70
     1
102
RTVSPost2010Prop48
 90
       50
102
RTVSPost2010PropOp48
 70
     1
102
RTVSPost2010Prop49
280
     0
102
RTVSPost2010PropOp49
 70
     1
102
RTVSPost2010Prop50
 90
       50
102
RTVSPost2010PropOp50
 70
     1
102
RTVSPost2010Prop51ColorIndex
 90
      256
102
RTVSPost2010Prop51ColorRGB
 90
-16777216
102
RTVSPost2010PropOp51
 70
     0
102
RTVSPost2010Prop52
140
1.0
102
RTVSPost2010PropOp52
 70
     0
102
RTVSPost2010Prop53
 90
        2
102
RTVSPost2010PropOp53
 70
     1
102
RTVSPost2010Prop54
  1
strokes_ogs.tif
102
RTVSPost2010PropOp54
 70
     1
102
RTVSPost2010Prop55
280
     0
102
RTVSPost2010PropOp55
 70
     1
102
RTVSPost2010Prop56
140
1.0
102
RTVSPost2010PropOp56
 70
     1
102
RTVSPost2010Prop57
140
1.0
102
RTVSPost2010PropOp57
 70
     1
102
RTVSPropertyOp0
 70
     0
102
RTVSPropertyOp1
 70
     0
102
RTVSPropertyOp2
 70
     0
102
RTVSPropertyOp3
 70
     0
102
RTVSPropertyOp4
 70
     0
102
RTVSPropertyOp5
 70
     0
102
RTVSPropertyOp6
 70
     0
102
RTVSPropertyOp7
 70
     0
102
RTVSPropertyOp8
 70
     0
102
RTVSPropertyOp9
 70
     0
102
RTVSPropertyOp10
 70
     0
102
RTVSPropertyOp11
 70
     0
102
RTVSPropertyOp12
 70
     0
102
RTVSPropertyOp13
 70
     0
102
RTVSPropertyOp14
 70
     2
102
RTVSPropertyOp15
 70
     0
102
RTVSPropertyOp16
 70
     0
102
RTVSPropertyOp17
 70
     0
102
RTVSPropertyOp18
 70
     0
102
RTVSPropertyOp19
 70
     0
102
RTVSPropertyOp20
 70
     0
102
RTVSPropertyOp21
 70
     0
102
RTVSPropertyOp22
 70
     0
102
RTVSPropertyOp23
 70
     0
102
RTVSPropertyOp24
 70
     0
102
RTVSPropertyOp25
 70
     0
102
RTVSPropertyOp26
 70
     0
102
RTVSPropertyOp27
 70
     0
102
RTVSPropertyOp28
 70
     1
102
RTVSPropertyOp29
 70
     1
102
RTVSPropertyOp30
 70
     1
102
RTVSPropertyOp31
 70
     1
102
RTVSPropertyOp32
 70
     1
102
RTVSPropertyOp33
 70
     1
102
RTVSPropertyOp34
 70
     1
102
RTVSPropertyOp35
 70
     1
102
RTVSPropertyOp36
 70
     1
102
RTVSPropertyOp37
 70
     1
102
RTVSPropertyOp38
 70
     1
102
RTVSPropertyOp39
 70
     1
102
RTVSPropertyOp40
 70
     1
102
RTVSPropertyOp41
 70
     1
102
RTVSPropertyOp42
 70
     1
102
RTVSPropertyOp43
 70
     1
102
RTVSPropertyOp44
 70
     1
102
RTVSPropertyOp45
 70
     1
102
RTVSPropertyOp46
 70
     1
102
RTVSPropertyOp47
 70
     1
102
RTVSPropertyOp48
 70
     1
102
RTVSPropertyOp49
 70
     1
102
RTVSPropertyOp50
 70
     1
102
RTVSPropertyOp51
 70
     0
102
RTVSPropertyOp52
 70
     0
102
RTVSPropertyOp53
 70
     1
102
RTVSPropertyOp54
 70
     1
102
RTVSPropertyOp55
 70
     1
102
RTVSPropertyOp56
 70
     1
102
RTVSPropertyOp57
 70
     1
102
RTVSPropertyOp58
 70
     1
102
RTVSPropertyOp59
 70
     1
102
RTVSPropertyOp60
 70
     1
102
RTVSPropertyOp61
 70
     1
102
RTVSPropertyOp62
 70
     1
  0
XRECORD
  5
26A2
102
{ACAD_REACTORS
330
26A1
102
}
330
26A1
100
AcDbXrecord
280
     1
102
RTVSPost2010Prop28
280
     0
102
RTVSPost2010PropOp28
 70
     1
102
RTVSPost2010Prop29
280
     1
102
RTVSPost2010PropOp29
 70
     1
102
RTVSPost2010Prop30
280
     1
102
RTVSPost2010PropOp30
 70
     1
102
RTVSPost2010Prop31
280
     0
102
RTVSPost2010PropOp31
 70
     1
102
RTVSPost2010Prop32
280
     0
102
RTVSPost2010PropOp32
 70
     1
102
RTVSPost2010Prop33
280
     0
102
RTVSPost2010PropOp33
 70
     1
102
RTVSPost2010Prop34
280
     0
102
RTVSPost2010PropOp34
 70
     1
102
RTVSPost2010Prop35
280
     0
102
RTVSPost2010PropOp35
 70
     1
102
RTVSPost2010Prop36
280
     0
102
RTVSPost2010PropOp36
 70
     1
102
RTVSPost2010Prop37
 90
       50
102
RTVSPost2010PropOp37
 70
     1
102
RTVSPost2010Prop38
140
0.0
102
RTVSPost2010PropOp38
 70
     1
102
RTVSPost2010Prop39
140
1.0
102
RTVSPost2010PropOp39
 70
     1
102
RTVSPost2010Prop40
 90
        0
102
RTVSPost2010PropOp40
 70
     1
102
RTVSPost2010Prop41ColorIndex
 90
       18
102
RTVSPost2010Prop41ColorRGB
 90
        0
102
RTVSPost2010PropOp41
 70
     1
102
RTVSPost2010Prop42
 90
       50
102
RTVSPost2010PropOp42
 70
     1
102
RTVSPost2010Prop43
 90
        3
102
RTVSPost2010PropOp43
 70
     1
102
RTVSPost2010Prop44ColorIndex
 90
        5
102
RTVSPost2010Prop44ColorRGB
 90
      255
102
RTVSPost2010PropOp44
 70
     1
102
RTVSPost2010Prop45
280
     0
102
RTVSPost2010PropOp45
 70
     1
102
RTVSPost2010Prop46
 90
       50
102
RTVSPost2010PropOp46
 70
     1
102
RTVSPost2010Prop47
 90
       50
102
RTVSPost2010PropOp47
 70
     1
102
RTVSPost2010Prop48
 90
       50
102
RTVSPost2010PropOp48
 70
     1
102
RTVSPost2010Prop49
280
     0
102
RTVSPost2010PropOp49
 70
     1
102
RTVSPost2010Prop50
 90
       50
102
RTVSPost2010PropOp50
 70
     1
102
RTVSPost2010Prop51ColorIndex
 90
      256
102
RTVSPost2010Prop51ColorRGB
 90
-16777216
102
RTVSPost2010PropOp51
 70
     0
102
RTVSPost2010Prop52
140
1.0
102
RTVSPost2010PropOp52
 70
     0
102
RTVSPost2010Prop53
 90
        2
102
RTVSPost2010PropOp53
 70
     1
102
RTVSPost2010Prop54
  1
strokes_ogs.tif
102
RTVSPost2010PropOp54
 70
     1
102
RTVSPost2010Prop55
280
     0
102
RTVSPost2010PropOp55
 70
     1
102
RTVSPost2010Prop56
140
1.0
102
RTVSPost2010PropOp56
 70
     1
102
RTVSPost2010Prop57
140
1.0
102
RTVSPost2010PropOp57
 70
     1
102
RTVSPropertyOp0
 70
     1
102
RTVSPropertyOp1
 70
     1
102
RTVSPropertyOp2
 70
     1
102
RTVSPropertyOp3
 70
     1
102
RTVSPropertyOp4
 70
     1
102
RTVSPropertyOp5
 70
     1
102
RTVSPropertyOp6
 70
     1
102
RTVSPropertyOp7
 70
     1
102
RTVSPropertyOp8
 70
     1
102
RTVSPropertyOp9
 70
     1
102
RTVSPropertyOp10
 70
     1
102
RTVSPropertyOp11
 70
     1
102
RTVSPropertyOp12
 70
     1
102
RTVSPropertyOp13
 70
     1
102
RTVSPropertyOp14
 70
     1
102
RTVSPropertyOp15
 70
     1
102
RTVSPropertyOp16
 70
     1
102
RTVSPropertyOp17
 70
     1
102
RTVSPropertyOp18
 70
     1
102
RTVSPropertyOp19
 70
     1
102
RTVSPropertyOp20
 70
     1
102
RTVSPropertyOp21
 70
     1
102
RTVSPropertyOp22
 70
     1
102
RTVSPropertyOp23
 70
     1
102
RTVSPropertyOp24
 70
     1
102
RTVSPropertyOp25
 70
     1
102
RTVSPropertyOp26
 70
     1
102
RTVSPropertyOp27
 70
     1
102
RTVSPropertyOp28
 70
     1
102
RTVSPropertyOp29
 70
     1
102
RTVSPropertyOp30
 70
     1
102
RTVSPropertyOp31
 70
     1
102
RTVSPropertyOp32
 70
     1
102
RTVSPropertyOp33
 70
     1
102
RTVSPropertyOp34
 70
     1
102
RTVSPropertyOp35
 70
     1
102
RTVSPropertyOp36
 70
     1
102
RTVSPropertyOp37
 70
     1
102
RTVSPropertyOp38
 70
     1
102
RTVSPropertyOp39
 70
     1
102
RTVSPropertyOp40
 70
     1
102
RTVSPropertyOp41
 70
     1
102
RTVSPropertyOp42
 70
     1
102
RTVSPropertyOp43
 70
     1
102
RTVSPropertyOp44
 70
     1
102
RTVSPropertyOp45
 70
     1
102
RTVSPropertyOp46
 70
     1
102
RTVSPropertyOp47
 70
     1
102
RTVSPropertyOp48
 70
     1
102
RTVSPropertyOp49
 70
     1
102
RTVSPropertyOp50
 70
     1
102
RTVSPropertyOp51
 70
     0
102
RTVSPropertyOp52
 70
     0
102
RTVSPropertyOp53
 70
     1
102
RTVSPropertyOp54
 70
     1
102
RTVSPropertyOp55
 70
     1
102
RTVSPropertyOp56
 70
     1
102
RTVSPropertyOp57
 70
     1
102
RTVSPropertyOp58
 70
     1
102
RTVSPropertyOp59
 70
     1
102
RTVSPropertyOp60
 70
     1
102
RTVSPropertyOp61
 70
     1
102
RTVSPropertyOp62
 70
     1
  0
XRECORD
  5
26B4
102
{ACAD_REACTORS
330
26B3
102
}
330
26B3
100
AcDbXrecord
280
     1
102
RTVSPost2010Prop28
280
     0
102
RTVSPost2010PropOp28
 70
     1
102
RTVSPost2010Prop29
280
     1
102
RTVSPost2010PropOp29
 70
     1
102
RTVSPost2010Prop30
280
     1
102
RTVSPost2010PropOp30
 70
     1
102
RTVSPost2010Prop31
280
     0
102
RTVSPost2010PropOp31
 70
     1
102
RTVSPost2010Prop32
280
     0
102
RTVSPost2010PropOp32
 70
     1
102
RTVSPost2010Prop33
280
     0
102
RTVSPost2010PropOp33
 70
     1
102
RTVSPost2010Prop34
280
     0
102
RTVSPost2010PropOp34
 70
     1
102
RTVSPost2010Prop35
280
     0
102
RTVSPost2010PropOp35
 70
     1
102
RTVSPost2010Prop36
280
     0
102
RTVSPost2010PropOp36
 70
     1
102
RTVSPost2010Prop37
 90
       50
102
RTVSPost2010PropOp37
 70
     1
102
RTVSPost2010Prop38
140
0.0
102
RTVSPost2010PropOp38
 70
     1
102
RTVSPost2010Prop39
140
1.0
102
RTVSPost2010PropOp39
 70
     1
102
RTVSPost2010Prop40
 90
        0
102
RTVSPost2010PropOp40
 70
     1
102
RTVSPost2010Prop41ColorIndex
 90
       18
102
RTVSPost2010Prop41ColorRGB
 90
        0
102
RTVSPost2010PropOp41
 70
     1
102
RTVSPost2010Prop42
 90
       50
102
RTVSPost2010PropOp42
 70
     1
102
RTVSPost2010Prop43
 90
        3
102
RTVSPost2010PropOp43
 70
     1
102
RTVSPost2010Prop44ColorIndex
 90
        5
102
RTVSPost2010Prop44ColorRGB
 90
      255
102
RTVSPost2010PropOp44
 70
     1
102
RTVSPost2010Prop45
280
     0
102
RTVSPost2010PropOp45
 70
     1
102
RTVSPost2010Prop46
 90
       50
102
RTVSPost2010PropOp46
 70
     1
102
RTVSPost2010Prop47
 90
       50
102
RTVSPost2010PropOp47
 70
     1
102
RTVSPost2010Prop48
 90
       50
102
RTVSPost2010PropOp48
 70
     1
102
RTVSPost2010Prop49
280
     0
102
RTVSPost2010PropOp49
 70
     1
102
RTVSPost2010Prop50
 90
       50
102
RTVSPost2010PropOp50
 70
     1
102
RTVSPost2010Prop51ColorIndex
 90
      256
102
RTVSPost2010Prop51ColorRGB
 90
-16777216
102
RTVSPost2010PropOp51
 70
     0
102
RTVSPost2010Prop52
140
1.0
102
RTVSPost2010PropOp52
 70
     0
102
RTVSPost2010Prop53
 90
        2
102
RTVSPost2010PropOp53
 70
     1
102
RTVSPost2010Prop54
  1
strokes_ogs.tif
102
RTVSPost2010PropOp54
 70
     1
102
RTVSPost2010Prop55
280
     0
102
RTVSPost2010PropOp55
 70
     1
102
RTVSPost2010Prop56
140
1.0
102
RTVSPost2010PropOp56
 70
     1
102
RTVSPost2010Prop57
140
1.0
102
RTVSPost2010PropOp57
 70
     1
102
RTVSPropertyOp0
 70
     0
102
RTVSPropertyOp1
 70
     0
102
RTVSPropertyOp2
 70
     0
102
RTVSPropertyOp3
 70
     0
102
RTVSPropertyOp4
 70
     0
102
RTVSPropertyOp5
 70
     0
102
RTVSPropertyOp6
 70
     0
102
RTVSPropertyOp7
 70
     0
102
RTVSPropertyOp8
 70
     0
102
RTVSPropertyOp9
 70
     0
102
RTVSPropertyOp10
 70
     0
102
RTVSPropertyOp11
 70
     0
102
RTVSPropertyOp12
 70
     0
102
RTVSPropertyOp13
 70
     0
102
RTVSPropertyOp14
 70
     2
102
RTVSPropertyOp15
 70
     0
102
RTVSPropertyOp16
 70
     0
102
RTVSPropertyOp17
 70
     0
102
RTVSPropertyOp18
 70
     0
102
RTVSPropertyOp19
 70
     0
102
RTVSPropertyOp20
 70
     0
102
RTVSPropertyOp21
 70
     0
102
RTVSPropertyOp22
 70
     0
102
RTVSPropertyOp23
 70
     0
102
RTVSPropertyOp24
 70
     0
102
RTVSPropertyOp25
 70
     0
102
RTVSPropertyOp26
 70
     0
102
RTVSPropertyOp27
 70
     0
102
RTVSPropertyOp28
 70
     1
102
RTVSPropertyOp29
 70
     1
102
RTVSPropertyOp30
 70
     1
102
RTVSPropertyOp31
 70
     1
102
RTVSPropertyOp32
 70
     1
102
RTVSPropertyOp33
 70
     1
102
RTVSPropertyOp34
 70
     1
102
RTVSPropertyOp35
 70
     1
102
RTVSPropertyOp36
 70
     1
102
RTVSPropertyOp37
 70
     1
102
RTVSPropertyOp38
 70
     1
102
RTVSPropertyOp39
 70
     1
102
RTVSPropertyOp40
 70
     1
102
RTVSPropertyOp41
 70
     1
102
RTVSPropertyOp42
 70
     1
102
RTVSPropertyOp43
 70
     1
102
RTVSPropertyOp44
 70
     1
102
RTVSPropertyOp45
 70
     1
102
RTVSPropertyOp46
 70
     1
102
RTVSPropertyOp47
 70
     1
102
RTVSPropertyOp48
 70
     1
102
RTVSPropertyOp49
 70
     1
102
RTVSPropertyOp50
 70
     1
102
RTVSPropertyOp51
 70
     0
102
RTVSPropertyOp52
 70
     0
102
RTVSPropertyOp53
 70
     1
102
RTVSPropertyOp54
 70
     1
102
RTVSPropertyOp55
 70
     1
102
RTVSPropertyOp56
 70
     1
102
RTVSPropertyOp57
 70
     1
102
RTVSPropertyOp58
 70
     1
102
RTVSPropertyOp59
 70
     1
102
RTVSPropertyOp60
 70
     1
102
RTVSPropertyOp61
 70
     1
102
RTVSPropertyOp62
 70
     1
  0
XRECORD
  5
269A
102
{ACAD_REACTORS
330
2699
102
}
330
2699
100
AcDbXrecord
280
     1
102
RTVSPost2010Prop28
280
     0
102
RTVSPost2010PropOp28
 70
     1
102
RTVSPost2010Prop29
280
     1
102
RTVSPost2010PropOp29
 70
     1
102
RTVSPost2010Prop30
280
     1
102
RTVSPost2010PropOp30
 70
     1
102
RTVSPost2010Prop31
280
     0
102
RTVSPost2010PropOp31
 70
     1
102
RTVSPost2010Prop32
280
     0
102
RTVSPost2010PropOp32
 70
     1
102
RTVSPost2010Prop33
280
     0
102
RTVSPost2010PropOp33
 70
     1
102
RTVSPost2010Prop34
280
     0
102
RTVSPost2010PropOp34
 70
     1
102
RTVSPost2010Prop35
280
     0
102
RTVSPost2010PropOp35
 70
     1
102
RTVSPost2010Prop36
280
     0
102
RTVSPost2010PropOp36
 70
     1
102
RTVSPost2010Prop37
 90
       50
102
RTVSPost2010PropOp37
 70
     1
102
RTVSPost2010Prop38
140
0.0
102
RTVSPost2010PropOp38
 70
     1
102
RTVSPost2010Prop39
140
1.0
102
RTVSPost2010PropOp39
 70
     1
102
RTVSPost2010Prop40
 90
        0
102
RTVSPost2010PropOp40
 70
     1
102
RTVSPost2010Prop41ColorIndex
 90
       18
102
RTVSPost2010Prop41ColorRGB
 90
        0
102
RTVSPost2010PropOp41
 70
     1
102
RTVSPost2010Prop42
 90
       50
102
RTVSPost2010PropOp42
 70
     1
102
RTVSPost2010Prop43
 90
        3
102
RTVSPost2010PropOp43
 70
     1
102
RTVSPost2010Prop44ColorIndex
 90
        5
102
RTVSPost2010Prop44ColorRGB
 90
      255
102
RTVSPost2010PropOp44
 70
     1
102
RTVSPost2010Prop45
280
     0
102
RTVSPost2010PropOp45
 70
     1
102
RTVSPost2010Prop46
 90
       50
102
RTVSPost2010PropOp46
 70
     1
102
RTVSPost2010Prop47
 90
       50
102
RTVSPost2010PropOp47
 70
     1
102
RTVSPost2010Prop48
 90
       50
102
RTVSPost2010PropOp48
 70
     1
102
RTVSPost2010Prop49
280
     0
102
RTVSPost2010PropOp49
 70
     1
102
RTVSPost2010Prop50
 90
       50
102
RTVSPost2010PropOp50
 70
     1
102
RTVSPost2010Prop51ColorIndex
 90
      256
102
RTVSPost2010Prop51ColorRGB
 90
-16777216
102
RTVSPost2010PropOp51
 70
     0
102
RTVSPost2010Prop52
140
1.0
102
RTVSPost2010PropOp52
 70
     0
102
RTVSPost2010Prop53
 90
        2
102
RTVSPost2010PropOp53
 70
     1
102
RTVSPost2010Prop54
  1
strokes_ogs.tif
102
RTVSPost2010PropOp54
 70
     1
102
RTVSPost2010Prop55
280
     0
102
RTVSPost2010PropOp55
 70
     1
102
RTVSPost2010Prop56
140
1.0
102
RTVSPost2010PropOp56
 70
     1
102
RTVSPost2010Prop57
140
1.0
102
RTVSPost2010PropOp57
 70
     1
102
RTVSPropertyOp0
 70
     1
102
RTVSPropertyOp1
 70
     1
102
RTVSPropertyOp2
 70
     1
102
RTVSPropertyOp3
 70
     1
102
RTVSPropertyOp4
 70
     1
102
RTVSPropertyOp5
 70
     1
102
RTVSPropertyOp6
 70
     1
102
RTVSPropertyOp7
 70
     1
102
RTVSPropertyOp8
 70
     1
102
RTVSPropertyOp9
 70
     1
102
RTVSPropertyOp10
 70
     1
102
RTVSPropertyOp11
 70
     1
102
RTVSPropertyOp12
 70
     1
102
RTVSPropertyOp13
 70
     1
102
RTVSPropertyOp14
 70
     1
102
RTVSPropertyOp15
 70
     1
102
RTVSPropertyOp16
 70
     1
102
RTVSPropertyOp17
 70
     1
102
RTVSPropertyOp18
 70
     1
102
RTVSPropertyOp19
 70
     1
102
RTVSPropertyOp20
 70
     1
102
RTVSPropertyOp21
 70
     1
102
RTVSPropertyOp22
 70
     1
102
RTVSPropertyOp23
 70
     1
102
RTVSPropertyOp24
 70
     1
102
RTVSPropertyOp25
 70
     1
102
RTVSPropertyOp26
 70
     1
102
RTVSPropertyOp27
 70
     1
102
RTVSPropertyOp28
 70
     1
102
RTVSPropertyOp29
 70
     1
102
RTVSPropertyOp30
 70
     1
102
RTVSPropertyOp31
 70
     1
102
RTVSPropertyOp32
 70
     1
102
RTVSPropertyOp33
 70
     1
102
RTVSPropertyOp34
 70
     1
102
RTVSPropertyOp35
 70
     1
102
RTVSPropertyOp36
 70
     1
102
RTVSPropertyOp37
 70
     1
102
RTVSPropertyOp38
 70
     1
102
RTVSPropertyOp39
 70
     1
102
RTVSPropertyOp40
 70
     1
102
RTVSPropertyOp41
 70
     1
102
RTVSPropertyOp42
 70
     1
102
RTVSPropertyOp43
 70
     1
102
RTVSPropertyOp44
 70
     1
102
RTVSPropertyOp45
 70
     1
102
RTVSPropertyOp46
 70
     1
102
RTVSPropertyOp47
 70
     1
102
RTVSPropertyOp48
 70
     1
102
RTVSPropertyOp49
 70
     1
102
RTVSPropertyOp50
 70
     1
102
RTVSPropertyOp51
 70
     0
102
RTVSPropertyOp52
 70
     0
102
RTVSPropertyOp53
 70
     1
102
RTVSPropertyOp54
 70
     1
102
RTVSPropertyOp55
 70
     1
102
RTVSPropertyOp56
 70
     1
102
RTVSPropertyOp57
 70
     1
102
RTVSPropertyOp58
 70
     1
102
RTVSPropertyOp59
 70
     1
102
RTVSPropertyOp60
 70
     1
102
RTVSPropertyOp61
 70
     1
102
RTVSPropertyOp62
 70
     1
  0
XRECORD
  5
26C4
102
{ACAD_REACTORS
330
26C3
102
}
330
26C3
100
AcDbXrecord
280
     1
102
RTVSPost2010Prop28
280
     0
102
RTVSPost2010PropOp28
 70
     1
102
RTVSPost2010Prop29
280
     1
102
RTVSPost2010PropOp29
 70
     1
102
RTVSPost2010Prop30
280
     1
102
RTVSPost2010PropOp30
 70
     1
102
RTVSPost2010Prop31
280
     0
102
RTVSPost2010PropOp31
 70
     1
102
RTVSPost2010Prop32
280
     0
102
RTVSPost2010PropOp32
 70
     1
102
RTVSPost2010Prop33
280
     0
102
RTVSPost2010PropOp33
 70
     1
102
RTVSPost2010Prop34
280
     0
102
RTVSPost2010PropOp34
 70
     1
102
RTVSPost2010Prop35
280
     0
102
RTVSPost2010PropOp35
 70
     1
102
RTVSPost2010Prop36
280
     0
102
RTVSPost2010PropOp36
 70
     1
102
RTVSPost2010Prop37
 90
       50
102
RTVSPost2010PropOp37
 70
     1
102
RTVSPost2010Prop38
140
0.0
102
RTVSPost2010PropOp38
 70
     1
102
RTVSPost2010Prop39
140
1.0
102
RTVSPost2010PropOp39
 70
     1
102
RTVSPost2010Prop40
 90
        0
102
RTVSPost2010PropOp40
 70
     1
102
RTVSPost2010Prop41ColorIndex
 90
       18
102
RTVSPost2010Prop41ColorRGB
 90
        0
102
RTVSPost2010PropOp41
 70
     1
102
RTVSPost2010Prop42
 90
       50
102
RTVSPost2010PropOp42
 70
     1
102
RTVSPost2010Prop43
 90
        3
102
RTVSPost2010PropOp43
 70
     1
102
RTVSPost2010Prop44ColorIndex
 90
        5
102
RTVSPost2010Prop44ColorRGB
 90
      255
102
RTVSPost2010PropOp44
 70
     1
102
RTVSPost2010Prop45
280
     0
102
RTVSPost2010PropOp45
 70
     1
102
RTVSPost2010Prop46
 90
       50
102
RTVSPost2010PropOp46
 70
     1
102
RTVSPost2010Prop47
 90
       50
102
RTVSPost2010PropOp47
 70
     1
102
RTVSPost2010Prop48
 90
       50
102
RTVSPost2010PropOp48
 70
     1
102
RTVSPost2010Prop49
280
     0
102
RTVSPost2010PropOp49
 70
     1
102
RTVSPost2010Prop50
 90
       50
102
RTVSPost2010PropOp50
 70
     1
102
RTVSPost2010Prop51ColorIndex
 90
      256
102
RTVSPost2010Prop51ColorRGB
 90
-16777216
102
RTVSPost2010PropOp51
 70
     0
102
RTVSPost2010Prop52
140
1.0
102
RTVSPost2010PropOp52
 70
     0
102
RTVSPost2010Prop53
 90
        2
102
RTVSPost2010PropOp53
 70
     1
102
RTVSPost2010Prop54
  1
strokes_ogs.tif
102
RTVSPost2010PropOp54
 70
     1
102
RTVSPost2010Prop55
280
     0
102
RTVSPost2010PropOp55
 70
     1
102
RTVSPost2010Prop56
140
1.0
102
RTVSPost2010PropOp56
 70
     1
102
RTVSPost2010Prop57
140
1.0
102
RTVSPost2010PropOp57
 70
     1
102
RTVSPropertyOp0
 70
     1
102
RTVSPropertyOp1
 70
     1
102
RTVSPropertyOp2
 70
     1
102
RTVSPropertyOp3
 70
     1
102
RTVSPropertyOp4
 70
     1
102
RTVSPropertyOp5
 70
     1
102
RTVSPropertyOp6
 70
     1
102
RTVSPropertyOp7
 70
     1
102
RTVSPropertyOp8
 70
     1
102
RTVSPropertyOp9
 70
     1
102
RTVSPropertyOp10
 70
     1
102
RTVSPropertyOp11
 70
     1
102
RTVSPropertyOp12
 70
     1
102
RTVSPropertyOp13
 70
     1
102
RTVSPropertyOp14
 70
     1
102
RTVSPropertyOp15
 70
     1
102
RTVSPropertyOp16
 70
     1
102
RTVSPropertyOp17
 70
     1
102
RTVSPropertyOp18
 70
     1
102
RTVSPropertyOp19
 70
     1
102
RTVSPropertyOp20
 70
     1
102
RTVSPropertyOp21
 70
     1
102
RTVSPropertyOp22
 70
     1
102
RTVSPropertyOp23
 70
     1
102
RTVSPropertyOp24
 70
     1
102
RTVSPropertyOp25
 70
     1
102
RTVSPropertyOp26
 70
     1
102
RTVSPropertyOp27
 70
     1
102
RTVSPropertyOp28
 70
     1
102
RTVSPropertyOp29
 70
     1
102
RTVSPropertyOp30
 70
     1
102
RTVSPropertyOp31
 70
     1
102
RTVSPropertyOp32
 70
     1
102
RTVSPropertyOp33
 70
     1
102
RTVSPropertyOp34
 70
     1
102
RTVSPropertyOp35
 70
     1
102
RTVSPropertyOp36
 70
     1
102
RTVSPropertyOp37
 70
     1
102
RTVSPropertyOp38
 70
     1
102
RTVSPropertyOp39
 70
     1
102
RTVSPropertyOp40
 70
     1
102
RTVSPropertyOp41
 70
     1
102
RTVSPropertyOp42
 70
     1
102
RTVSPropertyOp43
 70
     1
102
RTVSPropertyOp44
 70
     1
102
RTVSPropertyOp45
 70
     1
102
RTVSPropertyOp46
 70
     1
102
RTVSPropertyOp47
 70
     1
102
RTVSPropertyOp48
 70
     1
102
RTVSPropertyOp49
 70
     1
102
RTVSPropertyOp50
 70
     1
102
RTVSPropertyOp51
 70
     0
102
RTVSPropertyOp52
 70
     0
102
RTVSPropertyOp53
 70
     1
102
RTVSPropertyOp54
 70
     1
102
RTVSPropertyOp55
 70
     1
102
RTVSPropertyOp56
 70
     1
102
RTVSPropertyOp57
 70
     1
102
RTVSPropertyOp58
 70
     1
102
RTVSPropertyOp59
 70
     1
102
RTVSPropertyOp60
 70
     1
102
RTVSPropertyOp61
 70
     1
102
RTVSPropertyOp62
 70
     1
  0
XRECORD
  5
26C2
102
{ACAD_REACTORS
330
26C1
102
}
330
26C1
100
AcDbXrecord
280
     1
102
RTVSPost2010Prop28
280
     0
102
RTVSPost2010PropOp28
 70
     1
102
RTVSPost2010Prop29
280
     1
102
RTVSPost2010PropOp29
 70
     1
102
RTVSPost2010Prop30
280
     1
102
RTVSPost2010PropOp30
 70
     1
102
RTVSPost2010Prop31
280
     0
102
RTVSPost2010PropOp31
 70
     1
102
RTVSPost2010Prop32
280
     0
102
RTVSPost2010PropOp32
 70
     1
102
RTVSPost2010Prop33
280
     0
102
RTVSPost2010PropOp33
 70
     1
102
RTVSPost2010Prop34
280
     0
102
RTVSPost2010PropOp34
 70
     1
102
RTVSPost2010Prop35
280
     0
102
RTVSPost2010PropOp35
 70
     1
102
RTVSPost2010Prop36
280
     0
102
RTVSPost2010PropOp36
 70
     1
102
RTVSPost2010Prop37
 90
       50
102
RTVSPost2010PropOp37
 70
     1
102
RTVSPost2010Prop38
140
0.0
102
RTVSPost2010PropOp38
 70
     1
102
RTVSPost2010Prop39
140
1.0
102
RTVSPost2010PropOp39
 70
     1
102
RTVSPost2010Prop40
 90
        0
102
RTVSPost2010PropOp40
 70
     1
102
RTVSPost2010Prop41ColorIndex
 90
       18
102
RTVSPost2010Prop41ColorRGB
 90
        0
102
RTVSPost2010PropOp41
 70
     1
102
RTVSPost2010Prop42
 90
       50
102
RTVSPost2010PropOp42
 70
     1
102
RTVSPost2010Prop43
 90
        3
102
RTVSPost2010PropOp43
 70
     1
102
RTVSPost2010Prop44ColorIndex
 90
        5
102
RTVSPost2010Prop44ColorRGB
 90
      255
102
RTVSPost2010PropOp44
 70
     1
102
RTVSPost2010Prop45
280
     0
102
RTVSPost2010PropOp45
 70
     1
102
RTVSPost2010Prop46
 90
       50
102
RTVSPost2010PropOp46
 70
     1
102
RTVSPost2010Prop47
 90
       50
102
RTVSPost2010PropOp47
 70
     1
102
RTVSPost2010Prop48
 90
       50
102
RTVSPost2010PropOp48
 70
     1
102
RTVSPost2010Prop49
280
     0
102
RTVSPost2010PropOp49
 70
     1
102
RTVSPost2010Prop50
 90
       50
102
RTVSPost2010PropOp50
 70
     1
102
RTVSPost2010Prop51ColorIndex
 90
      256
102
RTVSPost2010Prop51ColorRGB
 90
-16777216
102
RTVSPost2010PropOp51
 70
     0
102
RTVSPost2010Prop52
140
1.0
102
RTVSPost2010PropOp52
 70
     0
102
RTVSPost2010Prop53
 90
        2
102
RTVSPost2010PropOp53
 70
     1
102
RTVSPost2010Prop54
  1
strokes_ogs.tif
102
RTVSPost2010PropOp54
 70
     1
102
RTVSPost2010Prop55
280
     0
102
RTVSPost2010PropOp55
 70
     1
102
RTVSPost2010Prop56
140
1.0
102
RTVSPost2010PropOp56
 70
     1
102
RTVSPost2010Prop57
140
1.0
102
RTVSPost2010PropOp57
 70
     1
102
RTVSPropertyOp0
 70
     1
102
RTVSPropertyOp1
 70
     1
102
RTVSPropertyOp2
 70
     1
102
RTVSPropertyOp3
 70
     1
102
RTVSPropertyOp4
 70
     1
102
RTVSPropertyOp5
 70
     1
102
RTVSPropertyOp6
 70
     1
102
RTVSPropertyOp7
 70
     1
102
RTVSPropertyOp8
 70
     1
102
RTVSPropertyOp9
 70
     1
102
RTVSPropertyOp10
 70
     1
102
RTVSPropertyOp11
 70
     1
102
RTVSPropertyOp12
 70
     1
102
RTVSPropertyOp13
 70
     1
102
RTVSPropertyOp14
 70
     1
102
RTVSPropertyOp15
 70
     1
102
RTVSPropertyOp16
 70
     1
102
RTVSPropertyOp17
 70
     1
102
RTVSPropertyOp18
 70
     1
102
RTVSPropertyOp19
 70
     1
102
RTVSPropertyOp20
 70
     1
102
RTVSPropertyOp21
 70
     1
102
RTVSPropertyOp22
 70
     1
102
RTVSPropertyOp23
 70
     1
102
RTVSPropertyOp24
 70
     1
102
RTVSPropertyOp25
 70
     1
102
RTVSPropertyOp26
 70
     1
102
RTVSPropertyOp27
 70
     1
102
RTVSPropertyOp28
 70
     1
102
RTVSPropertyOp29
 70
     1
102
RTVSPropertyOp30
 70
     1
102
RTVSPropertyOp31
 70
     1
102
RTVSPropertyOp32
 70
     1
102
RTVSPropertyOp33
 70
     1
102
RTVSPropertyOp34
 70
     1
102
RTVSPropertyOp35
 70
     1
102
RTVSPropertyOp36
 70
     1
102
RTVSPropertyOp37
 70
     1
102
RTVSPropertyOp38
 70
     1
102
RTVSPropertyOp39
 70
     1
102
RTVSPropertyOp40
 70
     1
102
RTVSPropertyOp41
 70
     1
102
RTVSPropertyOp42
 70
     1
102
RTVSPropertyOp43
 70
     1
102
RTVSPropertyOp44
 70
     1
102
RTVSPropertyOp45
 70
     1
102
RTVSPropertyOp46
 70
     1
102
RTVSPropertyOp47
 70
     1
102
RTVSPropertyOp48
 70
     1
102
RTVSPropertyOp49
 70
     1
102
RTVSPropertyOp50
 70
     1
102
RTVSPropertyOp51
 70
     0
102
RTVSPropertyOp52
 70
     0
102
RTVSPropertyOp53
 70
     1
102
RTVSPropertyOp54
 70
     1
102
RTVSPropertyOp55
 70
     1
102
RTVSPropertyOp56
 70
     1
102
RTVSPropertyOp57
 70
     1
102
RTVSPropertyOp58
 70
     1
102
RTVSPropertyOp59
 70
     1
102
RTVSPropertyOp60
 70
     1
102
RTVSPropertyOp61
 70
     1
102
RTVSPropertyOp62
 70
     1
  0
XRECORD
  5
26BC
102
{ACAD_REACTORS
330
26BB
102
}
330
26BB
100
AcDbXrecord
280
     1
102
RTVSPost2010Prop28
280
     0
102
RTVSPost2010PropOp28
 70
     1
102
RTVSPost2010Prop29
280
     1
102
RTVSPost2010PropOp29
 70
     1
102
RTVSPost2010Prop30
280
     1
102
RTVSPost2010PropOp30
 70
     1
102
RTVSPost2010Prop31
280
     0
102
RTVSPost2010PropOp31
 70
     1
102
RTVSPost2010Prop32
280
     0
102
RTVSPost2010PropOp32
 70
     1
102
RTVSPost2010Prop33
280
     0
102
RTVSPost2010PropOp33
 70
     1
102
RTVSPost2010Prop34
280
     0
102
RTVSPost2010PropOp34
 70
     1
102
RTVSPost2010Prop35
280
     0
102
RTVSPost2010PropOp35
 70
     1
102
RTVSPost2010Prop36
280
     0
102
RTVSPost2010PropOp36
 70
     1
102
RTVSPost2010Prop37
 90
       50
102
RTVSPost2010PropOp37
 70
     1
102
RTVSPost2010Prop38
140
0.0
102
RTVSPost2010PropOp38
 70
     1
102
RTVSPost2010Prop39
140
1.0
102
RTVSPost2010PropOp39
 70
     1
102
RTVSPost2010Prop40
 90
        0
102
RTVSPost2010PropOp40
 70
     1
102
RTVSPost2010Prop41ColorIndex
 90
       18
102
RTVSPost2010Prop41ColorRGB
 90
        0
102
RTVSPost2010PropOp41
 70
     1
102
RTVSPost2010Prop42
 90
       50
102
RTVSPost2010PropOp42
 70
     1
102
RTVSPost2010Prop43
 90
        3
102
RTVSPost2010PropOp43
 70
     1
102
RTVSPost2010Prop44ColorIndex
 90
        5
102
RTVSPost2010Prop44ColorRGB
 90
      255
102
RTVSPost2010PropOp44
 70
     1
102
RTVSPost2010Prop45
280
     0
102
RTVSPost2010PropOp45
 70
     1
102
RTVSPost2010Prop46
 90
       50
102
RTVSPost2010PropOp46
 70
     1
102
RTVSPost2010Prop47
 90
       50
102
RTVSPost2010PropOp47
 70
     1
102
RTVSPost2010Prop48
 90
       50
102
RTVSPost2010PropOp48
 70
     1
102
RTVSPost2010Prop49
280
     0
102
RTVSPost2010PropOp49
 70
     1
102
RTVSPost2010Prop50
 90
       50
102
RTVSPost2010PropOp50
 70
     1
102
RTVSPost2010Prop51ColorIndex
 90
      256
102
RTVSPost2010Prop51ColorRGB
 90
-16777216
102
RTVSPost2010PropOp51
 70
     0
102
RTVSPost2010Prop52
140
1.0
102
RTVSPost2010PropOp52
 70
     0
102
RTVSPost2010Prop53
 90
        2
102
RTVSPost2010PropOp53
 70
     1
102
RTVSPost2010Prop54
  1
strokes_ogs.tif
102
RTVSPost2010PropOp54
 70
     1
102
RTVSPost2010Prop55
280
     0
102
RTVSPost2010PropOp55
 70
     1
102
RTVSPost2010Prop56
140
1.0
102
RTVSPost2010PropOp56
 70
     1
102
RTVSPost2010Prop57
140
1.0
102
RTVSPost2010PropOp57
 70
     1
102
RTVSPropertyOp0
 70
     1
102
RTVSPropertyOp1
 70
     1
102
RTVSPropertyOp2
 70
     1
102
RTVSPropertyOp3
 70
     1
102
RTVSPropertyOp4
 70
     1
102
RTVSPropertyOp5
 70
     1
102
RTVSPropertyOp6
 70
     1
102
RTVSPropertyOp7
 70
     1
102
RTVSPropertyOp8
 70
     1
102
RTVSPropertyOp9
 70
     1
102
RTVSPropertyOp10
 70
     1
102
RTVSPropertyOp11
 70
     1
102
RTVSPropertyOp12
 70
     1
102
RTVSPropertyOp13
 70
     1
102
RTVSPropertyOp14
 70
     1
102
RTVSPropertyOp15
 70
     1
102
RTVSPropertyOp16
 70
     1
102
RTVSPropertyOp17
 70
     1
102
RTVSPropertyOp18
 70
     1
102
RTVSPropertyOp19
 70
     1
102
RTVSPropertyOp20
 70
     1
102
RTVSPropertyOp21
 70
     1
102
RTVSPropertyOp22
 70
     1
102
RTVSPropertyOp23
 70
     1
102
RTVSPropertyOp24
 70
     1
102
RTVSPropertyOp25
 70
     1
102
RTVSPropertyOp26
 70
     1
102
RTVSPropertyOp27
 70
     1
102
RTVSPropertyOp28
 70
     1
102
RTVSPropertyOp29
 70
     1
102
RTVSPropertyOp30
 70
     1
102
RTVSPropertyOp31
 70
     1
102
RTVSPropertyOp32
 70
     1
102
RTVSPropertyOp33
 70
     1
102
RTVSPropertyOp34
 70
     1
102
RTVSPropertyOp35
 70
     1
102
RTVSPropertyOp36
 70
     1
102
RTVSPropertyOp37
 70
     1
102
RTVSPropertyOp38
 70
     1
102
RTVSPropertyOp39
 70
     1
102
RTVSPropertyOp40
 70
     1
102
RTVSPropertyOp41
 70
     1
102
RTVSPropertyOp42
 70
     1
102
RTVSPropertyOp43
 70
     1
102
RTVSPropertyOp44
 70
     1
102
RTVSPropertyOp45
 70
     1
102
RTVSPropertyOp46
 70
     1
102
RTVSPropertyOp47
 70
     1
102
RTVSPropertyOp48
 70
     1
102
RTVSPropertyOp49
 70
     1
102
RTVSPropertyOp50
 70
     1
102
RTVSPropertyOp51
 70
     0
102
RTVSPropertyOp52
 70
     0
102
RTVSPropertyOp53
 70
     1
102
RTVSPropertyOp54
 70
     1
102
RTVSPropertyOp55
 70
     1
102
RTVSPropertyOp56
 70
     1
102
RTVSPropertyOp57
 70
     1
102
RTVSPropertyOp58
 70
     1
102
RTVSPropertyOp59
 70
     1
102
RTVSPropertyOp60
 70
     1
102
RTVSPropertyOp61
 70
     1
102
RTVSPropertyOp62
 70
     1
  0
XRECORD
  5
26BE
102
{ACAD_REACTORS
330
26BD
102
}
330
26BD
100
AcDbXrecord
280
     1
102
RTVSPost2010Prop28
280
     0
102
RTVSPost2010PropOp28
 70
     1
102
RTVSPost2010Prop29
280
     1
102
RTVSPost2010PropOp29
 70
     1
102
RTVSPost2010Prop30
280
     1
102
RTVSPost2010PropOp30
 70
     1
102
RTVSPost2010Prop31
280
     0
102
RTVSPost2010PropOp31
 70
     1
102
RTVSPost2010Prop32
280
     0
102
RTVSPost2010PropOp32
 70
     1
102
RTVSPost2010Prop33
280
     0
102
RTVSPost2010PropOp33
 70
     1
102
RTVSPost2010Prop34
280
     0
102
RTVSPost2010PropOp34
 70
     1
102
RTVSPost2010Prop35
280
     0
102
RTVSPost2010PropOp35
 70
     1
102
RTVSPost2010Prop36
280
     0
102
RTVSPost2010PropOp36
 70
     1
102
RTVSPost2010Prop37
 90
       50
102
RTVSPost2010PropOp37
 70
     1
102
RTVSPost2010Prop38
140
0.0
102
RTVSPost2010PropOp38
 70
     1
102
RTVSPost2010Prop39
140
1.0
102
RTVSPost2010PropOp39
 70
     1
102
RTVSPost2010Prop40
 90
        0
102
RTVSPost2010PropOp40
 70
     1
102
RTVSPost2010Prop41ColorIndex
 90
       18
102
RTVSPost2010Prop41ColorRGB
 90
        0
102
RTVSPost2010PropOp41
 70
     1
102
RTVSPost2010Prop42
 90
       50
102
RTVSPost2010PropOp42
 70
     1
102
RTVSPost2010Prop43
 90
        3
102
RTVSPost2010PropOp43
 70
     1
102
RTVSPost2010Prop44ColorIndex
 90
        5
102
RTVSPost2010Prop44ColorRGB
 90
      255
102
RTVSPost2010PropOp44
 70
     1
102
RTVSPost2010Prop45
280
     0
102
RTVSPost2010PropOp45
 70
     1
102
RTVSPost2010Prop46
 90
       50
102
RTVSPost2010PropOp46
 70
     1
102
RTVSPost2010Prop47
 90
       50
102
RTVSPost2010PropOp47
 70
     1
102
RTVSPost2010Prop48
 90
       50
102
RTVSPost2010PropOp48
 70
     1
102
RTVSPost2010Prop49
280
     0
102
RTVSPost2010PropOp49
 70
     1
102
RTVSPost2010Prop50
 90
       50
102
RTVSPost2010PropOp50
 70
     1
102
RTVSPost2010Prop51ColorIndex
 90
      256
102
RTVSPost2010Prop51ColorRGB
 90
-16777216
102
RTVSPost2010PropOp51
 70
     0
102
RTVSPost2010Prop52
140
1.0
102
RTVSPost2010PropOp52
 70
     0
102
RTVSPost2010Prop53
 90
        2
102
RTVSPost2010PropOp53
 70
     1
102
RTVSPost2010Prop54
  1
strokes_ogs.tif
102
RTVSPost2010PropOp54
 70
     1
102
RTVSPost2010Prop55
280
     0
102
RTVSPost2010PropOp55
 70
     1
102
RTVSPost2010Prop56
140
1.0
102
RTVSPost2010PropOp56
 70
     1
102
RTVSPost2010Prop57
140
1.0
102
RTVSPost2010PropOp57
 70
     1
102
RTVSPropertyOp0
 70
     1
102
RTVSPropertyOp1
 70
     1
102
RTVSPropertyOp2
 70
     1
102
RTVSPropertyOp3
 70
     1
102
RTVSPropertyOp4
 70
     1
102
RTVSPropertyOp5
 70
     1
102
RTVSPropertyOp6
 70
     1
102
RTVSPropertyOp7
 70
     1
102
RTVSPropertyOp8
 70
     1
102
RTVSPropertyOp9
 70
     1
102
RTVSPropertyOp10
 70
     1
102
RTVSPropertyOp11
 70
     1
102
RTVSPropertyOp12
 70
     1
102
RTVSPropertyOp13
 70
     1
102
RTVSPropertyOp14
 70
     1
102
RTVSPropertyOp15
 70
     1
102
RTVSPropertyOp16
 70
     1
102
RTVSPropertyOp17
 70
     1
102
RTVSPropertyOp18
 70
     1
102
RTVSPropertyOp19
 70
     1
102
RTVSPropertyOp20
 70
     1
102
RTVSPropertyOp21
 70
     1
102
RTVSPropertyOp22
 70
     1
102
RTVSPropertyOp23
 70
     1
102
RTVSPropertyOp24
 70
     1
102
RTVSPropertyOp25
 70
     1
102
RTVSPropertyOp26
 70
     1
102
RTVSPropertyOp27
 70
     1
102
RTVSPropertyOp28
 70
     1
102
RTVSPropertyOp29
 70
     1
102
RTVSPropertyOp30
 70
     1
102
RTVSPropertyOp31
 70
     1
102
RTVSPropertyOp32
 70
     1
102
RTVSPropertyOp33
 70
     1
102
RTVSPropertyOp34
 70
     1
102
RTVSPropertyOp35
 70
     1
102
RTVSPropertyOp36
 70
     1
102
RTVSPropertyOp37
 70
     1
102
RTVSPropertyOp38
 70
     1
102
RTVSPropertyOp39
 70
     1
102
RTVSPropertyOp40
 70
     1
102
RTVSPropertyOp41
 70
     1
102
RTVSPropertyOp42
 70
     1
102
RTVSPropertyOp43
 70
     1
102
RTVSPropertyOp44
 70
     1
102
RTVSPropertyOp45
 70
     1
102
RTVSPropertyOp46
 70
     1
102
RTVSPropertyOp47
 70
     1
102
RTVSPropertyOp48
 70
     1
102
RTVSPropertyOp49
 70
     1
102
RTVSPropertyOp50
 70
     1
102
RTVSPropertyOp51
 70
     0
102
RTVSPropertyOp52
 70
     0
102
RTVSPropertyOp53
 70
     1
102
RTVSPropertyOp54
 70
     1
102
RTVSPropertyOp55
 70
     1
102
RTVSPropertyOp56
 70
     1
102
RTVSPropertyOp57
 70
     1
102
RTVSPropertyOp58
 70
     1
102
RTVSPropertyOp59
 70
     1
102
RTVSPropertyOp60
 70
     1
102
RTVSPropertyOp61
 70
     1
102
RTVSPropertyOp62
 70
     1
  0
XRECORD
  5
26A0
102
{ACAD_REACTORS
330
269F
102
}
330
269F
100
AcDbXrecord
280
     1
102
RTVSPost2010Prop28
280
     0
102
RTVSPost2010PropOp28
 70
     1
102
RTVSPost2010Prop29
280
     1
102
RTVSPost2010PropOp29
 70
     1
102
RTVSPost2010Prop30
280
     1
102
RTVSPost2010PropOp30
 70
     1
102
RTVSPost2010Prop31
280
     0
102
RTVSPost2010PropOp31
 70
     1
102
RTVSPost2010Prop32
280
     0
102
RTVSPost2010PropOp32
 70
     1
102
RTVSPost2010Prop33
280
     0
102
RTVSPost2010PropOp33
 70
     1
102
RTVSPost2010Prop34
280
     0
102
RTVSPost2010PropOp34
 70
     1
102
RTVSPost2010Prop35
280
     0
102
RTVSPost2010PropOp35
 70
     1
102
RTVSPost2010Prop36
280
     0
102
RTVSPost2010PropOp36
 70
     1
102
RTVSPost2010Prop37
 90
       50
102
RTVSPost2010PropOp37
 70
     1
102
RTVSPost2010Prop38
140
0.0
102
RTVSPost2010PropOp38
 70
     1
102
RTVSPost2010Prop39
140
1.0
102
RTVSPost2010PropOp39
 70
     1
102
RTVSPost2010Prop40
 90
        0
102
RTVSPost2010PropOp40
 70
     1
102
RTVSPost2010Prop41ColorIndex
 90
       18
102
RTVSPost2010Prop41ColorRGB
 90
        0
102
RTVSPost2010PropOp41
 70
     1
102
RTVSPost2010Prop42
 90
       50
102
RTVSPost2010PropOp42
 70
     1
102
RTVSPost2010Prop43
 90
        3
102
RTVSPost2010PropOp43
 70
     1
102
RTVSPost2010Prop44ColorIndex
 90
        5
102
RTVSPost2010Prop44ColorRGB
 90
      255
102
RTVSPost2010PropOp44
 70
     1
102
RTVSPost2010Prop45
280
     0
102
RTVSPost2010PropOp45
 70
     1
102
RTVSPost2010Prop46
 90
       50
102
RTVSPost2010PropOp46
 70
     1
102
RTVSPost2010Prop47
 90
       50
102
RTVSPost2010PropOp47
 70
     1
102
RTVSPost2010Prop48
 90
       50
102
RTVSPost2010PropOp48
 70
     1
102
RTVSPost2010Prop49
280
     0
102
RTVSPost2010PropOp49
 70
     1
102
RTVSPost2010Prop50
 90
       50
102
RTVSPost2010PropOp50
 70
     1
102
RTVSPost2010Prop51ColorIndex
 90
      256
102
RTVSPost2010Prop51ColorRGB
 90
-16777216
102
RTVSPost2010PropOp51
 70
     0
102
RTVSPost2010Prop52
140
1.0
102
RTVSPost2010PropOp52
 70
     0
102
RTVSPost2010Prop53
 90
        2
102
RTVSPost2010PropOp53
 70
     1
102
RTVSPost2010Prop54
  1
strokes_ogs.tif
102
RTVSPost2010PropOp54
 70
     1
102
RTVSPost2010Prop55
280
     0
102
RTVSPost2010PropOp55
 70
     1
102
RTVSPost2010Prop56
140
1.0
102
RTVSPost2010PropOp56
 70
     1
102
RTVSPost2010Prop57
140
1.0
102
RTVSPost2010PropOp57
 70
     1
102
RTVSPropertyOp0
 70
     1
102
RTVSPropertyOp1
 70
     1
102
RTVSPropertyOp2
 70
     1
102
RTVSPropertyOp3
 70
     1
102
RTVSPropertyOp4
 70
     1
102
RTVSPropertyOp5
 70
     1
102
RTVSPropertyOp6
 70
     1
102
RTVSPropertyOp7
 70
     1
102
RTVSPropertyOp8
 70
     1
102
RTVSPropertyOp9
 70
     1
102
RTVSPropertyOp10
 70
     1
102
RTVSPropertyOp11
 70
     1
102
RTVSPropertyOp12
 70
     1
102
RTVSPropertyOp13
 70
     1
102
RTVSPropertyOp14
 70
     1
102
RTVSPropertyOp15
 70
     1
102
RTVSPropertyOp16
 70
     1
102
RTVSPropertyOp17
 70
     1
102
RTVSPropertyOp18
 70
     1
102
RTVSPropertyOp19
 70
     1
102
RTVSPropertyOp20
 70
     1
102
RTVSPropertyOp21
 70
     1
102
RTVSPropertyOp22
 70
     1
102
RTVSPropertyOp23
 70
     1
102
RTVSPropertyOp24
 70
     1
102
RTVSPropertyOp25
 70
     1
102
RTVSPropertyOp26
 70
     1
102
RTVSPropertyOp27
 70
     1
102
RTVSPropertyOp28
 70
     1
102
RTVSPropertyOp29
 70
     1
102
RTVSPropertyOp30
 70
     1
102
RTVSPropertyOp31
 70
     1
102
RTVSPropertyOp32
 70
     1
102
RTVSPropertyOp33
 70
     1
102
RTVSPropertyOp34
 70
     1
102
RTVSPropertyOp35
 70
     1
102
RTVSPropertyOp36
 70
     1
102
RTVSPropertyOp37
 70
     1
102
RTVSPropertyOp38
 70
     1
102
RTVSPropertyOp39
 70
     1
102
RTVSPropertyOp40
 70
     1
102
RTVSPropertyOp41
 70
     1
102
RTVSPropertyOp42
 70
     1
102
RTVSPropertyOp43
 70
     1
102
RTVSPropertyOp44
 70
     1
102
RTVSPropertyOp45
 70
     1
102
RTVSPropertyOp46
 70
     1
102
RTVSPropertyOp47
 70
     1
102
RTVSPropertyOp48
 70
     1
102
RTVSPropertyOp49
 70
     1
102
RTVSPropertyOp50
 70
     1
102
RTVSPropertyOp51
 70
     0
102
RTVSPropertyOp52
 70
     0
102
RTVSPropertyOp53
 70
     1
102
RTVSPropertyOp54
 70
     1
102
RTVSPropertyOp55
 70
     1
102
RTVSPropertyOp56
 70
     1
102
RTVSPropertyOp57
 70
     1
102
RTVSPropertyOp58
 70
     1
102
RTVSPropertyOp59
 70
     1
102
RTVSPropertyOp60
 70
     1
102
RTVSPropertyOp61
 70
     1
102
RTVSPropertyOp62
 70
     1
  0
XRECORD
  5
26B8
102
{ACAD_REACTORS
330
26B7
102
}
330
26B7
100
AcDbXrecord
280
     1
102
RTVSPost2010Prop28
280
     0
102
RTVSPost2010PropOp28
 70
     1
102
RTVSPost2010Prop29
280
     1
102
RTVSPost2010PropOp29
 70
     1
102
RTVSPost2010Prop30
280
     1
102
RTVSPost2010PropOp30
 70
     1
102
RTVSPost2010Prop31
280
     0
102
RTVSPost2010PropOp31
 70
     1
102
RTVSPost2010Prop32
280
     0
102
RTVSPost2010PropOp32
 70
     1
102
RTVSPost2010Prop33
280
     0
102
RTVSPost2010PropOp33
 70
     1
102
RTVSPost2010Prop34
280
     0
102
RTVSPost2010PropOp34
 70
     1
102
RTVSPost2010Prop35
280
     0
102
RTVSPost2010PropOp35
 70
     1
102
RTVSPost2010Prop36
280
     0
102
RTVSPost2010PropOp36
 70
     1
102
RTVSPost2010Prop37
 90
       50
102
RTVSPost2010PropOp37
 70
     1
102
RTVSPost2010Prop38
140
0.0
102
RTVSPost2010PropOp38
 70
     1
102
RTVSPost2010Prop39
140
1.0
102
RTVSPost2010PropOp39
 70
     1
102
RTVSPost2010Prop40
 90
        0
102
RTVSPost2010PropOp40
 70
     1
102
RTVSPost2010Prop41ColorIndex
 90
       18
102
RTVSPost2010Prop41ColorRGB
 90
        0
102
RTVSPost2010PropOp41
 70
     1
102
RTVSPost2010Prop42
 90
       50
102
RTVSPost2010PropOp42
 70
     1
102
RTVSPost2010Prop43
 90
        3
102
RTVSPost2010PropOp43
 70
     1
102
RTVSPost2010Prop44ColorIndex
 90
        5
102
RTVSPost2010Prop44ColorRGB
 90
      255
102
RTVSPost2010PropOp44
 70
     1
102
RTVSPost2010Prop45
280
     0
102
RTVSPost2010PropOp45
 70
     1
102
RTVSPost2010Prop46
 90
       50
102
RTVSPost2010PropOp46
 70
     1
102
RTVSPost2010Prop47
 90
       50
102
RTVSPost2010PropOp47
 70
     1
102
RTVSPost2010Prop48
 90
       50
102
RTVSPost2010PropOp48
 70
     1
102
RTVSPost2010Prop49
280
     0
102
RTVSPost2010PropOp49
 70
     1
102
RTVSPost2010Prop50
 90
       50
102
RTVSPost2010PropOp50
 70
     1
102
RTVSPost2010Prop51ColorIndex
 90
      256
102
RTVSPost2010Prop51ColorRGB
 90
-16777216
102
RTVSPost2010PropOp51
 70
     0
102
RTVSPost2010Prop52
140
1.0
102
RTVSPost2010PropOp52
 70
     0
102
RTVSPost2010Prop53
 90
        2
102
RTVSPost2010PropOp53
 70
     1
102
RTVSPost2010Prop54
  1
strokes_ogs.tif
102
RTVSPost2010PropOp54
 70
     1
102
RTVSPost2010Prop55
280
     0
102
RTVSPost2010PropOp55
 70
     1
102
RTVSPost2010Prop56
140
1.0
102
RTVSPost2010PropOp56
 70
     1
102
RTVSPost2010Prop57
140
1.0
102
RTVSPost2010PropOp57
 70
     1
102
RTVSPropertyOp0
 70
     1
102
RTVSPropertyOp1
 70
     1
102
RTVSPropertyOp2
 70
     1
102
RTVSPropertyOp3
 70
     1
102
RTVSPropertyOp4
 70
     1
102
RTVSPropertyOp5
 70
     1
102
RTVSPropertyOp6
 70
     1
102
RTVSPropertyOp7
 70
     1
102
RTVSPropertyOp8
 70
     1
102
RTVSPropertyOp9
 70
     1
102
RTVSPropertyOp10
 70
     1
102
RTVSPropertyOp11
 70
     1
102
RTVSPropertyOp12
 70
     1
102
RTVSPropertyOp13
 70
     1
102
RTVSPropertyOp14
 70
     1
102
RTVSPropertyOp15
 70
     1
102
RTVSPropertyOp16
 70
     1
102
RTVSPropertyOp17
 70
     1
102
RTVSPropertyOp18
 70
     1
102
RTVSPropertyOp19
 70
     1
102
RTVSPropertyOp20
 70
     1
102
RTVSPropertyOp21
 70
     1
102
RTVSPropertyOp22
 70
     1
102
RTVSPropertyOp23
 70
     1
102
RTVSPropertyOp24
 70
     1
102
RTVSPropertyOp25
 70
     1
102
RTVSPropertyOp26
 70
     1
102
RTVSPropertyOp27
 70
     1
102
RTVSPropertyOp28
 70
     1
102
RTVSPropertyOp29
 70
     1
102
RTVSPropertyOp30
 70
     1
102
RTVSPropertyOp31
 70
     1
102
RTVSPropertyOp32
 70
     1
102
RTVSPropertyOp33
 70
     1
102
RTVSPropertyOp34
 70
     1
102
RTVSPropertyOp35
 70
     1
102
RTVSPropertyOp36
 70
     1
102
RTVSPropertyOp37
 70
     1
102
RTVSPropertyOp38
 70
     1
102
RTVSPropertyOp39
 70
     1
102
RTVSPropertyOp40
 70
     1
102
RTVSPropertyOp41
 70
     1
102
RTVSPropertyOp42
 70
     1
102
RTVSPropertyOp43
 70
     1
102
RTVSPropertyOp44
 70
     1
102
RTVSPropertyOp45
 70
     1
102
RTVSPropertyOp46
 70
     1
102
RTVSPropertyOp47
 70
     1
102
RTVSPropertyOp48
 70
     1
102
RTVSPropertyOp49
 70
     1
102
RTVSPropertyOp50
 70
     1
102
RTVSPropertyOp51
 70
     0
102
RTVSPropertyOp52
 70
     0
102
RTVSPropertyOp53
 70
     1
102
RTVSPropertyOp54
 70
     1
102
RTVSPropertyOp55
 70
     1
102
RTVSPropertyOp56
 70
     1
102
RTVSPropertyOp57
 70
     1
102
RTVSPropertyOp58
 70
     1
102
RTVSPropertyOp59
 70
     1
102
RTVSPropertyOp60
 70
     1
102
RTVSPropertyOp61
 70
     1
102
RTVSPropertyOp62
 70
     1
  0
XRECORD
  5
26C0
102
{ACAD_REACTORS
330
26BF
102
}
330
26BF
100
AcDbXrecord
280
     1
102
RTVSPost2010Prop28
280
     0
102
RTVSPost2010PropOp28
 70
     1
102
RTVSPost2010Prop29
280
     1
102
RTVSPost2010PropOp29
 70
     1
102
RTVSPost2010Prop30
280
     1
102
RTVSPost2010PropOp30
 70
     1
102
RTVSPost2010Prop31
280
     0
102
RTVSPost2010PropOp31
 70
     1
102
RTVSPost2010Prop32
280
     0
102
RTVSPost2010PropOp32
 70
     1
102
RTVSPost2010Prop33
280
     0
102
RTVSPost2010PropOp33
 70
     1
102
RTVSPost2010Prop34
280
     0
102
RTVSPost2010PropOp34
 70
     1
102
RTVSPost2010Prop35
280
     0
102
RTVSPost2010PropOp35
 70
     1
102
RTVSPost2010Prop36
280
     0
102
RTVSPost2010PropOp36
 70
     1
102
RTVSPost2010Prop37
 90
       50
102
RTVSPost2010PropOp37
 70
     1
102
RTVSPost2010Prop38
140
0.0
102
RTVSPost2010PropOp38
 70
     1
102
RTVSPost2010Prop39
140
1.0
102
RTVSPost2010PropOp39
 70
     1
102
RTVSPost2010Prop40
 90
        0
102
RTVSPost2010PropOp40
 70
     1
102
RTVSPost2010Prop41ColorIndex
 90
       18
102
RTVSPost2010Prop41ColorRGB
 90
        0
102
RTVSPost2010PropOp41
 70
     1
102
RTVSPost2010Prop42
 90
       50
102
RTVSPost2010PropOp42
 70
     1
102
RTVSPost2010Prop43
 90
        3
102
RTVSPost2010PropOp43
 70
     1
102
RTVSPost2010Prop44ColorIndex
 90
        5
102
RTVSPost2010Prop44ColorRGB
 90
      255
102
RTVSPost2010PropOp44
 70
     1
102
RTVSPost2010Prop45
280
     0
102
RTVSPost2010PropOp45
 70
     1
102
RTVSPost2010Prop46
 90
       50
102
RTVSPost2010PropOp46
 70
     1
102
RTVSPost2010Prop47
 90
       50
102
RTVSPost2010PropOp47
 70
     1
102
RTVSPost2010Prop48
 90
       50
102
RTVSPost2010PropOp48
 70
     1
102
RTVSPost2010Prop49
280
     0
102
RTVSPost2010PropOp49
 70
     1
102
RTVSPost2010Prop50
 90
       50
102
RTVSPost2010PropOp50
 70
     1
102
RTVSPost2010Prop51ColorIndex
 90
      256
102
RTVSPost2010Prop51ColorRGB
 90
-16777216
102
RTVSPost2010PropOp51
 70
     0
102
RTVSPost2010Prop52
140
1.0
102
RTVSPost2010PropOp52
 70
     0
102
RTVSPost2010Prop53
 90
        2
102
RTVSPost2010PropOp53
 70
     1
102
RTVSPost2010Prop54
  1
strokes_ogs.tif
102
RTVSPost2010PropOp54
 70
     1
102
RTVSPost2010Prop55
280
     0
102
RTVSPost2010PropOp55
 70
     1
102
RTVSPost2010Prop56
140
1.0
102
RTVSPost2010PropOp56
 70
     1
102
RTVSPost2010Prop57
140
1.0
102
RTVSPost2010PropOp57
 70
     1
102
RTVSPropertyOp0
 70
     1
102
RTVSPropertyOp1
 70
     1
102
RTVSPropertyOp2
 70
     1
102
RTVSPropertyOp3
 70
     1
102
RTVSPropertyOp4
 70
     1
102
RTVSPropertyOp5
 70
     1
102
RTVSPropertyOp6
 70
     1
102
RTVSPropertyOp7
 70
     1
102
RTVSPropertyOp8
 70
     1
102
RTVSPropertyOp9
 70
     1
102
RTVSPropertyOp10
 70
     1
102
RTVSPropertyOp11
 70
     1
102
RTVSPropertyOp12
 70
     1
102
RTVSPropertyOp13
 70
     1
102
RTVSPropertyOp14
 70
     1
102
RTVSPropertyOp15
 70
     1
102
RTVSPropertyOp16
 70
     1
102
RTVSPropertyOp17
 70
     1
102
RTVSPropertyOp18
 70
     1
102
RTVSPropertyOp19
 70
     1
102
RTVSPropertyOp20
 70
     1
102
RTVSPropertyOp21
 70
     1
102
RTVSPropertyOp22
 70
     1
102
RTVSPropertyOp23
 70
     1
102
RTVSPropertyOp24
 70
     1
102
RTVSPropertyOp25
 70
     1
102
RTVSPropertyOp26
 70
     1
102
RTVSPropertyOp27
 70
     1
102
RTVSPropertyOp28
 70
     1
102
RTVSPropertyOp29
 70
     1
102
RTVSPropertyOp30
 70
     1
102
RTVSPropertyOp31
 70
     1
102
RTVSPropertyOp32
 70
     1
102
RTVSPropertyOp33
 70
     1
102
RTVSPropertyOp34
 70
     1
102
RTVSPropertyOp35
 70
     1
102
RTVSPropertyOp36
 70
     1
102
RTVSPropertyOp37
 70
     1
102
RTVSPropertyOp38
 70
     1
102
RTVSPropertyOp39
 70
     1
102
RTVSPropertyOp40
 70
     1
102
RTVSPropertyOp41
 70
     1
102
RTVSPropertyOp42
 70
     1
102
RTVSPropertyOp43
 70
     1
102
RTVSPropertyOp44
 70
     1
102
RTVSPropertyOp45
 70
     1
102
RTVSPropertyOp46
 70
     1
102
RTVSPropertyOp47
 70
     1
102
RTVSPropertyOp48
 70
     1
102
RTVSPropertyOp49
 70
     1
102
RTVSPropertyOp50
 70
     1
102
RTVSPropertyOp51
 70
     0
102
RTVSPropertyOp52
 70
     0
102
RTVSPropertyOp53
 70
     1
102
RTVSPropertyOp54
 70
     1
102
RTVSPropertyOp55
 70
     1
102
RTVSPropertyOp56
 70
     1
102
RTVSPropertyOp57
 70
     1
102
RTVSPropertyOp58
 70
     1
102
RTVSPropertyOp59
 70
     1
102
RTVSPropertyOp60
 70
     1
102
RTVSPropertyOp61
 70
     1
102
RTVSPropertyOp62
 70
     1
  0
ENDSEC
  0
EOF
